#TITLE:PSYCHE PLANET-V;
#SUBTITLE:;
#ARTIST:Sota Fujimori;
#TITLETRANSLIT:;
#SUBTITLETRANSLIT:;
#ARTISTTRANSLIT:;
#GENRE:;
#CREDIT:;
#BANNER:PSYCHE PLANET-V.png;
#BACKGROUND:PSYCHE PLANET-V-bg.png;
#LYRICSPATH:;
#CDTITLE:;
#MUSIC:PSYCHE PLANET-V.ogg;
#OFFSET:0.800000;
#SAMPLESTART:90.400002;
#SAMPLELENGTH:20.000000;
#SELECTABLE:YES;
#DISPLAYBPM:150.000000;
#BPMS:0.000000=150.000000
;
#STOPS:
;
#BGCHANGES:;
#KEYSOUNDS:;
#ATTACKS:;

//---------------dance-single - ----------------
#NOTES:
     dance-single:
     :
     Beginner:
     4:
     0.192291,0.239661,0.082076,0.000000,0.000000,164.000000,154.000000,10.000000,0.000000,0.000000,0.000000,0.192291,0.239661,0.082076,0.000000,0.000000,164.000000,154.000000,10.000000,0.000000,0.000000,0.000000:
0000
0000
0000
0000
,
0000
0000
0000
0000
,
0000
0000
0000
0000
,
0000
0000
0000
0000
,
0000
0000
0000
0000
,
0010
0000
1000
0000
,
0010
0000
0100
0000
,
0001
0000
0010
0000
,
0100
0000
0000
0000
,
1000
0000
0010
0000
,
1000
0000
0100
0000
,
0001
0000
0010
0000
,
0001
0000
1000
0000
,
0010
0000
0010
0000
,
1000
0000
1000
0000
,
0100
0000
0010
0000
,
0001
0000
0001
0000
,
0010
0010
0000
0000
,
0001
0001
0000
0000
,
0100
0100
0000
0000
,
1000
1000
0000
0000
,
0001
0001
0000
0000
,
0010
0010
0000
0000
,
0100
0100
0000
0000
,
1000
1000
1000
0000
,
0001
0001
0001
0000
,
1000
1000
1000
0000
,
0010
0010
0010
0000
,
0100
0100
0100
0000
,
0001
0001
0000
0000
,
1000
1000
0000
0000
,
0010
0010
0000
0000
,
0100
0000
0000
0000
,
1001
0000
0100
0000
,
1000
1000
1000
0000
,
1001
0000
0100
0000
,
0001
0001
0001
0000
,
0110
0000
0001
0000
,
0100
0100
0100
0000
,
0110
0000
0010
0000
,
1000
1000
1000
0000
,
0001
0001
0001
0000
,
0010
0010
0010
0000
,
0100
0100
0100
0000
,
1000
1000
1000
0000
,
0010
0010
0010
0000
,
0100
0100
0100
0000
,
0001
0001
0001
0000
,
1000
0000
0001
0000
,
0010
0010
0000
0000
,
0010
0010
0000
0000
,
0001
0001
0000
0000
,
1000
1000
0000
0000
,
0100
0000
0100
0000
,
1000
0000
1000
0000
,
0001
0000
1000
0000
,
0010
0000
0100
0000
,
0001
0001
0000
0000
,
0010
0000
0001
0000
,
0100
0100
0000
0000
,
0010
0000
1000
0000
,
0001
0001
0000
0000
,
1000
0000
0010
0000
,
0100
0100
0000
0000
,
0001
0000
0010
0000
,
0110
0000
0001
0000
,
1000
1000
1000
0000
,
0110
0000
0100
0000
,
0010
0010
0010
0000
,
1001
0000
0001
0000
,
0010
0010
0010
0000
,
1001
0000
0100
0000
,
1001
0000
0010
0000
,
0110
0000
0000
0000
;

//---------------dance-single - ----------------
#NOTES:
     dance-single:
     :
     Easy:
     7:
     0.343545,0.389448,0.246227,0.114906,0.000000,293.000000,263.000000,30.000000,14.000000,0.000000,0.000000,0.343545,0.389448,0.246227,0.114906,0.000000,293.000000,263.000000,30.000000,14.000000,0.000000,0.000000:
0000
0000
0000
0000
,
0000
0000
0000
0000
,
0000
0000
0000
0000
,
0000
0000
0000
0000
,
0000
0000
0000
0000
,
0100
0001
0100
0010
,
1000
0100
0010
0001
,
1000
0010
1000
0100
,
0001
0010
0100
1000
,
0001
0010
1000
0100
,
1000
0010
0001
1000
,
0001
1000
0100
0001
,
0010
0100
0010
0001
,
0100
0010
1000
0001
,
1000
0100
0010
0001
,
0100
0010
0100
0001
,
0010
0001
0100
1000
,
0010
0010
1000
0001
,
0010
0010
0001
1000
,
0100
0100
1000
0001
,
0100
0100
0001
1000
,
0001
0001
0010
0100
,
1000
1000
0010
0100
,
0001
0001
0100
0010
,
1000
1000
0100
0010
,
0001
0201
1000
0310
,
1000
2100
0010
3001
,
0100
0012
0010
1003
,
0001
1020
0100
1030
,
0001
0210
0010
0301
,
1000
1002
0100
1003
,
0010
0010
0100
0100
,
1000
0001
1000
0001
,
1001
0100
0001
0010
,
1000
1000
1000
1000
,
0110
0010
0001
0100
,
0010
0010
0010
0010
,
0001
0100
1000
1010
,
0001
0001
0001
0001
,
0100
0010
1000
0101
,
0100
0100
0100
0100
,
0010
1000
0001
1100
,
0001
0100
0010
1000
,
0100
0001
0010
0011
,
0100
0010
0100
0001
,
0011
1100
0010
1000
,
0100
0001
1000
0010
,
1010
0101
0001
0100
,
0001
0010
0100
1000
,
1002
0000
2003
0000
,
3200
0000
0320
0000
,
0032
0000
2003
0000
,
3020
0000
0230
0000
,
0301
0100
1000
0000
,
0010
0100
0001
0000
,
0010
0001
0100
1000
,
0010
0010
0010
0110
,
1001
0001
0010
1000
,
0100
0100
1000
0001
,
1010
0100
0010
1000
,
0100
0100
0010
0010
,
0011
0100
0001
0010
,
1000
0001
1000
0100
,
1100
0010
1000
0100
,
0010
0001
0100
0010
,
0101
0001
1000
0100
,
0010
0010
0010
0001
,
0110
1000
0010
1000
,
0100
0100
1000
0001
,
1100
0110
0001
0100
,
1000
1000
0001
1000
,
0011
1010
0010
0100
,
1001
0010
1000
0001
,
0101
0000
0000
0000
;

//---------------dance-single - ----------------
#NOTES:
     dance-single:
     :
     Medium:
     10:
     0.467831,0.509279,0.246227,0.443208,0.032830,399.000000,369.000000,30.000000,54.000000,0.000000,0.000000,0.467831,0.509279,0.246227,0.443208,0.032830,399.000000,369.000000,30.000000,54.000000,0.000000,0.000000:
0000
0000
0000
0000
,
0000
0000
0000
0000
,
0000
0000
0000
0000
,
0000
0000
0000
0000
,
0000
0000
0000
0000
,
0010
0000
1000
0000
0100
0010
0001
0000
,
1000
0000
0001
0000
0010
0100
1000
0000
,
0001
0000
1000
0000
0001
0100
0010
0000
,
1000
0100
0001
0000
0010
0001
0100
0000
,
0000
0010
1000
0000
0001
1000
0100
0000
,
0000
1000
0001
0000
1000
0100
0010
0000
,
0000
0001
0100
0000
0010
1000
0001
0000
,
0000
0010
0100
0000
0001
0010
1000
0000
,
0100
1000
0001
0000
0010
0100
0010
0000
,
0001
0100
0010
0000
1000
0100
1000
0000
,
0001
1000
0100
0000
1000
0010
0001
0000
,
0100
0010
0100
0000
0001
1000
0001
0000
,
2000
0000
0000
3020
0000
0000
0230
0000
1000
0000
0000
0000
0301
0000
0000
0000
,
0020
0000
0000
0032
0000
0000
2003
0000
0100
0000
0000
0000
3010
0000
0000
0000
,
2000
0000
0000
3002
0000
0000
0203
0000
1000
0000
0000
0000
0310
0000
0000
0000
,
0002
0000
0000
0023
0000
0000
0230
0000
0001
0000
0000
0000
1300
0000
0000
0000
,
2000
0000
0000
0001
0000
0000
0100
0000
3200
0000
0000
0000
0310
0000
0000
0000
,
0002
0000
0000
0010
0000
0000
1000
0000
2003
0000
0000
0000
3100
0000
0000
0000
,
2000
0000
0000
0100
0000
0000
0010
0000
3020
0000
0000
0000
0130
0000
0000
0000
,
0001
0010
1000
0000
0100
0010
0001
0000
,
0011
0000
1100
0000
0001
0100
1000
0000
,
1010
0000
0101
0000
0010
1000
0100
0000
,
0110
0000
1001
0000
0100
0010
1000
0000
,
1100
0000
0101
0000
0001
0010
0100
0000
,
1001
0000
0110
0000
0100
0010
1000
0000
,
1010
0000
0011
0000
0010
0100
1000
0000
,
0002
0000
0000
2003
0000
0000
0010
0000
0010
0000
0000
0000
3100
0000
0000
0000
,
1000
0001
1000
0010
0100
0001
0100
0000
,
0001
0010
1000
0000
0100
0100
0100
0000
,
1000
0001
0010
0000
0001
0100
0010
0000
,
0100
0001
1000
0000
0010
0010
0010
0000
,
1000
0100
0001
0000
1000
0100
0010
0000
,
0001
1000
0100
1000
0010
0100
0001
0000
,
0010
0001
1000
0000
0100
0010
0100
0000
,
1000
0001
0100
0001
0010
0100
1000
0000
,
0010
0100
0001
0000
1000
0010
1000
0000
,
0100
1000
0100
1000
0010
1000
0001
0000
,
0010
0001
0010
0000
0001
1000
0100
0000
,
1000
0001
1000
0010
1000
0100
0001
0000
,
0010
0001
1000
0000
0001
0010
1000
0000
,
0100
1000
0010
0000
0001
0001
0001
0000
,
0010
0001
1000
0000
0100
1000
0010
0000
,
0100
0001
0010
0000
1000
1000
1000
0000
,
0001
1000
0010
0000
0100
0001
0010
0000
,
1001
0000
0100
0000
0001
0010
1000
0000
,
1100
0000
0001
0000
0100
0010
1000
0000
,
0101
0000
0010
0000
1000
0100
0001
0000
,
0110
0000
0001
0000
1000
0010
0100
0000
,
0001
0010
0100
2000
0010
0000
3001
0000
,
0010
1000
0100
0020
0001
0000
0130
0000
,
0012
0203
0320
1030
,
2010
3002
0203
0310
,
2000
0000
3001
0020
0000
0032
0000
2003
,
0000
0100
0000
0001
3002
0000
0203
0000
,
0320
0000
1000
2030
0000
3001
0000
0011
,
0000
0101
0000
1000
0020
0000
0230
0000
,
0302
0000
1003
0200
0000
2300
0000
3020
,
0000
0230
0000
0001
0302
0000
0013
0000
,
1002
0000
0100
0103
0000
1010
0000
1100
,
0000
0110
0000
0001
2000
0000
3100
0010
,
0002
0000
1000
2003
0000
0010
0000
0100
,
0000
0010
0000
3001
0200
0000
0320
0000
,
1030
0100
0010
0001
0000
1010
0000
0101
,
0000
1100
0000
0001
2000
0000
3100
1000
,
0020
0000
0100
0230
0000
1000
0000
0010
,
0000
1000
0000
0001
0302
0000
0103
0001
,
1000
0010
0100
0001
0000
0011
0000
1000
,
0010
1000
0100
0010
0001
0100
0110
0000
,
1001
0000
0000
0000
;

//---------------dance-single - ----------------
#NOTES:
     dance-single:
     :
     Hard:
     13:
     0.621429,0.629109,0.196981,0.410378,0.508868,530.000000,506.000000,24.000000,50.000000,0.000000,0.000000,0.621429,0.629109,0.196981,0.410378,0.508868,530.000000,506.000000,24.000000,50.000000,0.000000,0.000000:
// measure 0
0000
0000
0000
0000
,  // measure 1
0000
0000
0000
0000
,  // measure 2
0000
0000
0000
0000
,  // measure 3
0000
0000
0000
0000
,  // measure 4
0000
0000
0000
0000
,  // measure 5
0100
0001
0010
0001
1000
0010
0100
0000
,  // measure 6
0010
1000
0100
0010
0001
1000
0001
0000
,  // measure 7
1000
0100
0010
0001
1000
0010
0100
0000
,  // measure 8
0001
0000
1000
0000
0100
0000
0010
0000
0100
0000
0010
0000
0001
1000
0001
1000
,  // measure 9
0001
0000
0100
0000
0010
0000
0000
0000
1000
0100
0000
1000
0001
0000
0000
0000
,  // measure 10
0010
0000
0001
0000
0100
0000
0000
0000
0010
1000
0000
0001
1000
0000
0000
0000
,  // measure 11
0100
0000
1000
0000
0001
0000
0000
0000
1000
0010
0000
0100
0010
0000
0000
0000
,  // measure 12
1000
0000
0100
0000
0010
0000
0000
0000
0001
1000
0000
0001
0010
0000
0000
0000
,  // measure 13
1000
0001
0000
0001
0100
0000
0000
0000
0010
1000
0000
0010
0100
0000
0000
0000
,  // measure 14
0001
0010
0000
0010
0100
0000
0000
0000
1000
0001
0000
1000
0100
0000
0000
0000
,  // measure 15
1000
0010
0000
0010
0100
0000
0000
0000
0100
0001
0000
0001
1000
0000
0000
0000
,  // measure 16
0001
1000
0000
0001
0010
0000
0000
0000
0100
1000
0000
0010
0100
0000
0000
0000
,  // measure 17
0002
0000
0000
0023
0000
0000
0230
0000
0000
2300
0000
0000
3010
0100
0010
0100
,  // measure 18
0020
0000
0000
2030
0000
0000
3002
0000
0000
0203
0000
0000
0301
0010
0001
0010
,  // measure 19
0002
0000
0000
2003
0000
0000
3200
0000
0000
0320
0000
0000
0130
1000
0100
1000
,  // measure 20
0200
0000
0000
0320
0000
0000
0032
0000
0000
2003
0000
0000
3010
1000
0010
1000
,  // measure 21
0020
0000
0000
2030
0000
0000
3200
0000
0000
0320
0000
0000
0031
0100
0001
0100
,  // measure 22
0002
0000
0000
0023
0000
0000
0032
0000
0000
2003
0000
0000
3010
0100
0010
0100
,  // measure 23
0020
0000
0000
0230
0000
0000
0302
0000
0000
0023
0000
0000
0130
1000
0100
1000
,  // measure 24
0100
0010
0001
0100
0010
1000
0001
0100
,  // measure 25
0020
0000
0000
0001
0000
0000
1030
0000
0010
0100
0000
0100
0001
0000
1000
0000
,  // measure 26
0200
0000
0000
0001
0000
0000
0310
0000
1000
0001
0000
1000
0010
0000
0100
0000
,  // measure 27
0002
0000
0000
0100
0000
0000
1003
0000
0001
0010
0000
0010
0100
0000
1000
0000
,  // measure 28
0020
0000
0000
0100
0000
0000
1030
0000
0001
0010
0000
0001
1000
0000
0100
0000
,  // measure 29
2000
0000
0000
0001
0000
0000
3020
0000
0000
0100
0000
0130
0010
0000
1000
0000
,  // measure 30
0200
0000
0000
0001
0000
0000
2300
0000
0000
0010
0000
3010
0100
0000
0001
0000
,  // measure 31
0020
0000
0000
0100
0000
0000
0032
0000
0000
1000
0000
1003
0001
0000
0100
0000
,  // measure 32
0010
0100
0001
0010
0100
1000
0001
1000
,  // measure 33
0010
0000
1000
0000
2100
0000
0000
0001
0000
0001
0000
3001
0100
0000
0010
0000
,  // measure 34
0100
0000
0001
0000
0010
0001
0000
0000
1000
0010
0000
1000
0001
0000
0100
0000
,  // measure 35
0010
0000
0100
0000
0102
0000
0000
1000
0000
1000
0000
1003
0001
0000
0100
0000
,  // measure 36
0001
0000
1000
0000
0100
0010
0000
0000
0001
0100
0000
0100
0010
0000
1000
0000
,  // measure 37
0100
0000
1000
0000
0100
0000
0010
0000
0001
1000
0001
1000
0001
0000
0010
0000
,  // measure 38
0100
0000
1000
0000
0001
1000
0000
0000
0010
0100
0000
0010
1000
0000
0001
0000
,  // measure 39
0010
0000
0001
0000
1000
0000
0100
0000
1000
0001
1000
0001
1000
0000
0010
0000
,  // measure 40
0100
0001
0010
0001
0100
0010
1000
0001
,  // measure 41
1000
0000
0100
0000
0010
0000
0100
0000
1000
0001
1000
0001
1000
0000
0010
0000
,  // measure 42
0100
0000
0001
0000
1000
0000
0001
0000
0010
0100
0010
0100
0010
0000
0000
0000
,  // measure 43
0001
0000
1000
0000
0010
0000
0000
0100
0000
0010
0000
0100
0001
0000
1000
0000
,  // measure 44
0100
0000
0010
0000
0001
0000
0100
0000
1000
0010
1000
0010
1000
0000
0000
0000
,  // measure 45
0100
0000
0010
0000
0021
0000
0000
0001
0000
1000
0000
0031
0100
0000
0010
0000
,  // measure 46
1000
0000
0000
0100
0000
0000
0010
0000
0001
1000
0000
0001
1000
0000
0000
0000
,  // measure 47
0010
0000
0100
0000
1020
0000
0000
1000
0000
0001
0000
1030
0010
0000
0100
0000
,  // measure 48
0001
0010
0001
0100
0010
1000
0001
1000
,  // measure 49
0100
0000
0000
0100
0000
0000
0100
0000
1000
0001
0000
0001
0010
0000
0000
0000
,  // measure 50
0001
0000
0000
0001
0000
0000
0001
0000
0010
0100
0000
0100
1000
0000
0000
0000
,  // measure 51
0010
0000
0000
0010
0000
0000
0010
0000
1000
0001
0000
1000
0100
0000
0000
0000
,  // measure 52
1000
0000
0000
1000
0000
0000
1000
0000
0010
0100
0000
0100
0001
0000
0000
0000
,  // measure 53
0010
0001
1000
0010
1000
0100
0001
0000
,  // measure 54
1000
0001
1000
0010
0100
0001
1000
0000
,  // measure 55
0001
0010
0100
1000
0010
1000
0100
0000
,  // measure 56
0011
1100
0101
1010
,  // measure 57
1001
0000
0110
0001
0000
0100
1000
0010
,  // measure 58
1000
0001
0000
0010
0100
0100
1000
0001
,  // measure 59
0010
0001
0100
0010
0000
2000
0000
3002
,  // measure 60
0000
2003
0000
3010
0100
0001
0001
1000
,  // measure 61
0100
1000
0010
0010
0000
0100
0001
2000
,  // measure 62
0000
3002
0000
1003
0010
0010
0100
0100
,  // measure 63
0001
0010
0100
1000
0000
0020
0000
0230
,  // measure 64
0000
0320
0000
1030
0001
0001
0100
0010
,  // measure 65
1000
0001
1000
0010
0000
0110
0000
1001
,  // measure 66
0000
1100
0000
0101
0001
0001
0100
0010
,  // measure 67
1000
1000
0001
1000
0000
1010
0000
0101
,  // measure 68
0000
1001
0000
0001
0010
0001
0100
0010
,  // measure 69
1000
0100
1000
0001
0000
0011
0000
0110
,  // measure 70
0000
1100
0000
0001
1000
1000
0100
0100
,  // measure 71
1000
0001
1000
0010
0000
0101
0000
1100
,  // measure 72
0000
1010
0000
1000
0010
0010
0100
0001
,  // measure 73
0011
0000
0000
0000
;
