#VERSION:0.83;
#TITLE:POWER;
#SUBTITLE:;
#ARTIST:Kanye West;
#TITLETRANSLIT:;
#SUBTITLETRANSLIT:;
#ARTISTTRANSLIT:;
#GENRE:;
#ORIGIN:;
#TAGS:;
#CREDIT:;
#BANNER:POWER-bn.png;
#BACKGROUND:POWER-bg.png;
#PREVIEWVID:;
#JACKET:POWER-jacket.png;
#CDIMAGE:;
#DISCIMAGE:;
#LYRICSPATH:;
#CDTITLE:;
#MUSIC:POWER.ogg;
#OFFSET:0.000000;
#SAMPLESTART:11.504000;
#SAMPLELENGTH:20.000000;
#SELECTABLE:YES;
#DISPLAYBPM:154.000000;
#BPMS:0.000000=154.000000;
#STOPS:;
#DELAYS:;
#WARPS:;
#TIMESIGNATURES:0.000000=4=4;
#TICKCOUNTS:0.000000=4;
#COMBOS:0.000000=1;
#SPEEDS:0.000000=1.000000=0.000000=0;
#SCROLLS:0.000000=1.000000;
#FAKES:;
#LABELS:0.000000=Song Start;
#BGCHANGES:;
#KEYSOUNDS:;
#ATTACKS:
;

//---------------dance-single - ----------------
#NOTEDATA:;
#CHARTNAME:;
#CHARTHASH:2204891118:
#STEPSTYPE:dance-single;
#BANNER:;
#DESCRIPTION:;
#CHARTSTYLE:;
#DIFFICULTY:Hard;
#METER:13;
#METERF:0.000000;
#RADARVALUES:0.571686,0.639601,0.381851,0.397125,0.084007,524.000000,474.000000,50.000000,52.000000,0.000000,0.000000,0.000000,0.000000,0.000000,0.571686,0.639601,0.381851,0.397125,0.084007,524.000000,474.000000,50.000000,52.000000,0.000000,0.000000,0.000000,0.000000,0.000000;
#CREDIT:;
#DISPLAYBPM:154.000000;
#NOTES:
0000
0000
0000
0000
,
0000
0000
0000
0000
,
0000
0000
0000
0000
,
0000
0000
0000
0000
,
0101
0100
1000
0000
1000
0000
1000
0000
,
1020
1030
1200
1300
,
0011
0100
1000
0001
1000
0010
1000
0000
,
0001
0100
0010
1000
0001
0010
0100
1000
,
0010
0100
0001
0000
0010
0100
1000
0000
,
0010
1000
0001
1000
0200
0000
0310
0001
,
0100
0010
0100
1000
0100
0010
0100
0001
,
0010
1000
0010
0100
2000
0000
3001
0100
,
0110
0000
0010
1000
0001
0100
1000
0000
,
0010
1000
0100
0010
0001
0100
0010
1000
,
0000
0010
1002
0000
0103
0001
1000
0001
,
0010
0100
1000
0010
0200
0000
0301
1000
,
0002
0000
0000
2003
0000
0000
3002
0000
0000
0000
0103
0000
1000
0000
0000
0000
,
1010
0001
0100
0000
0011
1000
0010
0000
,
1001
0100
1000
0000
1000
0010
0100
0101
,
0000
1100
0000
0001
2000
0100
3100
0000
,
1000
0001
0110
0000
0101
1000
0010
0100
,
0001
0010
1000
0001
0100
0010
1000
0000
,
2200
0000
0000
3300
,
0010
0000
0000
0000
1000
0000
0000
0000
0000
0000
0001
0000
0000
0000
0000
0000
0000
0000
0000
0000
0000
1000
0000
0000
0100
0000
0000
1000
0000
0000
0000
0000
0000
0010
0000
0000
0000
0000
0000
0000
0100
0000
0000
0000
0001
0000
0000
0000
,
1000
0001
0001
0001
0100
0010
0010
1010
,
0000
0101
0000
1000
0001
0100
0001
1000
,
0000
0010
0010
1000
0001
1000
1000
0100
,
0000
1000
0100
0010
0001
0100
2000
0000
,
3001
0100
0010
0000
1000
0100
0010
0001
,
0000
0010
0001
0100
0010
1000
0002
0000
,
0013
0000
0000
0000
0001
0000
0100
0000
0110
0000
0000
1001
0000
0000
0110
0000
,
1000
0010
0100
0001
1000
0100
0010
0001
,
0100
0000
0010
0000
1000
0000
0001
0000
0011
0000
0000
1100
0000
0000
0101
0000
,
1000
0000
0001
0100
0010
1000
0200
0000
,
0310
0000
0000
0000
0001
0000
0100
0000
1020
0000
0000
1030
0000
0000
1100
0000
,
0000
0001
0010
1000
0100
0010
0002
0000
,
1003
0010
1000
0001
0010
0100
1000
0000
,
0010
0100
0001
0010
1000
0001
2000
0000
,
3100
0000
0000
0000
1000
0000
0001
0000
0020
0000
0000
0230
0000
0000
2300
0000
,
0000
0010
3010
1000
0002
0100
0103
0000
,
0020
0000
0000
2030
0000
0000
3002
0000
0000
0000
1003
0000
0100
0000
0000
0000
,
0101
0010
0100
0000
1100
0001
1000
0000
,
0010
1000
0100
0000
1001
0010
0100
0002
,
0000
0023
0000
0130
2000
0001
3001
0000
,
0010
1000
0110
0000
1010
0001
1000
0100
,
0010
0001
0100
0010
1000
0001
1000
0000
,
0010
0000
0000
0000
1100
0000
0000
0000
0002
0000
0000
0203
0000
0000
1300
0000
,
0000
0001
1000
0010
1000
0001
0100
0000
,
0010
1000
0000
1100
0000
0001
1000
0100
,
0001
0100
0000
0011
0000
0100
0010
1000
,
0001
1000
0000
1010
0000
0100
0010
1000
,
0010
0001
0000
0101
0000
1000
0100
0010
,
1000
0010
0000
0110
0000
0001
0100
0010
,
1000
0100
0000
1001
0000
1000
0010
0100
,
0202
0000
0000
0303
,
0010
0000
0000
0000
1000
0000
0000
0000
0000
0000
0001
0000
0000
0000
0000
0000
0000
0000
0000
0000
0000
1000
0000
0000
0100
0000
0000
1000
0000
0000
0000
0000
0000
0010
0000
0000
0000
0000
0000
0000
0100
0000
0000
0000
0001
0000
0000
0000
,
2000
3010
2100
3001
,
0012
0103
1020
0031
,
0110
0000
0000
0000
0001
0000
2000
0000
0000
0000
3010
0000
1000
0000
0001
0100
,
0002
0000
0013
0100
1000
0001
1000
0010
,
0100
0001
0010
1000
0010
0100
1000
0001
,
0100
0010
1000
0000
0101
0000
0001
0010
,
0100
1000
0001
0000
0001
0100
0010
1000
,
0100
0010
0002
0000
0203
0000
0310
1000
,
0001
0100
0010
1000
0000
0100
1100
0000
,
0001
0100
2000
0000
3001
0100
0010
0000
,
1001
0020
2030
3002
,
0013
0100
1000
0000
0110
0001
1000
0000
,
0101
0000
1000
0001
1000
0100
0010
0000
,
0001
0100
1000
0100
0001
0100
0020
0000
,
2030
0000
3100
0010
0001
0100
0001
1000
,
0001
0000
0010
0100
1000
0001
2000
0000
,
3010
0000
1010
0000
0101
0000
1000
0001
,
0100
0000
0001
0010
0200
1000
1300
0000
,
0001
0000
1000
0001
0010
0100
0010
0001
,
0100
0000
0001
0100
1000
0010
0100
0000
,
0101
0000
1000
0001
0020
0000
0130
1000
,
0100
0000
0010
0001
2000
0001
3001
0000
,
0010
0001
0001
0100
0010
1000
0100
1000
,
2100
0000
3001
0100
0010
1000
0100
0010
,
0002
0000
0000
0000
,
0000
0000
0000
0000
,
0000
0000
0000
0000
,
0000
0000
0000
0003
;

//---------------dance-single - ----------------
#NOTEDATA:;
#CHARTNAME:;
#CHARTHASH:0:
#STEPSTYPE:dance-single;
#BANNER:;
#DESCRIPTION:;
#CHARTSTYLE:;
#DIFFICULTY:Medium;
#METER:10;
#METERF:0.000000;
#RADARVALUES:0.463677,0.511681,0.504044,0.473496,0.000000,425.000000,359.000000,66.000000,62.000000,0.000000,0.000000,0.000000,0.000000,0.000000,0.463677,0.511681,0.504044,0.473496,0.000000,425.000000,359.000000,66.000000,62.000000,0.000000,0.000000,0.000000,0.000000,0.000000;
#CREDIT:;
#DISPLAYBPM:154.000000;
#NOTES:
0000
0000
0000
0000
,
0000
0000
0000
0000
,
0000
0000
0000
0000
,
0000
0000
0000
0000
,
0001
0100
1000
0000
1000
0000
1000
0000
,
1020
1030
1200
1300
,
1000
0100
1000
0010
1000
0001
1000
0000
,
1000
0100
1000
0010
1000
0100
1000
0010
,
0100
0001
0010
0000
1100
0000
0101
0000
,
1000
0100
0001
0000
0011
0000
1100
0000
,
0010
1000
0100
0000
0010
0001
0100
0000
,
0001
1000
0100
0000
1010
0000
0011
0000
,
1001
0000
0001
0100
2000
0000
3020
0000
,
0130
0001
1000
0000
0110
0000
0001
1000
,
0000
0010
0200
0000
0302
0000
1003
0100
,
0010
0001
0100
0000
1010
0000
0101
0000
,
0002
0000
0013
0000
1000
0001
0100
0000
,
0011
0011
1100
1100
,
0000
0001
2000
0000
3010
0100
0010
2000
,
0000
3100
0000
1000
0020
0000
0130
0000
,
0001
0000
1001
0000
1001
0000
0100
0010
,
0000
1100
0000
0001
2000
0000
3100
0000
,
2200
0000
0000
0300
,
0001
0100
0200
3300
,
0001
0100
1000
0000
0010
0000
0100
0000
,
1002
0013
0201
0310
,
1000
0100
0001
0000
0010
0000
0100
0000
,
1200
1300
0021
1030
,
0010
0001
0100
0000
0001
0000
1000
0000
,
2010
3100
0120
0130
,
1000
0001
1000
0010
1000
0100
1000
0000
,
1000
0100
1000
0010
1000
0100
1000
0010
,
0100
0001
1000
0000
0010
0000
0001
0000
,
1020
0130
1002
0013
,
0001
0100
0010
0000
1000
0000
0100
0000
,
0021
0130
2100
3001
,
1000
0010
0001
0000
1000
0000
0100
0000
,
0120
0031
0201
0310
,
1000
0100
1000
0010
1000
0001
1000
0000
,
0001
0010
0001
0100
0001
0010
0001
0100
,
0020
0000
1030
0000
0001
1000
0100
0000
,
1010
1010
0101
0101
,
0000
0010
0200
0000
0301
1000
0001
2000
,
0000
3100
0000
1000
0002
0000
0013
0000
,
0100
0000
0110
0000
0110
0000
0001
2000
,
0000
3010
0000
0100
0002
0000
1003
0000
,
0010
0000
1001
0000
0110
0000
1000
0001
,
0000
1000
0001
0000
0101
0000
1100
0000
,
0001
0100
0000
0011
0000
0000
0000
0000
,
1000
0100
0000
0101
0000
0000
0000
0000
,
0010
0100
0000
1001
0000
0000
0000
0000
,
1000
0001
0000
1010
0000
0000
0000
0000
,
0001
0010
0000
1100
0000
0000
0000
0000
,
0010
1000
0000
0110
0000
0000
0000
0000
,
0202
0000
0000
0300
,
1000
0100
0200
0303
,
2001
3010
2000
3001
,
0020
0130
2000
3001
,
0200
0310
1000
0001
,
0011
1100
0101
1010
,
1000
0001
1000
0000
0010
0100
0010
0000
,
0001
0100
2000
0000
3002
0000
0103
0000
,
0010
1000
0001
0000
0110
0000
0101
0000
,
2000
0000
3200
0000
1300
0000
0001
0100
,
0001
0010
0100
1000
0000
0000
1010
0000
,
0001
0100
0001
0000
1000
0100
1000
0000
,
0011
2000
3020
0230
,
0302
0000
0013
0000
0001
0100
1000
0000
,
0110
0020
2030
3002
,
0013
0100
1000
0000
0001
0100
0020
0000
,
1030
0000
1100
0000
0001
1000
0001
0100
,
0010
0000
1000
0001
1000
0001
0200
0000
,
0310
0000
1010
0000
0102
0000
1003
0001
,
0000
0000
0010
0001
0200
0000
0320
0000
,
0030
0000
1000
0001
1000
0000
0010
0100
,
0001
0000
0010
0100
2000
0000
3002
0000
,
0003
0000
0001
0100
0010
0000
1010
0000
,
0011
0000
1000
0100
0020
0000
0032
0000
,
0003
0000
0010
0001
1000
0001
0100
0000
,
1010
0000
0100
0010
1000
0000
2001
0000
,
0002
0000
0000
0000
,
0000
0000
0000
0000
,
0000
0000
0000
0000
,
0000
0000
0000
3003
;

//---------------dance-single - ----------------
#NOTEDATA:;
#CHARTNAME:;
#CHARTHASH:0:
#STEPSTYPE:dance-single;
#BANNER:;
#DESCRIPTION:;
#CHARTSTYLE:;
#DIFFICULTY:Easy;
#METER:8;
#METERF:0.000000;
#RADARVALUES:0.375305,0.468245,0.320755,0.213837,0.000000,344.000000,302.000000,42.000000,28.000000,0.000000,0.000000,0.000000,0.000000,0.000000,0.375305,0.468245,0.320755,0.213837,0.000000,344.000000,302.000000,42.000000,28.000000,0.000000,0.000000,0.000000,0.000000,0.000000;
#CREDIT:;
#DISPLAYBPM:154.000000;
#NOTES:
0000
0000
0000
0000
,
0000
0000
0000
0000
,
0000
0000
0000
0000
,
0000
0000
0000
0000
,
1000
0001
0000
0000
0000
0000
0000
0000
,
2200
0300
3001
0000
,
0100
0010
0100
0010
0100
0010
0000
0000
,
1000
0001
1000
0001
1000
0001
1000
0001
,
0010
0010
0001
0001
,
0100
0100
1000
1000
,
0010
1000
0100
0001
,
0010
0100
1000
0001
,
1001
0100
0001
1000
,
0010
0100
0010
1000
,
0100
0011
1000
0001
,
0100
0010
0101
1000
,
0010
0010
1000
0001
,
2000
3100
0020
0031
,
0000
0110
0001
1000
,
0010
0010
0200
0301
,
0000
1010
1000
0001
,
0010
0100
2000
3001
,
1000
0100
1000
0000
0020
0000
0130
0000
,
0001
0001
0002
0003
,
1001
0010
1000
0100
,
1000
1000
0010
0101
,
1000
0010
0100
0100
,
0001
0010
0011
1000
,
1000
0001
1000
0000
0010
0000
0100
0000
,
2010
3001
1200
1300
,
0010
0100
0010
0100
0010
0100
0000
0000
,
0001
1000
0001
1000
0001
1000
0001
1000
,
0010
0110
0001
0100
,
1000
0010
0101
1100
,
0001
0100
0100
1000
,
0010
0100
0110
1001
,
0001
0010
0001
0000
0100
0000
1000
0000
,
1020
0130
0012
0103
,
1000
0010
1000
0010
1000
0010
0000
0000
,
0100
0010
0100
0010
0100
0010
0100
0010
,
1000
0001
0010
0100
,
2000
3010
0002
0103
,
0000
0011
1100
0001
,
1000
0010
0102
0013
,
0000
2010
0001
3100
,
1000
1000
1001
0110
,
0000
0001
0010
0100
,
1000
0001
0020
0230
,
0300
0000
0000
0000
0000
0100
0010
0100
,
0000
0000
0000
0000
0000
0001
0010
0001
,
0000
0000
0000
0000
0000
1000
0100
1000
,
0000
0000
0000
0000
0000
0010
1000
0010
,
0000
0000
0000
0000
0000
0100
0001
0100
,
0000
0000
0000
0000
0000
1000
0001
1000
,
0001
0100
0001
0000
2000
0000
3010
0000
,
0100
0100
0200
0300
,
0101
0000
1100
0000
,
0011
0000
1010
0000
,
1000
1000
0001
0001
,
0010
0100
0100
1000
,
0010
0010
0010
0010
,
1000
0001
1001
0010
,
1000
0100
1000
0001
,
0110
0001
0100
1000
,
0010
0010
1000
0100
,
0110
0001
0011
0100
,
0101
1000
0010
0100
,
1001
0100
1010
0001
,
1100
0010
0010
0010
,
1000
1000
0001
0010
,
0011
1000
0100
0001
,
1000
0010
1001
0100
,
0010
2000
0001
3100
,
0000
0002
0010
0103
,
0000
1010
0001
1000
,
0100
0010
0002
2003
,
3000
1100
0010
0100
,
0010
1000
0002
0203
,
0300
0110
0001
0100
,
1000
0010
0102
1003
,
0002
0000
0000
0000
,
0000
0000
0000
0003
;

//---------------dance-single - ----------------
#NOTEDATA:;
#CHARTNAME:;
#CHARTHASH:0:
#STEPSTYPE:dance-single;
#BANNER:;
#DESCRIPTION:;
#CHARTSTYLE:;
#DIFFICULTY:Beginner;
#METER:4;
#METERF:0.000000;
#RADARVALUES:0.184380,0.249731,0.198563,0.007637,0.000000,169.000000,143.000000,26.000000,1.000000,0.000000,0.000000,0.000000,0.000000,0.000000,0.184380,0.249731,0.198563,0.007637,0.000000,169.000000,143.000000,26.000000,1.000000,0.000000,0.000000,0.000000,0.000000,0.000000;
#CREDIT:;
#DISPLAYBPM:154.000000;
#NOTES:
// measure 0
0000
0000
0000
0000
,  // measure 1
0000
0000
0000
0000
,  // measure 2
0000
0000
0000
0000
,  // measure 3
0000
0000
0000
0000
,  // measure 4
1001
0000
0000
0000
,  // measure 5
0010
0000
0010
0000
,  // measure 6
1000
1000
1000
0000
,  // measure 7
0001
0001
0001
0000
,  // measure 8
0110
0000
0000
0000
,  // measure 9
0001
0000
0001
0000
,  // measure 10
1001
0000
0000
0000
,  // measure 11
0100
0000
0100
0000
,  // measure 12
0110
0000
0000
0000
,  // measure 13
1000
0000
1000
0000
,  // measure 14
0010
0010
0010
0000
,  // measure 15
0100
0100
0100
0000
,  // measure 16
0001
0000
0001
0000
,  // measure 17
0100
0000
0100
0000
,  // measure 18
0000
0000
0010
0000
,  // measure 19
1000
0000
0001
0000
,  // measure 20
0000
0000
1000
0000
,  // measure 21
0100
0000
0010
0000
,  // measure 22
1001
0000
0000
0000
,  // measure 23
0110
0000
0000
0000
,  // measure 24
1001
0000
1000
0000
,  // measure 25
0010
0000
0010
0000
,  // measure 26
1000
0000
0100
0000
,  // measure 27
0010
0000
0001
0000
,  // measure 28
1001
0000
0000
0000
,  // measure 29
0010
0000
0100
0000
,  // measure 30
0001
0001
0001
0000
,  // measure 31
1000
1000
1000
0000
,  // measure 32
0110
0000
0010
0000
,  // measure 33
0100
0000
0001
0000
,  // measure 34
1000
0000
0001
0000
,  // measure 35
1000
0000
0100
0000
,  // measure 36
0110
0000
0000
0000
,  // measure 37
0001
0000
1000
0000
,  // measure 38
0100
0100
0100
0000
,  // measure 39
0010
0010
0010
0000
,  // measure 40
0001
0000
0001
0000
,  // measure 41
1000
0000
0010
0000
,  // measure 42
0000
0000
1000
0000
,  // measure 43
0100
0000
0001
0000
,  // measure 44
0000
0000
0010
0000
,  // measure 45
0010
0000
0010
0000
,  // measure 46
0000
0000
0001
0000
,  // measure 47
0100
0000
0001
0000
,  // measure 48
1001
0000
1000
0000
,  // measure 49
0110
0000
0001
0000
,  // measure 50
0110
0000
0100
0000
,  // measure 51
1001
0000
0010
0000
,  // measure 52
0110
0000
0001
0000
,  // measure 53
1001
0000
0100
0000
,  // measure 54
1001
0000
0000
0000
,  // measure 55
0110
0000
0000
0000
,  // measure 56
1001
0000
0000
0000
,  // measure 57
1000
0000
0010
0000
,  // measure 58
0110
0000
0000
0000
,  // measure 59
0001
0000
0010
0000
,  // measure 60
0001
0000
0001
0000
,  // measure 61
1000
0000
1000
0000
,  // measure 62
0010
0010
0010
0000
,  // measure 63
1000
1000
1000
0000
,  // measure 64
0001
0000
0001
0000
,  // measure 65
0100
0000
0010
0000
,  // measure 66
0110
0000
0001
0000
,  // measure 67
1000
0000
0100
0000
,  // measure 68
1001
0000
1000
0000
,  // measure 69
0001
0000
1000
0000
,  // measure 70
1001
0000
0010
0000
,  // measure 71
1000
0000
0100
0000
,  // measure 72
0000
0000
0001
0001
,  // measure 73
0000
0000
0100
0100
,  // measure 74
0000
0000
0010
0000
,  // measure 75
1000
0000
0110
0000
,  // measure 76
0000
0000
0110
0000
,  // measure 77
0001
0000
0010
0000
,  // measure 78
0000
0000
1001
0000
,  // measure 79
1000
0000
0100
0000
,  // measure 80
0002
0000
0000
0000
,  // measure 81
0000
0000
0000
0003
;
