#TITLE:POP-STEP-UP;
#ARTIST:SOUNDROID;
#BANNER:POP-STEP-UP-bn.png;
#BACKGROUND:POP-STEP-UP-bg.png;
#JACKET:POP-STEP-UP-jacket.png;
#MUSIC:POP-STEP-UP.ogg;
#SAMPLESTART:3.692;
#SAMPLELENGTH:20;
#DISPLAYBPM:130;
#BPMS:0=130;
#BGCHANGES:;

//---------------dance-single - ----------------
#NOTES:
     dance-single:
     :
     Beginner:
     1:
     :
0000
0000
0000
0000
,
0000
0000
0000
0000
,
1000
1000
0000
0000
,
0001
0001
0000
0000
,
0100
0100
0000
0000
,
0010
0010
0010
0000
,
1000
1000
0000
0000
,
0001
0001
0000
0000
,
1000
0000
0010
0000
,
0100
0100
0000
0000
,
0001
0000
0010
0000
,
0001
0000
0010
0000
,
0100
0000
1000
0000
,
0100
0000
1000
0000
,
0001
0000
0100
0000
,
0001
0000
0100
0000
,
0010
0000
1000
0000
,
0010
0000
1000
0000
,
0100
0100
0000
0000
,
0010
0010
0000
0000
,
0001
0001
0000
0000
,
1000
1000
1000
0000
,
0001
0001
0000
0000
,
1000
1000
0000
0000
,
0010
0000
1000
0000
,
0100
0100
0000
0000
,
0010
0000
0001
0000
,
0010
0000
0100
0000
,
1000
0000
0010
0000
,
1000
0000
0001
0000
,
0100
0000
0010
0000
,
1000
0000
0100
0000
,
1000
0000
0010
0000
,
0100
0000
0001
0000
,
0010
0000
0001
0000
,
0100
0000
0001
0000
,
0010
0000
0100
0000
,
1000
0000
0010
0000
,
1000
0000
0001
0000
,
1000
0000
0100
0000
,
0010
0000
0001
0000
,
1000
0000
0001
0000
,
1000
1000
0000
0000
,
0100
0100
0000
0000
,
0010
0010
0000
0000
,
0001
0001
0001
0000
,
0100
0100
0000
0000
,
0010
0010
0000
0000
,
1000
0000
0001
0000
,
0100
0100
0000
0000
;

//---------------dance-single - ----------------
#NOTES:
     dance-single:
     :
     Easy:
     6:
     :
0000
0000
0000
0000
,
1000
0100
0010
0001
,
0011
1100
0000
0000
,
1010
0101
0000
0000
,
1001
0110
0000
0000
,
1000
0100
0001
0000
,
0011
1010
0000
0000
,
0101
1100
0000
0000
,
0010
1000
0100
0001
,
0010
0100
1001
0110
,
1000
0100
1000
0001
,
0010
0100
1000
0010
,
1000
0001
0010
0100
,
0010
0001
0100
0010
,
1000
0100
1000
0100
,
0010
0100
1000
0010
,
0100
0010
0100
0001
,
1000
0100
0010
0001
,
0011
1100
0000
0000
,
1010
0101
0000
0000
,
0110
1001
0000
0000
,
0010
1000
0001
0000
,
0011
1010
0000
0000
,
1100
0101
0000
0000
,
1000
0010
0001
0100
,
1000
0001
0110
1001
,
0010
1000
0100
0010
,
0001
0100
0001
0010
,
0100
1000
0010
1000
,
0100
0010
0001
0100
,
0001
0010
0100
1000
,
0010
1000
0100
0001
,
0010
0100
1000
0010
,
0100
0010
1000
0001
,
1000
1000
0001
0001
,
1000
0010
0100
0001
,
0010
0010
0100
0100
,
1000
0001
1000
0001
,
1000
0010
0001
0010
,
1000
0100
0001
0100
,
0010
0100
0010
1000
,
0100
0010
0001
0100
,
0101
1010
0000
0000
,
1100
0011
0000
0000
,
1001
0110
0000
0000
,
0010
1000
0100
0000
,
1100
0101
0000
0000
,
1010
0011
0000
0000
,
0010
0001
0100
1000
,
0100
0010
1001
0110
;

//---------------dance-single - ----------------
#NOTES:
     dance-single:
     :
     Medium:
     9:
     :
0000
0000
0000
0000
,
1000
0000
0100
0000
0010
0001
0100
0000
,
0001
0010
0100
1000
0000
0000
0000
0000
,
0010
1000
0001
0100
0000
0000
0000
0000
,
0001
1000
0100
0010
0000
0000
0000
0000
,
0001
0100
0001
0100
0010
0000
0000
0000
,
1000
0001
0100
0010
0000
0000
0000
0000
,
1000
0100
0010
0001
0000
0000
0000
0000
,
0100
0010
0100
0010
1000
0001
1000
0001
,
1000
0100
0010
0001
0000
0000
0000
0000
,
0100
0010
0000
0010
1000
0001
0000
0010
,
0001
0100
0000
0001
1000
0001
0000
0010
,
0100
1000
0000
1000
0001
1000
0000
0010
,
1000
0100
0000
0010
0001
0100
0000
0001
,
1000
0001
0000
0010
0100
0010
0000
0001
,
0100
0001
0000
0010
0001
1000
0000
1000
,
0100
1000
0000
0001
0100
0001
0000
1000
,
0010
1000
0000
0001
0010
0001
0000
0000
,
0100
0010
1000
0001
0000
0000
0000
0000
,
1000
0010
0100
0001
0000
0000
0000
0000
,
1000
0001
0010
0100
0000
0000
0000
0000
,
1000
0010
1000
0010
0100
0000
0000
0000
,
0001
0010
0100
1000
0000
0000
0000
0000
,
0010
1000
0001
0100
0000
0000
0000
0000
,
0001
1000
0001
1000
0010
0100
0010
0100
,
0001
0010
0100
1000
0000
0000
0000
0000
,
0001
1000
0000
0010
1000
0100
0000
0100
,
0010
0001
0000
1000
0001
0010
0000
0100
,
1000
0001
0000
0010
0100
0010
0000
0001
,
1000
0100
0000
0100
0010
0001
0000
1000
,
0010
1000
0000
0001
0100
0001
0000
0010
,
0001
0100
0000
0001
0010
0100
0000
1000
,
0001
0010
0000
0001
1000
0100
0000
1000
,
0010
0100
0000
0001
0010
0100
0000
0000
,
1000
0010
0000
1000
0100
0010
0000
0001
,
1000
0100
0000
1000
0100
0010
0000
0001
,
0100
0001
0000
0010
0100
1000
0000
0010
,
1000
0100
0000
1000
0001
0010
0000
0001
,
0100
0010
0000
1000
0001
1000
0000
0100
,
1000
0100
0000
1000
0010
0100
0000
0001
,
0010
0001
0000
0100
0010
1000
0000
0001
,
1000
0010
0000
0100
0010
0100
0000
0000
,
0001
1000
0010
0100
0000
0000
0000
0000
,
0010
1000
0001
0100
0000
0000
0000
0000
,
0001
1000
0100
0010
0000
0000
0000
0000
,
0001
1000
0001
1000
0100
0000
0000
0000
,
1000
0010
0100
0001
0000
0000
0000
0000
,
1000
0001
0100
0010
0000
0000
0000
0000
,
1000
0100
1000
0100
0010
0001
0010
0001
,
0100
0010
1000
0001
0000
0000
0000
0000
;

//---------------dance-single - ----------------
#NOTES:
     dance-single:
     :
     Hard:
     12:
     :
0000
0000
0000
0000
,
1000
0000
0100
0000
0010
1001
1001
0000
,
1000
0000
0001
0100
0001
0000
1000
0000
0000
0000
0000
0000
0000
0000
0000
0000
,
0010
0000
1000
0001
1000
0000
0010
0000
0000
0000
0000
0000
0000
0000
0000
0000
,
0010
0000
1000
0100
1000
0000
0010
0000
0000
0000
0000
0000
0000
0000
0000
0000
,
0010
0000
1000
0100
1000
0000
0001
0000
0100
0000
0000
0000
0000
0000
0000
0000
,
0001
0000
0010
0100
0010
0000
0001
0000
0000
0000
0000
0000
0000
0000
0000
0000
,
0010
0000
1000
0100
1000
0000
0010
0000
0000
0000
0000
0000
0000
0000
0000
0000
,
0001
0000
0100
0010
0100
0000
0000
0000
0001
0000
1000
0010
1000
0000
0000
0000
,
0100
0000
1000
0001
1000
0000
0000
0000
0011
0000
0100
0000
0010
0000
1000
0000
,
0001
0010
0001
0010
0100
1000
0100
1000
,
0010
0100
0010
0100
0001
1000
0001
1000
,
0010
1000
0010
1000
0001
0100
0001
0100
,
0001
0010
0100
1000
0001
0100
0010
1000
,
0100
0010
0100
0010
0001
0100
0001
0100
,
0010
1000
0010
1000
0001
1000
0001
1000
,
0100
1000
0100
1000
0001
0010
0001
0010
,
0001
1000
0010
0100
0001
1000
0010
0100
,
0001
0000
0100
0010
0100
0000
0001
0000
0000
0000
0000
0000
0000
0000
0000
0000
,
0010
0000
1000
0001
1000
0000
0010
0000
0000
0000
0000
0000
0000
0000
0000
0000
,
0100
0000
1000
0010
1000
0000
0100
0000
0000
0000
0000
0000
0000
0000
0000
0000
,
0100
0000
0010
0001
0010
0000
0100
0000
1000
0000
0000
0000
0000
0000
0000
0000
,
0001
0000
1000
0100
1000
0000
0001
0000
0000
0000
0000
0000
0000
0000
0000
0000
,
0010
0000
0100
1000
0100
0000
0010
0000
0000
0000
0000
0000
0000
0000
0000
0000
,
0001
0000
1000
0010
1000
0000
0000
0000
0100
0000
0010
0001
0010
0000
0000
0000
,
0100
0000
1000
0001
1000
0000
0000
0000
1010
0000
0001
0000
0100
0000
0010
0000
,
1000
0100
1000
0100
0010
0001
0010
0001
,
0100
1000
0100
0010
0100
0001
0100
0000
,
0001
0100
0001
0100
0010
1000
0010
1000
,
0100
0001
0100
0010
0100
1000
0100
0000
,
1000
0001
0100
0010
1000
0100
0010
0001
,
0100
0010
0100
0010
1000
0001
1000
0001
,
0010
0100
0010
0001
1000
0100
1000
0001
,
0100
0010
0100
0010
1000
0001
1000
0001
,
0010
0010
0100
0100
1000
0001
1000
0001
,
0010
0010
0100
0100
1000
0001
1000
0001
,
0100
0001
0010
0001
0100
0001
0010
0001
,
1000
0100
1000
0010
1000
0100
1000
0010
,
1000
0100
0010
0001
1000
0010
0100
0001
,
0010
0010
0100
0100
1000
0001
1000
0001
,
0100
0010
1000
0001
1000
0100
0010
0001
,
0010
0010
0100
0100
1000
0001
1000
0001
,
1000
0000
0010
0100
0010
0000
1000
0000
0000
0000
0000
0000
0000
0000
0000
0000
,
0001
0000
0010
0100
0010
0000
0001
0000
0000
0000
0000
0000
0000
0000
0000
0000
,
0100
0000
0001
1000
0001
0000
0100
0000
0000
0000
0000
0000
0000
0000
0000
0000
,
0010
0000
1000
0001
1000
0000
0100
0000
0010
0000
0000
0000
0000
0000
0000
0000
,
0100
0000
0010
0001
0010
0000
0100
0000
0000
0000
0000
0000
0000
0000
0000
0000
,
0001
0000
0100
1000
0100
0000
0001
0000
0000
0000
0000
0000
0000
0000
0000
0000
,
1000
0000
0010
0100
0010
0000
0000
0000
1000
0000
0100
0010
0100
0000
0000
0000
,
0010
0000
0001
1000
0001
0000
0000
0000
0101
0000
0100
0000
0010
0000
1000
0000
;

//---------------dance-single - ----------------
#NOTES:
     dance-single:
     :
     Challenge:
     15:
     :
0000
0000
0000
0000
,
1000
0000
0100
0000
0010
1001
1001
0000
,
1100
1010
1100
1000
0000
0000
0000
0000
,
0110
1001
1001
0110
0000
0000
0000
0000
,
0110
0101
0110
0100
0000
0000
0000
0000
,
1100
1010
1001
1001
1001
0000
0000
0000
,
0110
1001
1001
1001
0000
0000
0000
0000
,
1001
1001
1001
0110
0000
0000
0000
0000
,
0011
0000
0100
0010
0100
0000
1100
0000
0010
0010
0010
0010
0010
0000
0010
0000
,
0011
1010
1010
0011
0000
0000
0000
0000
,
1000
0100
0010
0001
0010
1000
0010
0100
,
0010
0001
0100
0010
0100
1000
0100
0001
,
1000
0010
0001
0010
0100
0010
0001
0010
,
1000
0100
0001
0100
0010
0001
1000
0010
,
0100
1000
0100
0001
0010
0100
1000
0010
,
0001
0010
1000
0010
0001
0010
1000
0100
,
0010
1000
0010
0001
0010
1000
0010
0100
,
0001
0100
1000
0010
1000
0100
0010
0001
,
1100
1010
1100
1000
0000
0000
0000
0000
,
0110
1001
1001
0110
0000
0000
0000
0000
,
0110
0101
0110
0100
0000
0000
0000
0000
,
1100
1010
1001
1001
1001
0000
0000
0000
,
0110
1001
1001
1001
0000
0000
0000
0000
,
1001
1001
1001
0110
0000
0000
0000
0000
,
0011
0000
0100
0010
0100
0000
1100
0000
0010
0010
0010
0010
0010
0000
0010
0000
,
0011
1010
1010
0011
0000
0000
0000
0000
,
0010
0010
0001
0001
0100
0100
1000
1000
,
0100
0100
0001
0001
0010
0100
1000
0000
,
0001
0001
1000
1000
0010
0010
0100
0100
,
0010
0010
1000
1000
0100
0010
0001
0000
,
0100
1000
0001
0001
0010
0010
0001
0001
,
0010
0100
0100
0100
1000
0001
0001
0010
,
0010
0100
0001
0010
0100
0001
1000
0010
,
1000
1000
1000
0100
0100
1000
1000
0010
,
1000
0100
1000
0100
1000
0100
1000
0100
0010
0001
0010
0001
0010
0001
0010
0001
,
1000
0010
1000
0010
1000
0010
1000
0010
0100
0001
0100
0001
0100
0001
0100
0001
,
1000
0100
1000
0000
0001
0100
0001
0000
1000
0010
1000
0000
0001
0010
0001
0000
,
0100
0010
0100
0000
0001
1000
0001
0000
0010
0100
0010
0000
1000
0001
1000
0000
,
0001
0010
0100
1000
0100
0010
0001
0010
0100
1000
0100
0010
0001
1000
0001
0000
,
1000
0100
0010
0001
0010
0100
1000
0100
0010
0001
0010
0100
1000
0001
1000
0000
,
0010
1000
0010
1000
0001
0100
0001
0100
0001
0010
0001
0010
0100
1000
0100
1000
,
0010
0100
0010
0100
0001
1000
0001
1000
0010
0100
0010
0100
0001
1000
0001
1000
,
1100
1010
1100
1000
0000
0000
0000
0000
,
0110
1001
1001
0110
0000
0000
0000
0000
,
0110
0101
0110
0100
0000
0000
0000
0000
,
1100
1010
1001
1001
1001
0000
0000
0000
,
0110
1001
1001
1001
0000
0000
0000
0000
,
1001
1001
1001
0110
0000
0000
0000
0000
,
0011
0000
0100
0010
0100
0000
1100
0000
0010
0010
0010
0010
0010
0000
0010
0000
,
0011
1010
1010
0011
0000
0000
0000
0000
;
