#VERSION:0.83;
#TITLE:PERRY DESU!;
#SUBTITLE:;
#ARTIST:Butapunch;
#TITLETRANSLIT:;
#SUBTITLETRANSLIT:;
#ARTISTTRANSLIT:;
#GENRE:;
#ORIGIN:;
#CREDIT:;
#BANNER:PERRY DESU!-bn.png;
#BACKGROUND:PERRY DESU!-bg.png;
#PREVIEWVID:;
#JACKET:PERRY DESU!-jacket.png;
#CDIMAGE:;
#DISCIMAGE:;
#LYRICSPATH:;
#CDTITLE:;
#MUSIC:PERRY DESU!.ogg;
#OFFSET:0.375000;
#SAMPLESTART:28.125000;
#SAMPLELENGTH:20.000000;
#SELECTABLE:YES;
#DISPLAYBPM:160.000000;
#BPMS:0.000=160.000;
#STOPS:;
#DELAYS:;
#WARPS:;
#TIMESIGNATURES:0.000=4=4;
#TICKCOUNTS:0.000=4;
#COMBOS:0.000=1;
#SPEEDS:0.000=1.000=0.000=0;
#SCROLLS:0.000=1.000;
#FAKES:;
#LABELS:0.000=Song Start;
#BGCHANGES:;
#KEYSOUNDS:;
#ATTACKS:
;

//---------------dance-single - ----------------
#NOTEDATA:;
#CHARTNAME:;
#STEPSTYPE:dance-single;
#DESCRIPTION:;
#CHARTSTYLE:;
#DIFFICULTY:Hard;
#METER:12;
#RADARVALUES:0.588776,0.596268,0.626458,0.486329,0.156614,500.000000,424.000000,76.000000,59.000000,0.000000,0.000000,0.000000,0.000000,0.000000,0.588776,0.596268,0.626458,0.486329,0.156614,500.000000,424.000000,76.000000,59.000000,0.000000,0.000000,0.000000,0.000000,0.000000;
#CREDIT:;
#DISPLAYBPM:160.000000;
#NOTES:
0000
0000
0000
0000
,
0000
0000
0000
0000
,
0000
0000
0000
0000
,
0000
0000
0000
0000
,
0010
0000
1000
0001
0100
0000
0000
0000
0022
0000
0000
0000
0033
0000
0000
0000
,
2200
3300
1001
1100
,
0110
0000
0011
0000
1001
0100
0000
2002
,
0000
0000
3003
0000
0110
1000
0000
0220
,
0000
0000
0000
0000
0000
0000
0330
0000
0000
0000
0000
0000
1000
0000
0000
0001
0000
0000
1000
0000
0000
0001
0000
0000
1000
0000
0000
0000
0000
0000
0000
0000
0000
0000
0000
0000
0010
0000
0000
0000
0000
0000
0000
0000
0010
0000
0000
0000
,
0200
0301
0101
1100
,
1010
0202
0000
0303
,
0110
0002
2000
3003
,
1001
0001
0010
0100
2000
0000
3000
0010
,
2020
0000
3030
0001
0022
0000
0033
0000
,
1100
0101
1100
0101
,
0010
0000
1000
0000
0100
0000
0010
0002
0000
0000
1000
0000
1003
0000
0000
0020
,
0000
0000
0100
0000
0130
0000
0000
2000
0000
0000
0100
0000
3100
0000
0000
0000
,
0010
0000
0001
0000
1000
0000
0001
0200
0000
0000
0010
0000
0310
0000
0000
2000
,
0000
0000
0100
0000
3100
0000
0000
0002
0000
0000
1000
0000
1003
0000
0000
0000
,
1001
0000
0110
0000
1000
0010
0100
0000
,
0001
0000
0010
0000
1010
0000
0000
0000
1000
0100
1000
0000
0010
0000
0000
0000
,
0101
0000
1010
0000
0001
1000
0100
0000
,
0010
0000
0001
0000
0100
0000
0000
0001
1000
0000
0010
0000
1000
0000
0000
0000
,
1100
0000
0011
0000
0100
0001
1000
0000
,
0010
0010
0010
0010
2000
0001
3001
0000
,
0110
0000
0101
0000
0010
1000
0100
0000
,
1000
0001
0010
0100
1000
0010
0100
0000
,
0001
0000
0010
0000
1000
0000
0100
0020
0000
0000
0001
0000
0031
0000
0000
2000
,
0000
0000
0010
0000
3010
0000
0000
0200
0000
0000
0010
0000
0310
0000
0000
0000
,
0100
0000
0001
0000
1000
0000
0010
0200
0000
0000
1000
0000
1300
0000
0000
0002
,
0000
0000
1000
0000
1003
0000
0000
0020
0000
0000
1000
0000
1030
0000
0000
0000
,
0011
0000
1100
0000
0001
1000
0100
0000
,
0010
0000
0001
0000
0110
0000
0000
0000
1000
0100
1000
0000
0001
0000
0000
0000
,
1010
0000
0011
0000
0100
0010
1000
0000
,
0100
0000
0010
0000
0001
0000
0000
1000
0001
0000
1000
0000
0100
0000
0000
0000
,
1100
0000
1001
0000
0010
1000
0001
0000
,
1000
0000
0100
0000
0011
0000
0000
0000
0001
0100
0001
0000
0010
0000
0000
0000
,
0110
0000
1001
0000
0100
0001
0010
0000
,
1000
0010
0100
0001
0010
0100
1000
0001
,
0100
0000
0001
0000
1000
0000
0100
0020
0000
0000
0001
0000
0031
0000
0000
2000
,
0000
0000
0100
0000
3100
0000
0000
0002
0000
0000
1000
0000
1003
0000
0000
0000
,
0010
0000
1000
0000
0001
0000
1000
0200
0000
0000
0010
0000
0310
0000
0000
0002
,
0000
0000
0100
0000
0103
0000
0000
0020
0000
0000
1000
0000
1030
0000
0000
0000
,
2100
0001
0010
3100
,
0021
1000
0100
0031
,
0102
0010
1000
0103
,
0110
1001
0110
1000
,
1020
0000
0001
0000
0100
0000
1030
0010
,
0210
1000
0001
0310
,
1001
0000
1000
0010
0000
0001
0100
0000
,
0001
0010
1000
0000
0001
0100
1000
0000
,
0012
0000
0000
0000
0010
0000
0000
0000
1000
0000
0000
0000
0103
0000
0000
0001
,
2000
0001
0100
3010
,
1200
0000
0001
0000
0010
0000
1300
0100
,
0002
2003
3020
0230
,
0302
0000
0010
0000
0100
0000
1003
0010
,
2000
3200
0320
0032
,
0203
0010
1000
0301
,
0010
0001
0100
0010
1000
0100
0001
0000
,
1200
0010
0310
0000
0201
0010
0310
0000
,
1010
1100
0110
0011
,
0110
0001
1000
0000
1001
0100
0000
1001
,
0000
0001
0001
0100
0010
1000
1000
0001
,
0010
0000
0011
0000
0110
1000
0000
0110
,
0000
0001
0001
0100
0010
1000
1000
0001
,
0010
0001
0010
0001
1000
0100
1000
0100
,
0010
1000
0010
1000
0001
0100
0001
0100
,
2000
0001
0010
0100
,
0010
0000
3010
0000
1100
0001
0000
1100
,
0000
0000
1001
0000
0011
0100
0000
0011
,
0000
1000
1000
0100
0010
0001
0001
1000
,
0100
0000
1010
0000
0101
0010
0000
0101
,
0000
1000
1000
0100
0010
0001
0001
1000
,
0001
0010
0001
0010
0100
1000
0100
1000
,
0001
0100
0001
0100
0010
1000
0010
1000
,
0200
1000
0001
0010
,
1000
0000
1300
0000
0011
1000
0000
0011
,
1000
0000
1000
0000
1000
0000
0010
0000
0010
0000
0010
0000
,
0100
0000
0100
0000
0100
0000
0001
0000
0001
0000
0001
0000
,
1000
0001
1000
0001
1000
0000
0000
0000
0110
0000
0010
0000
0000
0000
1001
0000
,
0000
0000
1000
0001
0000
0000
0000
0000
;

//---------------dance-single - ----------------
#NOTEDATA:;
#CHARTNAME:;
#STEPSTYPE:dance-single;
#DESCRIPTION:;
#CHARTSTYLE:;
#DIFFICULTY:Medium;
#METER:10;
#RADARVALUES:0.471021,0.530016,0.494572,0.453358,0.004121,400.000000,340.000000,60.000000,55.000000,0.000000,0.000000,0.000000,0.000000,0.000000,0.471021,0.530016,0.494572,0.453358,0.004121,400.000000,340.000000,60.000000,55.000000,0.000000,0.000000,0.000000,0.000000,0.000000;
#CREDIT:;
#DISPLAYBPM:160.000000;
#NOTES:
0000
0000
0000
0000
,
0000
0000
0000
0000
,
0000
0000
0000
0000
,
0000
0000
0000
0000
,
0010
1000
0001
0000
0022
0000
0033
0000
,
2200
3300
1001
0110
,
1001
0000
0110
0000
0001
1000
0000
2002
,
0000
0000
3003
0000
0010
0100
0000
0220
,
0000
0000
0000
0330
0000
0000
1000
0000
0000
0010
0000
0010
,
0200
0000
1000
0301
,
0101
2200
0000
3300
,
0110
0002
2000
3003
,
1001
0000
0020
0000
0200
0000
0330
0001
,
2000
0000
3000
0001
2000
0000
3000
0000
,
1100
0101
1100
0101
,
1000
0100
0010
0001
0100
0010
1000
0000
,
0001
0010
0001
0000
1000
0100
1000
0000
,
0010
1000
0010
0100
0001
1000
0100
0000
,
1000
0010
1000
0000
0001
0100
0001
0000
,
1001
0000
0110
0000
0001
1000
0100
0000
,
0000
0000
1010
0000
0010
0100
0001
0000
,
0011
0000
1100
0000
1000
0001
0010
0000
,
0000
0000
0000
0000
1000
0001
1000
0000
,
1010
0000
0101
0000
0010
0100
0001
0000
,
0000
0000
1010
0000
0100
1000
0001
0000
,
0110
0000
1001
0000
0001
0010
0100
0000
,
0000
0000
0000
0000
0001
0100
1000
0000
,
0010
1000
0001
0010
0001
0100
1000
0000
,
0010
0100
0010
0000
1000
0001
1000
0000
,
0100
0010
0001
0100
0001
1000
0010
0000
,
1000
0001
1000
0000
0010
0100
0010
0000
,
0101
0000
1100
0000
1000
0100
0001
0000
,
0000
0000
0011
0000
0010
0001
1000
0000
,
1010
0000
0011
0000
0010
0100
1000
0000
,
0000
0000
0000
0000
0001
1000
0001
0000
,
0110
0000
1001
0000
0100
0010
1000
0000
,
0000
0000
0101
0000
0001
1000
0100
0000
,
1100
0000
1010
0000
0010
0100
1000
0000
,
0002
0023
0230
2300
,
3001
1000
0001
0010
0100
1000
0010
0000
,
1000
0100
0001
0000
1000
0010
0001
0000
,
0010
0100
0010
0001
1000
0100
0001
0000
,
0010
0100
1000
0000
0001
0100
0010
0000
,
2010
0001
0000
3001
,
0020
0032
2003
3100
,
0021
0100
0000
0130
,
2000
3002
2003
3010
,
0201
0010
0000
0310
,
0002
0023
0230
2300
,
3010
0010
1000
0002
,
0000
1000
0000
0103
,
0120
0001
0000
0130
,
2000
3002
0023
0130
,
1200
0010
0000
1300
,
0002
0203
0320
1030
,
2001
0100
0000
3010
,
0000
2000
3002
0203
,
0320
0001
0100
1030
,
0002
0010
1000
0103
,
0202
0303
2020
3030
,
0110
1001
0110
1001
,
0010
0000
1100
0000
0001
1000
0000
1001
,
0000
0000
0001
0000
1000
0100
0010
0001
,
0100
0000
0011
0000
0010
0100
0000
0110
,
0000
0000
1000
0000
0001
1000
0010
0100
,
0001
0010
0001
0000
1000
0010
1000
0000
,
0001
0100
0001
0000
1000
0100
1000
0000
,
0020
0100
0001
1000
,
0100
0000
0130
0000
0010
1000
0000
1010
,
0000
0000
0110
0000
0001
0010
0000
0011
,
0000
0000
0010
0000
0100
0010
1000
0001
,
0000
0000
1001
0000
1000
0100
0000
1100
,
0000
0000
0100
0000
1000
0001
0100
0010
,
1000
0100
1000
0000
0001
0100
0001
0000
,
1000
0010
1000
0000
0001
0010
0001
0000
,
0200
0001
1000
0001
,
0010
0000
0310
0000
0100
0001
0000
1000
,
0001
0001
0010
0010
,
0100
0100
1000
1000
,
1100
0000
0101
0000
0010
0100
0000
1001
,
0000
0000
1000
0001
0000
0000
0000
0000
;

//---------------dance-single - ----------------
#NOTEDATA:;
#CHARTNAME:;
#STEPSTYPE:dance-single;
#DESCRIPTION:;
#CHARTSTYLE:;
#DIFFICULTY:Easy;
#METER:7;
#RADARVALUES:0.367396,0.429969,0.478086,0.527544,0.000000,312.000000,254.000000,58.000000,64.000000,0.000000,0.000000,0.000000,0.000000,0.000000,0.367396,0.429969,0.478086,0.527544,0.000000,312.000000,254.000000,58.000000,64.000000,0.000000,0.000000,0.000000,0.000000,0.000000;
#CREDIT:;
#DISPLAYBPM:160.000000;
#NOTES:
0000
0000
0000
0000
,
0000
0000
0000
0000
,
0000
0000
0000
0000
,
0000
0000
0000
0000
,
0000
0000
2002
3003
,
0220
0330
1001
0110
,
1001
0000
0110
0000
0001
1000
0000
0002
,
0000
0000
0003
0000
0100
0010
0000
0200
,
0000
0300
0000
0100
,
0220
0330
1000
0001
,
1100
0202
0000
0303
,
1001
0000
0010
0000
,
1001
0000
0100
0000
,
0101
0000
1100
0000
,
1001
0110
1001
0110
,
1000
0001
0020
0130
,
0020
0031
2000
3001
,
0100
0010
2000
3100
,
2000
3010
0002
0103
,
1001
1001
0010
0100
,
0001
0010
1000
0100
,
0110
0110
0001
0010
,
0001
0100
0010
1000
,
1100
1100
0001
1000
,
0010
0010
1000
0001
,
0101
0101
0010
0100
,
0001
0010
0100
1000
,
0001
1000
0200
0310
,
0002
0103
2000
3001
,
0010
0001
2000
3010
,
0200
0301
0020
0130
,
1100
1100
0001
0100
,
0001
0010
1000
1000
,
1001
1001
0010
1000
,
0100
0001
0010
0100
,
0101
0101
0010
0001
,
0100
0100
0010
0010
,
0110
0110
1000
0100
,
1000
0001
1000
0001
,
0010
0001
2000
3010
,
2000
3100
0020
0130
,
0100
0010
0002
0103
,
0020
1030
0020
0130
,
0202
0000
0303
1000
,
0001
1000
0010
0100
,
0220
0000
0330
0010
,
1000
0001
0010
0001
,
2200
0000
3300
0100
,
0010
0001
0100
1000
,
0001
0000
0000
1000
0000
0000
0202
0000
,
0000
0000
0303
0010
,
2002
0000
0000
3003
,
0001
0010
0100
1000
,
2200
0000
3300
1000
,
0010
1000
0100
0010
,
0220
0000
0330
0001
,
0000
1000
1000
0001
,
2200
0300
0002
3003
,
0202
0300
2000
3003
,
2002
3003
0220
0330
,
1001
0110
1001
0110
,
0000
0000
1001
0000
0010
1000
0000
0002
,
0000
0010
0100
0103
,
0000
0000
0110
0000
1000
0001
0000
0200
,
0000
1000
0001
0301
,
0010
0001
0010
0100
,
1000
0010
1000
0001
,
0220
0000
0000
0030
,
1000
0000
0301
0000
0010
0001
0000
1000
,
0000
0000
1100
0000
0001
0100
0000
2000
,
0000
0001
0010
3010
,
0000
0000
1001
0000
0001
0100
0000
0020
,
0000
0001
0100
0130
,
1000
0001
0010
1000
,
0100
0010
0001
0100
,
0202
0000
0000
0300
,
0010
0000
0103
0000
1000
0001
0000
0100
,
0020
0030
2000
3000
,
0002
0003
0200
0300
,
0101
0000
1100
0000
0001
1000
0000
1001
,
0000
0110
0000
0000
;

//---------------dance-single - ----------------
#NOTEDATA:;
#CHARTNAME:;
#STEPSTYPE:dance-single;
#DESCRIPTION:;
#CHARTSTYLE:;
#DIFFICULTY:Beginner;
#METER:3;
#RADARVALUES:0.182521,0.230800,0.230800,0.090672,0.000000,155.000000,127.000000,28.000000,11.000000,0.000000,0.000000,0.000000,0.000000,0.000000,0.182521,0.230800,0.230800,0.090672,0.000000,155.000000,127.000000,28.000000,11.000000,0.000000,0.000000,0.000000,0.000000,0.000000;
#CREDIT:;
#DISPLAYBPM:160.000000;
#NOTES:
0000
0000
0000
0000
,
0000
0000
0000
0000
,
0000
0000
0000
0000
,
0000
0000
0000
0000
,
0000
0000
1000
0000
,
0001
0000
0100
0000
,
0010
0000
2002
0000
,
3003
0000
0220
0000
,
0330
0000
0000
0000
,
1000
0000
0001
0000
,
0100
0100
0000
0000
,
0110
0000
0000
0000
,
1001
0000
0000
0000
,
0001
0000
0001
0000
,
1000
0000
0010
0000
,
1000
0000
0100
0000
,
1000
0000
0010
0000
,
0100
0000
0001
0000
,
0010
0000
0001
0000
,
0000
1001
0000
0000
,
0000
0001
0001
0001
,
0000
0110
0000
0000
,
0000
0000
1000
1000
,
0000
1001
0000
0000
,
0000
0010
0010
0010
,
0000
0110
0000
0000
,
0000
0000
0100
0100
,
0000
0000
0001
0000
,
0010
0000
1000
0000
,
0001
0000
1000
0000
,
0010
0000
0100
0000
,
0000
0110
0000
0000
,
0000
1000
1000
1000
,
0000
1001
0000
0000
,
0000
0000
0001
0001
,
0000
0110
0000
0000
,
0000
0100
0100
0100
,
0000
0110
0000
0000
,
0020
0000
0030
0000
,
1000
0000
0001
0000
,
0010
0000
0001
0000
,
0100
0000
0010
0000
,
1000
0000
0100
0000
,
1001
0000
0000
0000
,
0001
0000
0100
0000
,
0110
0000
0000
0000
,
0010
0010
0010
0000
,
0110
0000
0000
0000
,
0010
0000
1000
0000
,
0001
0000
0001
0000
,
1001
0000
0000
0000
,
0110
0000
0000
0000
,
0100
0000
0010
0000
,
0110
0000
0000
0000
,
1000
0000
0001
0000
,
1001
0000
0000
0000
,
0010
0000
0100
0000
,
1001
0000
0000
0000
,
0110
0000
0000
0000
,
0001
0000
0010
0000
,
0100
0000
1000
0000
,
0000
1001
0000
0000
,
0010
0010
0010
0000
,
0000
1001
0000
0000
,
0001
0001
0001
0000
,
1000
0000
0001
0000
,
1000
0000
0001
0000
,
0220
0000
0000
0330
,
0000
0000
0001
0000
,
0000
0110
0000
0000
,
1000
1000
1000
0000
,
0000
0110
0000
0000
,
0100
0100
0100
0000
,
0010
0000
0100
0000
,
0010
0000
0100
0000
,
2002
0000
0000
3003
,
0000
0000
0010
0000
,
2000
0000
3000
0000
,
0002
0000
0003
0000
,
0010
0000
0100
0000
,
0110
0000
0000
0000
;

//---------------dance-single - ----------------
#NOTEDATA:;
#CHARTNAME:;
#STEPSTYPE:dance-single;
#DESCRIPTION:;
#CHARTSTYLE:;
#DIFFICULTY:Challenge;
#METER:16;
#RADARVALUES:0.922024,0.993781,0.956173,0.329715,0.754222,783.000000,667.000000,116.000000,40.000000,0.000000,0.000000,0.000000,0.000000,0.000000,0.922024,0.993781,0.956173,0.329715,0.754222,783.000000,667.000000,116.000000,40.000000,0.000000,0.000000,0.000000,0.000000,0.000000;
#CREDIT:;
#DISPLAYBPM:160.000000;
#NOTES:
// measure 0
0000
0000
0000
0000
,  // measure 1
0000
0000
0000
0000
,  // measure 2
0000
0000
0000
0000
,  // measure 3
0000
0000
0000
0000
,  // measure 4
1001
0000
0000
1000
0001
1000
0001
0000
0000
0000
0000
0000
0012
0000
0000
0100
0000
0000
0100
0000
0000
0103
0000
0000
,  // measure 5
2010
0100
0100
3100
1100
0001
0101
1000
,  // measure 6
0001
0010
0001
0010
0100
1000
0100
1000
0020
0000
0130
0000
0000
0000
2002
0000
,  // measure 7
3003
0000
0001
0100
1000
0000
0000
0000
0002
0000
1003
0000
0000
0000
0220
0000
,  // measure 8
0330
0000
0000
0000
0000
0000
0010
0000
0000
1000
0000
0000
0001
0000
0000
1000
0000
0000
0100
0000
0000
0010
0000
0000
0001
0000
0000
0000
0000
0000
0000
0000
0000
0000
0000
0000
1100
0000
0000
0000
0000
0000
0000
0000
0001
0000
0000
0000
,  // measure 9
0200
0000
0000
0000
0310
0100
0010
0100
0002
0000
0000
0000
1003
0100
1000
0100
,  // measure 10
0010
0000
0000
0000
0001
1000
0001
1000
0001
1000
0001
1000
0001
1000
0001
1000
,  // measure 11
0010
1010
0101
0010
,  // measure 12
1001
0001
0010
0100
1100
0000
0001
1001
,  // measure 13
0110
0000
0010
1001
0110
0000
1000
0000
,  // measure 14
1100
0101
0011
1010
,  // measure 15
0010
0000
1000
0100
1000
0010
0100
0002
0000
0013
0001
0000
0011
0000
0000
2000
,  // measure 16
0000
3100
1000
0000
1100
0000
0000
0020
0000
0130
0010
0000
0110
0000
0000
0000
,  // measure 17
0001
0000
0010
0001
1000
0100
1000
0020
0000
0130
0001
0000
0101
0000
0000
0002
,  // measure 18
0000
0013
0100
0000
0110
0000
0000
2000
0000
3010
0100
0010
0100
0010
0100
0010
,  // measure 19
1000
0000
0000
0000
1001
0000
0000
0010
1000
0001
1000
0001
0000
0010
0100
1000
,  // measure 20
0001
0000
0011
0000
1100
0000
0000
0001
0100
0010
0100
0000
0101
0000
0000
0000
,  // measure 21
0110
0000
0000
0000
1010
0000
0000
1000
0100
1000
0010
0100
0000
0000
0001
1000
,  // measure 22
0001
0000
0010
0000
0100
1000
0001
0000
1001
0000
0110
0000
1001
0000
0000
0000
,  // measure 23
1100
0000
0000
0000
0011
0000
0000
0010
0100
1000
0001
1000
0000
0000
0000
0000
,  // measure 24
1100
0110
0011
0110
2100
0001
3100
0000
,  // measure 25
1010
0000
0000
0000
1001
0000
0000
0001
1000
0100
1000
0001
0000
0010
0001
0000
,  // measure 26
0100
0000
0001
0010
0100
1000
0010
0000
0110
0000
0001
1000
0200
0000
0000
0000
,  // measure 27
1300
0000
0001
1000
0100
0010
0001
0200
0000
0310
1000
0000
1010
0000
0000
0002
,  // measure 28
0000
1003
0001
0000
1001
0000
0000
0020
0000
1030
0100
0000
1100
0000
0000
0000
,  // measure 29
0001
0000
1000
0010
1000
0100
0010
0002
0000
0103
0010
0000
0110
0000
0000
0020
,  // measure 30
0000
1030
0100
0000
1100
0000
0000
2000
0000
3010
0100
0010
0100
0010
0100
0010
,  // measure 31
1000
0000
0000
0000
0101
0000
0000
0010
0001
0100
0010
1000
0000
0000
0000
0000
,  // measure 32
0100
0000
1000
0001
0000
0001
0100
0010
1000
0100
0010
0000
0002
0000
0000
0000
,  // measure 33
0103
0000
0000
0000
1001
0000
0000
0001
1000
0100
0010
0100
0000
0000
1000
0001
,  // measure 34
0010
0000
0100
1000
0000
0001
1000
0010
1000
0100
0001
0000
1000
0000
0000
0000
,  // measure 35
1100
0000
0000
0000
0000
0000
0000
0000
0000
0000
0000
0000
0011
0000
0000
0000
0000
0000
0000
0000
0000
0001
0000
0000
1000
0000
0000
0000
0010
0000
0000
0000
0100
0000
0000
0000
0020
0000
0000
0000
0000
0000
0000
0000
0000
0000
0000
0000
,  // measure 36
1030
0000
0000
0000
0100
0000
0000
0000
0010
0000
0000
0000
0001
0000
0000
0000
1000
0000
0000
0000
0001
0000
0000
0000
0100
0000
0000
0010
0000
0000
1000
0000
0000
0001
0000
0000
0100
0000
0000
0010
0000
0000
0100
0000
0000
0000
0000
0000
,  // measure 37
0110
0000
0000
0000
1010
0000
0000
0010
1000
0001
0010
0100
2000
0001
0000
0000
,  // measure 38
3001
0100
0010
1000
0001
0010
0100
1000
0001
0100
0010
1000
0001
0010
0100
1000
,  // measure 39
0010
0000
1000
0001
0010
0100
1000
0001
1000
0010
0100
0000
0110
0000
0000
0001
,  // measure 40
0010
0001
1000
0000
1001
0000
0000
1000
0010
0100
0010
0000
1010
0000
0000
0000
,  // measure 41
1000
0000
0100
0010
0001
0100
0010
1000
0001
1000
0100
0000
1100
0000
0000
1000
,  // measure 42
0001
0010
0001
0000
0011
0000
0000
0010
0001
0100
0001
0000
0101
0000
1000
0000
,  // measure 43
1100
0001
0010
0001
0100
0010
1000
0001
,  // measure 44
0010
0100
0010
0001
0100
0010
1000
0001
,  // measure 45
1000
0100
0010
0001
0100
0010
1000
0001
,  // measure 46
0020
0130
0020
0031
2000
0100
3100
0000
,  // measure 47
1001
0010
1000
0001
0010
0100
1000
0010
,  // measure 48
1000
0001
0010
0100
1000
0010
0100
0001
,  // measure 49
0011
1000
0010
1010
0100
0010
0101
0000
,  // measure 50
0001
1000
0010
1000
0100
0010
0001
0000
,  // measure 51
1010
0000
0001
0000
1000
0000
0100
0000
0010
0000
0001
0000
0100
0000
0001
1000
,  // measure 52
0001
0100
0010
1000
0001
0100
1000
0000
,  // measure 53
0110
0000
0010
0000
1000
0000
0100
0000
0001
0000
0010
0000
0100
0000
1000
0001
,  // measure 54
1000
0010
1000
0100
0001
0010
0100
0000
,  // measure 55
1100
0001
0010
1000
0100
0010
0001
1000
,  // measure 56
0010
1000
0100
0010
0001
1000
0001
0000
,  // measure 57
0011
0000
1000
0100
1000
0000
1000
0100
1000
0000
1000
0100
1000
0000
1000
0100
,  // measure 58
1000
0000
0001
0100
0001
0000
0001
0100
0001
0000
0001
0100
0001
0000
0001
0100
,  // measure 59
0020
1000
1000
1030
0002
0100
0100
0103
,  // measure 60
1000
0000
0001
0010
0001
0000
1000
0010
1000
0000
0100
0001
0100
0010
0100
1000
,  // measure 61
0001
0000
1001
0000
0011
1100
0000
0022
,  // measure 62
0033
0000
0001
0100
0001
0000
1000
0100
1000
0000
0001
0010
0001
0000
1000
0010
,  // measure 63
1000
0000
0110
0000
1010
0101
0000
2020
,  // measure 64
3030
0000
1000
0001
1000
0000
0100
0001
0100
0000
0010
0001
0010
0000
0100
0000
,  // measure 65
1100
1000
0010
0100
0101
0001
1000
0010
,  // measure 66
1010
1000
0100
0010
0011
0001
0100
0010
,  // measure 67
1000
0000
0100
0010
0100
0000
1000
0010
1000
0000
0001
0010
0001
0000
0100
0000
,  // measure 68
0001
0010
1000
0010
0001
0000
0000
0000
1001
0000
0110
0000
0000
0000
1001
0000
,  // measure 69
0010
0100
0101
0000
1010
0011
0000
2020
,  // measure 70
3030
0000
1000
0100
1000
0000
0001
0100
0001
0000
1000
0010
1000
0000
0001
0010
,  // measure 71
0001
1000
1001
0000
1100
0101
0000
2200
,  // measure 72
3300
0000
0010
1000
0010
0000
0001
1000
0001
0000
0100
1000
0100
0000
0010
0000
,  // measure 73
0011
0010
0100
1000
1100
0100
1000
0001
,  // measure 74
0101
0100
0010
1000
1010
0010
1000
0001
,  // measure 75
0010
0000
0100
1000
0001
0000
0100
0001
1000
0000
0010
0100
0001
0000
1000
0000
,  // measure 76
0001
0010
1000
0010
0001
0000
0000
0000
0110
0000
1001
0000
0000
0000
0110
0000
,  // measure 77
0101
0000
0101
0000
0101
0000
0011
0000
0011
0000
0011
0000
,  // measure 78
1100
0000
1100
0000
1100
0000
1010
0000
1010
0000
1010
0000
,  // measure 79
0001
0100
1000
0100
0001
0000
0000
0000
0011
0000
1100
0000
0000
0000
0101
0000
,  // measure 80
0000
0000
0110
0001
0000
0000
0000
0000
;
