#TITLE:PARTY ALL NIGHT (DJ KEN-BOW MIX);
#ARTIST:HiBiKi;
#BANNER:PARTY ALL NIGHT (DJ KEN-BOW MIX)-bn.png;
#BACKGROUND:PARTY ALL NIGHT (DJ KEN-BOW MIX)-bg.png;
#JACKET:PARTY ALL NIGHT (DJ KEN-BOW MIX)-jacket.png;
#MUSIC:PARTY ALL NIGHT (DJ KEN-BOW MIX).ogg;
#SAMPLESTART:81.736;
#SAMPLELENGTH:20;
#DISPLAYBPM:135;
#BPMS:0=135;
#BGCHANGES:;

//---------------dance-single - ----------------
#NOTES:
     dance-single:
     :
     Beginner:
     3:
     :
0000
0000
0000
0000
,
0000
0000
0000
0000
,
0000
0000
0000
0000
,
0001
0000
0010
0000
,
0100
0000
0100
0000
,
1000
0000
0010
0000
,
0100
0000
0100
0000
,
0001
0000
0100
0000
,
0010
0000
0010
0000
,
1000
0000
0100
0000
,
0010
0000
0010
0000
,
0001
0001
0001
0000
,
0010
0000
0100
0000
,
1000
1000
1000
0000
,
1001
0000
0000
0000
,
1000
0000
0100
0000
,
0010
0000
0010
0000
,
0001
0000
0100
0000
,
0010
0000
0010
0000
,
1000
0000
0100
0000
,
0001
0000
0100
0000
,
1000
0000
0001
0000
,
1000
0000
0000
0000
,
0001
0000
0100
0000
,
0010
0010
0010
0000
,
1000
0000
0100
0000
,
0010
0010
0010
0000
,
0001
0000
0100
0000
,
1000
0000
0100
0000
,
0001
0000
1000
0000
,
1001
0000
0000
0000
,
0010
0010
0010
0000
,
1000
0000
0001
0000
,
0100
0100
0100
0000
,
0001
0000
1000
0000
,
0001
0001
0001
0000
,
0100
0000
0010
0000
,
1000
1000
1000
0000
,
0010
0000
0010
0000
,
2000
0000
3000
0000
,
0200
0000
0300
0000
,
0020
0000
0030
0000
,
0001
0010
0001
0000
,
0002
0000
0003
0000
,
0200
0000
0300
0000
,
0020
0000
0030
0000
,
1001
0000
0000
0000
,
1000
0001
1000
0000
,
0010
0000
0100
0000
,
0010
0000
1000
0000
,
0001
0000
0000
0000
,
0001
1000
0001
0000
,
0010
0000
0100
0000
,
0010
0000
0001
0000
,
1000
0000
0000
0000
,
1000
0100
1000
0000
,
0010
0000
0100
0000
,
0001
0000
0010
0000
,
0001
0000
0000
0000
,
0001
0100
0001
0000
,
0010
0000
0100
0000
,
1000
0000
0010
0000
,
1000
0000
0000
0000
,
1001
0000
0000
0000
,
0000
0000
0000
0000
;

//---------------dance-single - ----------------
#NOTES:
     dance-single:
     :
     Easy:
     6:
     :
0000
0000
0000
0000
,
0000
0000
0000
0000
,
0000
0000
0000
0000
,
0001
0010
0100
0100
,
1000
0010
0100
0100
,
0001
0010
0100
0100
,
1000
0001
1000
0000
,
1000
0010
0100
0100
,
0001
0010
0100
0100
,
1000
0010
0100
0100
,
0001
1000
0001
0000
,
1000
0100
1000
0000
0100
0000
0010
0000
,
0001
1000
0001
0000
0100
0000
0010
0000
,
1000
0100
1000
0000
0001
0000
1000
0000
,
2002
0000
0000
3003
,
0010
0010
1000
1000
,
0100
0001
0100
0000
,
0010
0010
0001
0001
,
0100
1000
0100
0000
,
0010
1000
0010
1000
,
0001
0100
0001
0000
,
0010
0001
0010
0001
,
1000
0100
1000
0000
,
0010
1000
0010
0100
,
0010
0000
1000
0000
0010
0100
0010
0000
,
0100
0001
0100
0010
,
0100
0000
0001
0000
1000
0001
1000
0000
,
0001
0010
0100
1000
,
0100
0000
0010
0000
0001
1000
0001
0000
,
1000
0100
0010
0001
,
2002
0000
0000
3003
,
0001
1000
0010
0100
,
0001
1000
0100
0010
,
0001
1000
0010
0100
,
0001
1000
0100
0100
,
1000
0001
0100
0010
,
1000
0001
0010
0100
,
1000
0001
0100
0010
,
1000
1000
1000
0000
,
0002
0000
1003
0000
,
2000
0000
3001
0000
,
0020
0000
0130
0000
,
0200
0000
0310
0000
,
0010
1000
0100
0000
,
0010
0001
0100
0000
,
0100
0001
0010
0000
,
2002
0000
0000
3003
,
0100
0010
0100
0000
0001
0000
1000
0000
,
0100
0010
0001
0000
,
1000
0001
1000
0000
0010
0000
0100
0000
,
0010
1000
0001
0000
,
0010
0010
0100
0100
,
1000
0001
1000
0000
,
0010
1000
0010
0000
1000
0000
0001
0000
,
0100
0010
0100
0000
,
0001
0001
0010
0010
,
0100
1000
0100
0000
1000
0000
0000
0000
,
1000
1000
0010
0010
,
0100
0001
0100
0000
0001
0000
0000
0000
,
1000
0100
0010
0010
,
0001
1000
0001
0000
1000
0000
0000
0000
,
0001
0100
0010
0010
,
2000
0000
0000
3000
,
1001
0000
0000
0000
,
0000
0000
0000
0000
;

//---------------dance-single - ----------------
#NOTES:
     dance-single:
     :
     Medium:
     9:
     :
0000
0000
0000
0000
,
0000
0000
0000
0000
,
0000
0000
0000
0000
,
0001
1000
0001
0000
0010
0100
0010
0000
,
0001
1000
0001
0000
0100
0010
0100
0000
,
0001
1000
0001
0000
0010
0100
0010
0000
,
0001
1000
0001
1001
,
1000
0001
1000
0000
0010
0100
0010
0000
,
1000
0001
1000
0000
0100
0010
0100
0000
,
1000
0001
1000
0000
0010
0100
0010
0000
,
1000
0001
1000
0000
0100
0010
0100
0000
,
0010
0001
0010
0000
0100
1000
0100
0000
,
1000
0010
1000
0000
0001
0100
0001
0000
,
1000
0001
1000
0001
0100
0010
0100
0000
,
0220
0000
0000
0330
,
0000
0001
0010
0000
0001
0000
1001
0000
,
0100
0010
0100
2000
0000
0000
3001
0000
,
0000
1000
0010
0000
1000
0000
1001
0000
,
0100
0010
0100
0002
0100
0000
1003
0000
,
2000
0000
3020
0000
0130
0001
1000
0000
,
0100
0010
0100
0020
0000
0000
0030
0000
,
0001
1000
0001
0000
2000
0000
3020
0000
,
0130
0001
0010
0002
0000
0000
1003
0000
,
0001
0000
0100
0000
1000
0100
0001
0000
,
1000
0000
0100
0000
0001
0100
1000
0000
,
0001
0000
0010
0000
1000
0010
0001
0000
,
1000
0000
0010
0000
0001
0010
1000
0000
,
0001
0001
0011
0011
,
1000
1000
1010
1010
,
0001
0100
0001
0000
1000
0100
1000
0000
,
2002
0000
0000
3003
,
1000
0100
0010
0000
0001
0000
1000
0000
,
0001
0100
0010
0000
1000
0000
0001
0000
,
1000
0010
0100
0000
0001
0000
1000
0000
,
0001
0010
0100
0000
1000
0000
0001
0000
,
0100
0001
0010
0000
0001
0000
1000
0000
,
0100
1000
0010
0000
1000
0000
0001
0000
,
0010
0001
0100
0000
0010
1000
0100
0000
,
1000
0001
1000
1001
,
0100
0001
1000
0001
0100
0000
0100
0000
,
0010
1000
0001
1000
0010
0000
0010
0000
,
1000
0100
0010
0001
0010
0000
0010
0000
,
0001
0100
0010
1000
0010
0000
1001
0000
,
0010
1000
0001
1000
0010
0000
0010
0000
,
0100
0001
1000
0001
0100
0000
0100
0000
,
0001
0010
0100
1000
0100
0010
0100
0000
,
2002
0000
0000
3003
,
0000
1000
0100
1000
0100
0000
1001
0000
,
0010
0100
0010
0002
0000
0000
1003
0000
,
0000
0001
0100
0001
0100
0000
1001
0000
,
0010
0100
0010
2000
0010
0000
3001
0000
,
0002
0000
0203
0000
0310
1000
0001
0000
,
0010
0100
0010
0200
0000
0000
0300
0000
,
1000
0001
1000
0000
0002
0000
0203
0000
,
0310
1000
0100
2000
0000
0000
3001
0000
,
1000
0010
0001
0000
0010
0000
1000
0000
,
0001
0010
1000
0000
0010
0000
0001
0000
,
1000
0100
0001
0000
0100
0000
1000
0000
,
0001
0100
1000
0000
0100
0000
0001
0000
,
1000
1000
1100
1100
,
0001
0001
0101
0101
,
1000
0010
1000
0010
0100
0001
0100
0000
,
2002
0000
0000
3003
,
0110
0000
0000
0000
,
0000
0000
0000
0000
;

//---------------dance-single - ----------------
#NOTES:
     dance-single:
     :
     Hard:
     13:
     :
0000
0000
0000
0000
,
0000
0000
0000
0000
,
0000
0000
0000
0000
,
0001
0000
1000
0000
0001
0000
0100
0010
0000
0010
0100
0000
0010
0000
0100
0000
,
0001
0000
1000
0000
0100
0010
0000
0010
0000
0010
0100
0000
0010
0100
0010
0000
,
0001
0000
1000
0000
0010
0000
0100
0010
0000
0010
0100
0000
0001
0000
1000
0000
,
0100
0100
0100
1001
,
1000
0000
0001
0000
1000
0000
0100
0010
0000
0010
0100
0000
0010
0000
0100
0000
,
1000
0000
0001
0000
0100
0010
0000
0010
0000
0010
0100
0000
0010
0100
0010
0000
,
1000
0000
0001
0000
0010
0000
0100
0010
0000
0010
0100
0000
1000
0000
0001
0000
,
1000
0000
0001
0000
0100
0010
0000
0010
0000
0010
0100
0000
0010
0100
0010
0000
,
1000
0100
1000
0100
0010
0001
0010
0001
,
0100
0001
0100
0001
1000
0010
1000
0010
,
1000
0100
0010
0000
0100
0010
0001
0000
0001
0100
0010
0000
0100
0010
1000
0000
,
2002
0000
0000
3003
,
0000
0010
0010
0001
0002
0000
0103
0010
,
0100
0100
0001
0200
1000
0000
0301
0000
,
0000
1000
0001
0000
2000
0000
3100
0001
,
0100
1000
0001
0200
1000
0000
0301
0000
,
0011
0000
0101
0000
0010
1000
0200
0000
,
0301
0001
0100
2000
0010
0000
3100
0000
,
0010
0100
0100
0000
1100
0000
1010
0010
,
0001
0010
2000
0002
0000
0000
3003
0000
,
0011
0100
1000
0100
0011
0100
1000
0100
,
1010
0001
0100
0001
1000
0001
1001
0000
,
1100
0010
0001
0010
1100
0010
0001
0010
,
0101
0010
1000
0020
0001
0000
1030
0000
,
1010
0000
0101
0000
0010
0001
0101
0000
,
0011
0010
1100
0100
1000
0010
0100
0000
,
0001
0100
0001
0000
1000
0100
1000
0000
0001
0010
0001
0000
1000
0010
1000
0000
,
2002
0000
0000
3003
,
0010
0000
1000
0000
0100
0000
0010
0001
0000
0001
0100
0000
0010
0000
1000
0000
,
0001
0000
0010
0000
0100
1000
0000
1000
0000
1000
0010
0000
0100
0010
0100
0000
,
0001
0000
1000
0000
0100
0000
1000
0010
0000
0010
0100
0000
0001
0000
1000
0000
,
0100
0000
0010
0000
0001
0010
0000
0010
0000
0010
0001
0000
1000
0001
1000
0000
,
1001
0000
0100
0000
0010
0000
1000
0001
0000
0001
1000
0000
0100
0000
0010
0000
,
0110
0000
0001
0000
1000
0010
0000
0010
0000
0010
1000
0000
0001
0100
0010
0000
,
0110
0000
1000
0000
0001
0000
0100
0010
0000
0010
1000
0000
0001
0000
0010
0000
,
0100
0100
0100
1001
,
0100
0010
1000
0000
0100
0010
0001
0000
1000
0000
0001
0000
1000
0000
0000
0000
,
0010
0100
0001
0000
0010
0100
1000
0000
0001
0000
1000
0000
0001
0000
0000
0000
,
0010
0001
0100
0000
0010
1000
0100
0000
1000
0000
0001
0000
0100
0000
0000
0000
,
0001
0010
0100
0000
0001
0000
0100
0000
1000
0000
0000
0000
1001
0000
0000
0000
,
0010
1000
0001
0000
0010
0001
1000
0000
0010
0000
0100
0000
0010
0000
0000
0000
,
0100
0001
1000
0000
0100
1000
0001
0000
0100
0000
0010
0000
0100
0000
0000
0000
,
0001
1000
0100
0000
0010
0001
1000
0000
0010
0000
0100
0000
0010
0000
0000
0000
,
2002
0000
0000
3003
,
0000
0100
0100
0001
0002
0000
1003
0010
,
0100
0100
1000
0200
1000
0000
0301
0000
,
0000
1000
0001
0000
0020
0000
0130
0001
,
0100
1000
0001
0020
1000
0000
0031
0000
,
0101
0000
1010
0000
0100
0001
0200
0000
,
1300
1000
0001
0020
1000
0000
0031
0000
,
0000
1000
0100
0000
1001
0000
1100
0100
,
0001
0100
2000
0002
0000
0000
3003
0000
,
1001
0010
0100
0010
1001
0010
0100
0010
,
1001
0100
0010
0100
1000
0001
1001
0000
,
0110
0001
1000
0001
0110
0001
1000
0001
,
0110
1000
0001
2000
0010
0000
3100
0000
,
1010
0000
0101
0000
0010
0001
0200
0000
,
1000
1300
0100
0002
0010
0000
0103
0000
,
0010
1000
0010
0000
0100
0001
0100
0000
0010
1000
0100
0000
0010
0001
0100
0000
,
2002
0000
0000
3003
,
0110
0000
0000
0000
,
0000
0000
0000
0000
;

//---------------dance-single - ----------------
#NOTES:
     dance-single:
     :
     Challenge:
     16:
     :
0000
0000
0000
0000
,
0000
0000
0000
0000
,
0000
0000
0000
0000
,
1001
0000
0010
0000
1000
0000
0100
0010
0000
0100
0010
0000
0001
0000
1000
0000
,
0010
0000
1000
0000
0001
0100
0001
0100
0000
0100
0010
0000
1000
0001
1000
0000
,
0100
0000
0010
0000
0001
0000
1000
0010
0000
1000
0010
0000
0100
0000
0001
0000
,
1000
0000
0010
0000
1000
0001
1000
0001
0000
0100
0010
0000
0100
0001
0100
0000
,
0001
0000
1000
0000
0100
0000
0010
0001
0000
0001
0100
0000
0010
0000
1000
0000
,
0100
0000
0001
0000
0100
0010
0100
0010
0000
0001
1000
0000
0100
1000
0100
0000
,
0010
0000
1000
0000
0010
0000
0100
1000
0000
1000
0001
0000
0010
0000
0001
0000
,
0100
0000
0010
0000
1000
0001
0000
0011
0000
0100
0001
0000
1000
0010
1000
0000
,
0100
0000
0010
0000
0001
0000
0100
0001
0010
0100
1000
0000
0001
0000
1000
0000
,
0010
0000
1000
0000
0100
0010
0001
0100
0001
1000
0001
0000
0100
0010
1000
0000
,
0001
0100
0010
0100
1000
0010
1000
0001
,
0011
0000
0100
0000
0000
0000
1010
0000
0000
0101
0000
0000
1010
0000
1000
0100
,
1000
0000
0001
0000
0010
0000
0001
0000
0100
0010
1000
0000
0100
0000
0001
0000
,
0100
0000
1000
0000
0010
0000
0100
0000
0001
0010
0001
0010
0001
1000
0100
0000
,
0010
0001
0100
0010
1000
0100
1000
0001
,
0010
0100
1000
0010
0110
0100
0110
0000
,
1001
0100
1001
0100
0010
1000
0001
1000
,
0100
0000
0001
0000
0100
0000
0010
0000
0001
1000
0001
1000
0001
0100
0010
0000
,
1000
0000
1010
0000
1100
0000
0001
0000
0010
0001
0100
0000
0010
0000
1000
0000
,
0200
0000
2300
0000
3002
0000
0023
0000
0130
1000
0001
1000
0010
0000
0000
0000
,
0110
0000
0001
0000
1000
0000
0100
0000
1000
0010
0100
0010
1000
0000
0001
0000
,
0010
0000
0001
0000
1000
0000
0001
0000
0100
0010
0100
0010
1000
0010
1000
0100
,
0010
0000
0011
0000
0101
0000
0010
0000
1000
0001
1000
0000
0100
0000
0010
0000
,
0001
0000
1000
0010
1000
0000
0001
0000
0011
0000
0100
0000
1010
0000
0000
0000
,
1001
0100
1001
0100
0010
1000
0100
0001
,
0100
0000
0010
0000
0100
0000
1000
0000
0001
0000
0000
0000
0110
0000
1000
0010
,
1000
0000
0101
0000
1100
0000
0010
0000
0100
0001
1000
0000
0100
0010
0001
0000
,
0011
0000
0100
0000
0000
0000
1010
0000
0000
0101
0000
0000
1010
0000
0000
0000
,
0010
0000
1000
0000
0100
0000
1000
0001
0000
0001
0010
0000
0001
0100
0010
0000
,
1000
0000
0100
0000
1000
0010
0000
0100
0000
0001
1000
0000
0001
0010
0001
0000
,
0100
0000
0001
0000
0010
0000
1000
0001
0000
1000
0100
0000
0010
0001
1000
0000
,
0100
0000
0010
0000
0100
1000
0000
0001
0000
0100
0001
0000
1000
0010
1000
0010
,
1000
0000
0001
0000
0010
0100
0010
0100
0000
1000
0001
0000
0010
0001
0100
0000
,
0010
0000
1000
0000
0100
0010
0001
0100
0000
0001
1000
0000
0010
1000
0100
0000
,
0010
0000
0001
0000
1000
0001
0010
0100
0000
0100
1000
0000
0001
1000
0010
0100
,
0001
0000
0000
0000
0000
0000
0000
0000
0000
0000
0000
0000
0011
0000
0000
0000
0000
0000
0000
0000
0000
0000
0000
0000
1010
0000
0000
0000
0000
0000
0001
0000
1000
0000
0001
0000
1000
0000
0000
0000
0000
0000
0010
0000
0000
0100
0000
0000
,
0001
0010
1000
0000
0001
0100
1000
0000
1100
0000
0110
0000
0011
0000
0100
0010
,
1000
0100
0001
0000
1000
0010
0001
0000
0101
0000
1001
0000
1010
0000
0100
0010
,
1000
0100
0001
0000
1000
0010
0001
0000
1001
0000
1010
0000
1100
0000
0001
0100
,
1000
0100
0001
0000
0011
0000
0101
0000
0110
0000
1000
0000
0001
0000
0100
0010
,
1000
0100
0001
0000
1000
0010
0001
0000
0101
0000
1010
0000
1100
0000
0010
0100
,
0001
0010
1000
0000
0001
0100
1000
0000
1001
0000
0011
0000
0110
0000
0100
1000
,
0010
1000
0100
0000
0010
0001
0100
0000
0001
1000
0010
0000
1000
0001
0100
0000
,
0011
0000
0100
0000
0000
0000
1010
0000
0000
0101
0000
0000
1010
0000
1000
0001
,
1000
0000
0100
0000
0010
0000
0100
0000
1000
0001
0010
0000
0001
0000
0100
0000
,
0010
0000
0001
0000
0010
0000
1000
0000
0100
0010
0100
1000
0001
0100
0001
1000
,
0010
0000
1000
0000
0100
1000
0001
0000
0010
0001
0100
0000
0010
0000
1000
0000
,
0100
1000
0001
0100
1010
0001
0101
0000
,
1001
0100
1001
0100
0010
1000
0001
1000
,
0100
0000
0010
0000
0001
0000
0100
0000
0001
1000
0100
1000
0001
0010
1000
0010
,
0001
0000
0100
0000
0001
0010
0100
0000
1000
0010
1000
0000
0100
1000
0001
0000
,
0020
0000
0032
0000
2003
0000
3200
0000
0320
0000
0230
0000
1300
0001
1000
0001
,
0100
0000
0010
0000
1000
0000
0001
0000
1000
0100
0010
0001
0100
0000
0010
0000
,
1000
0000
0010
0000
1000
0000
0001
0000
0010
0100
0010
0001
1000
0100
0001
0100
,
1000
0000
0010
0000
0100
0001
1000
0000
0001
0010
0001
0000
1000
0100
0010
0000
,
0001
0000
1000
0010
1000
0000
0001
0000
0110
0000
1000
0000
0110
0000
0000
0000
,
1001
0100
1001
0100
0001
1000
0010
0001
,
0010
1000
0100
0010
0001
0100
0001
1000
,
0010
0000
0100
0000
0010
1000
0001
0000
1000
0100
0010
0000
0001
1000
0001
0000
,
0011
0000
0100
0000
0000
0000
1010
0000
0000
0101
0000
0000
1010
0000
1000
0002
,
2000
0000
0000
0000
,
0003
0000
0000
0000
,
3000
0000
0000
0000
;

//---------------dance-double - ----------------
#NOTES:
     dance-double:
     :
     Easy:
     6:
     :
00000000
00000000
00000000
00000000
,
00000000
00000000
00000000
00000000
,
00000000
00000000
00000000
00000000
,
00000010
00000001
00000010
00000001
,
00000100
00000010
00001000
00000100
,
00010000
00001000
00010000
00001000
,
01000000
00010000
00100000
00000000
,
01000000
10000000
01000000
10000000
,
00100000
01000000
00010000
00100000
,
00001000
00010000
00001000
00010000
,
00000010
00001000
00000100
00000000
,
00000010
00000001
00000010
00000000
00000100
00000000
00001000
00000000
,
00000010
00000100
00000010
00000000
00000100
00000000
00001000
00000000
,
00010000
00001000
00010000
00000000
00100000
00000000
10000000
00000000
,
20020000
00000000
00000000
30030000
,
10000000
10000000
01000000
01000000
,
00100000
00010000
00100000
00000000
,
00001000
00001000
00000100
00000100
,
00000010
00000001
00000010
00000000
,
00000001
00000100
00000001
00000100
,
00000010
00001000
00000010
00000000
,
00010000
01000000
00010000
01000000
,
00100000
10000000
00100000
00000000
,
10000000
01000000
00010000
01000000
,
10000000
00010000
00100000
00100000
,
00001000
00000010
00000001
00000010
,
00000100
00001000
00000001
00000000
,
00000001
00000100
00001000
00000100
,
00000001
00001000
00000010
00000010
,
00010000
00100000
10000000
00100000
,
02200000
00000000
00000000
03300000
,
00100000
01000000
00100000
10000000
,
01000000
00100000
00001000
00010000
,
00000100
00001000
00000100
00000010
,
00000001
00000100
00001000
00000100
,
00000010
00001000
00000010
00000100
,
00001000
00010000
00100000
01000000
,
00010000
10000000
01000000
00100000
,
01000000
01000000
01000000
00000000
,
00010000
00001000
00010000
00000000
,
00010000
00000010
00010000
00000000
,
00010000
00001000
00010000
00000000
,
00001000
00010000
00011000
00000000
,
00001000
00010000
00001000
00000000
,
00001000
00100000
00001000
00000000
,
00001000
00010000
00001000
00000000
,
00022000
00000000
00000000
00033000
,
00000100
00001000
00000100
00000000
00000010
00000000
00000001
00000000
,
00001000
00000010
00000100
00001000
,
00010000
00001000
00010000
00000000
00001000
00000000
01000000
00000000
,
00010000
00100000
01000000
00000000
,
01000000
10000000
01000000
00000000
00100000
00000000
00010000
00000000
,
01000000
00010000
00100000
00001000
,
00010000
00001000
00010000
00000000
00000010
00000000
00001000
00000000
,
00000100
00000010
00000100
00000000
,
00000001
00000001
00000100
00000100
,
00001000
00010000
00001000
00000000
00010000
00000000
00000000
00000000
,
00100000
00100000
10000000
10000000
,
00010000
01000000
00010000
00000000
01000000
00000000
00000000
00000000
,
00001000
00010000
00001000
00000100
,
00000001
00000100
00000001
00000000
00000100
00000000
00000000
00000000
,
00000100
00001000
00010000
00001000
,
00020000
00000000
00000000
00030000
,
00011000
00000000
00000000
00000000
,
00000000
00000000
00000000
00000000
;

//---------------dance-double - ----------------
#NOTES:
     dance-double:
     :
     Medium:
     9:
     :
00000000
00000000
00000000
00000000
,
00000000
00000000
00000000
00000000
,
00000000
00000000
00000000
00000000
,
00000001
00000010
00000001
00000000
00000100
00000001
00000100
00000000
,
00000010
00001000
00000010
00000000
00010000
00000000
00001000
00000000
,
00100000
00010000
00100000
00000000
00010000
01000000
00010000
00000000
,
10000000
00100000
10000000
00000000
00010000
00000000
10010000
00000000
,
10000000
00100000
10000000
00000000
01000000
10000000
01000000
00000000
,
00100000
00010000
00100000
00000000
00001000
00000000
00010000
00000000
,
00000010
00001000
00000010
00000000
00001000
00000100
00001000
00000000
,
00000001
00000010
00000001
00000000
00000100
00000001
00000100
00000000
,
00000010
00000100
00001000
00000000
00000100
00000000
00010000
00000000
,
00001000
01000000
00010000
00000000
00100000
00000000
01000000
00000000
,
10000000
00100000
10000000
00100000
01000000
00010000
01000000
00000000
,
02200000
00000000
00000000
03300000
,
00000000
00010000
01000000
00000000
00001000
00000000
00011000
00000000
,
00010000
00001000
00010000
00000200
00000000
00000000
00000310
00000000
,
00000000
00000001
00000100
00000000
00000010
00000000
00000110
00000000
,
00000100
00000010
00001000
00000100
00010000
00000000
00011000
00000000
,
00002000
00000000
00203000
00000000
00310000
00100000
01000000
00000000
,
10000000
00010000
10000000
00020000
00000000
00000000
00030000
00000000
,
01000000
00100000
01000000
00000000
00020000
00000000
00230000
00000000
,
01300000
00010000
00001000
00020000
00000000
00000000
00031000
00000000
,
00010000
00000000
00001000
00000000
00000010
00000100
00000010
00000000
,
00000001
00000000
00001000
00000000
00000010
00000100
00000010
00000000
,
00000100
00000000
00001000
00000000
00010000
00001000
00010000
00000000
,
00100000
00000000
10000000
00000000
00100000
01000000
00100000
00000000
,
10000000
01000000
10000000
00000000
00010000
00000000
00100000
00000000
,
00001000
00010000
00001000
00000000
00000100
00000000
00000010
00000000
,
00001000
00000100
00001000
00000000
00000001
00000010
00000001
00000000
,
00002002
00000000
00000000
00003003
,
00000010
00000100
00001000
00000000
00000010
00000000
00000100
00000000
,
00001000
00010000
00001000
00000000
00100000
00000000
00010000
00000000
,
01000000
00100000
10000000
00000000
01000000
00000000
00100000
00000000
,
00010000
00100000
00001000
00000000
00010000
00000000
00000010
00000000
,
00001000
00000010
00000100
00000000
00000001
00000000
00001000
00000000
,
00000100
00000010
00000100
00000000
00010000
00000000
00001000
00000000
,
01000000
00010000
00100000
00000000
01000000
10000000
00100000
00000000
,
00010000
00001000
00010000
00011000
,
00000010
00001000
00000010
00001000
00000001
00000000
00000001
00000000
,
00001000
00000100
00001000
00000100
00010000
00000000
00010000
00000000
,
00001000
01000000
00001000
01000000
00010000
00000000
00010000
00000000
,
00100000
01000000
10000000
01000000
00100000
00000000
10010000
00000000
,
00100000
00010000
00100000
00010000
10000000
00000000
10000000
00000000
,
00010000
01000000
00010000
01000000
00001000
00000000
00001000
00000000
,
00010000
00000100
00010000
00000100
00001000
00000010
00001000
00000000
,
00002002
00000000
00000000
00003003
,
00000000
00001000
00000100
00000000
00010000
00000000
00011000
00000000
,
00001000
00010000
00001000
02000000
00000000
00000000
03100000
00000000
,
00000000
10000000
01000000
00000000
00100000
00000000
01100000
00000000
,
01000000
00100000
00010000
01000000
00001000
00000000
00011000
00000000
,
00020000
00000000
00030020
00000000
00001030
00000010
00000100
00000000
,
00000001
00001000
00000001
00002000
00000000
00000000
00003000
00000000
,
00000100
00000010
00000100
00000000
00002000
00000000
00003020
00000000
,
00000130
00001000
00010000
00002000
00000000
00000000
00013000
00000000
,
00001000
00000000
00010000
00000000
00100000
01000000
00100000
00000000
,
10000000
00000000
00010000
00000000
00100000
01000000
00100000
00000000
,
01000000
00000000
00010000
00000000
00001000
00010000
00001000
00000000
,
00000010
00000000
00000001
00000000
00000010
00000100
00000010
00000000
,
00000001
00000100
00000001
00000000
00001000
00000000
00000010
00000000
,
00010000
00001000
00010000
00000000
01000000
00000000
00100000
00000000
,
00010000
01000000
00010000
00000000
10000000
00100000
10000000
00000000
,
20020000
00000000
00000000
30030000
,
01100000
00000000
00000000
00000000
,
00000000
00000000
00000000
00000000
;

//---------------dance-double - ----------------
#NOTES:
     dance-double:
     :
     Hard:
     13:
     :
00000000
00000000
00000000
00000000
,
00000000
00000000
00000000
00000000
,
00000000
00000000
00000000
00000000
,
00000001
00000000
00001000
00000000
00000001
00000000
00000100
00000010
00000000
00000010
00000100
00000000
00000010
00000000
00000100
00000000
,
00001000
00000000
00010000
00000000
00001000
00010000
00000000
00010000
00000000
00010000
00001000
00000000
00010000
00001000
00010000
00000000
,
00001000
00000000
01000000
00000000
00100000
00000000
01000000
00100000
00000000
00100000
01000000
00000000
00010000
00000000
10000000
00000000
,
01000000
01000000
01000000
10010000
,
10000000
00000000
00010000
00000000
10000000
00000000
01000000
00100000
00000000
00100000
01000000
00000000
00100000
00000000
01000000
00000000
,
00010000
00000000
00001000
00000000
00010000
00001000
00000000
00001000
00000000
00001000
00010000
00000000
00001000
00010000
00001000
00000000
,
00010000
00000000
00000100
00000000
00000010
00000000
00000100
00000010
00000000
00000010
00000100
00000000
00001000
00000000
00000001
00000000
,
00000100
00000000
00000010
00000000
00000100
00000010
00000000
00000010
00000000
00000010
00000100
00000000
00000010
00000100
00000010
00000000
,
00000100
00001000
00000100
00001000
00010000
00100000
00010000
00010000
,
00001000
00000010
00001000
00000010
00001000
00010000
01000000
01000000
,
10000000
00100000
01000000
00000000
00100000
00000000
00010000
00000000
00001000
00000000
00000100
00000000
00000001
00001000
00000001
00000000
,
00002002
00000000
00000000
00003003
,
00000000
00001000
00000001
00001000
00000002
00000000
00000013
00001000
,
00010000
00100000
00010000
00002000
00010000
00000000
00013000
00000000
,
00000000
00001000
00010000
00000000
02000000
00000000
13000000
00100000
,
01000000
00010000
00100000
00002000
01000000
00000000
00003100
00000000
,
00000110
00000000
00001001
00000000
00001000
00000010
00000002
00000000
,
00000013
00001000
00000100
00020000
00001000
00000000
00031000
00000000
,
00010000
00100000
10000000
00000000
11000000
00000000
00110000
00010000
,
10000000
01000000
00020000
00002000
00000000
00000000
00033000
00000000
,
00000010
00001000
00010000
00001000
00000010
00001000
00010000
00000000
,
00000010
00000100
00010000
01000000
00010000
00000000
01100000
00000000
,
00100000
00010000
00001000
00010000
00100000
00010000
00001000
00000000
,
00100000
01000000
00010000
00000200
00001000
00000000
00000301
00000000
,
00000011
00000000
00001100
00000000
00000001
00000100
00001000
00000000
,
00010000
00100000
10000000
00100000
01000000
00010000
10000000
00000000
,
01000000
00100000
00010000
00000000
00100000
00001000
00100000
00000000
00001000
00010000
00000100
00000000
00001000
00000010
00001000
00000000
,
00002002
00000000
00000000
00003003
,
00000010
00000000
00001000
00000000
00000100
00000000
00010000
00001000
00000000
00001000
00010000
00000000
00001000
00000000
01000000
00000000
,
00010000
00000000
00100000
00000000
01000000
10000000
00000000
10000000
00000000
10000000
00100000
00000000
01000000
00100000
01000000
00000000
,
00010000
00000000
00100000
00000000
01000000
00000000
00010000
00001000
00000000
00001000
00010000
00000000
00000100
00000000
00001000
00000000
,
00000010
00000000
00000100
00000000
00000001
00001000
00000000
00001000
00000000
00001000
00000001
00000000
00000010
00000100
00000010
00000000
,
00000110
00000000
00000001
00000000
00001000
00000000
00000100
00010000
00000000
00010000
00001000
00000000
00100000
00000000
00010000
00000000
,
01010000
00000000
01000000
00000000
00100000
10000000
00000000
10000000
00000000
10000000
00010000
00000000
00100000
01000000
00100000
00000000
,
01100000
00000000
10000000
00000000
00010000
00000000
01000000
00100000
00000000
00100000
00010000
00000000
00001000
00000000
00000100
00000000
,
00000001
00000001
00000001
00001001
,
00000010
00000001
00000010
00000000
00000100
00001000
00000100
00000000
00010000
00000000
00001000
00000000
00010000
00000000
00000000
00000000
,
00000100
00010000
00000100
00000000
00010000
00001000
00010000
00000000
00001000
00000000
01000000
00000000
00010000
00000000
00000000
00000000
,
10000000
00100000
10000000
00000000
00010000
01000000
00010000
00000000
00100000
00000000
01000000
00000000
10000000
00000000
00000000
00000000
,
01000000
00010000
00001000
00010000
00001000
00000000
00011000
00000000
,
00001000
00000010
00001000
00000000
00000010
00001000
00000010
00000000
00001000
00000000
00010000
00000000
00001000
00000000
00000000
00000000
,
00010000
00100000
00010000
00000000
00100000
00010000
00100000
00000000
00010000
00000000
00001000
00000000
00010000
00000000
00000000
00000000
,
00001000
00000100
00001000
00000000
00000100
00001000
00000100
00000000
00001000
00000000
00010000
00000000
00001000
00000000
00000000
00000000
,
00022000
00000000
00000000
00033000
,
00000000
00100000
00010000
00100000
02000000
00000000
13000000
00100000
,
01000000
00010000
00100000
00002000
00010000
00000000
00003010
00000000
,
00000000
00000010
00000001
00000000
00002000
00000000
00003001
00000100
,
00000010
00000100
00001000
00020000
00000100
00000000
01030000
00000000
,
11000000
00000000
00110000
00000000
10000000
01000000
00010000
00000000
,
00001000
00000010
00000001
00000200
00001000
00000000
00000301
00000000
,
00000000
00000010
00000100
00000000
00000110
00000000
00001000
00010000
,
00100000
01000000
00020000
20000000
00000000
00000000
30030000
00000000
,
01000000
00010000
00001000
00010000
01000000
00010000
00001000
00000000
,
01000000
00100000
00001000
00000010
00001000
00000000
00000110
00000000
,
00000100
00001000
00010000
00001000
00000100
00001000
00010000
00000000
,
00000100
00000010
00001000
00200000
00010000
00000000
10300000
00000000
,
11000000
00000000
00110000
00000000
10000000
00100000
00010000
00000000
,
00001000
00000100
00000001
00000100
00000010
00001000
00000001
00000000
,
00000010
00000100
00001000
00000000
00000100
00010000
00001000
00000000
00100000
00010000
01000000
00000000
00100000
10000000
00100000
00000000
,
02200000
00000000
00000000
03300000
,
10010000
00000000
00000000
00000000
,
00000000
00000000
00000000
00000000
;
