#TITLE:PARANOiA Rebirth;
#ARTIST:190';
#BANNER:PARANOiA Rebirth.png;
#BACKGROUND:PARANOiA Rebirth-bg.png;
#JACKET:PARANOiA Rebirth-jacket.png;
#MUSIC:PARANOiA Rebirth.ogg;
#SAMPLESTART:1.229;
#SAMPLELENGTH:20;
#DISPLAYBPM:190;
#BPMS:0=190.074,20=190.011;
#BGCHANGES:;

//---------------dance-single - ----------------
#NOTES:
     dance-single:
     :
     Beginner:
     4:
     :
0000
0000
0000
0000
,
0000
0000
0000
0000
,
0000
0000
0000
0000
,
0000
0000
0000
0000
,
0000
0000
0000
0000
,
0000
0000
0000
0000
,
0000
0000
0000
0000
,
0001
0001
0000
0000
,
0001
0001
0000
0000
,
1000
0000
0000
0000
,
1000
0000
0000
0000
,
0001
0000
0000
0000
,
1000
0000
0000
0000
,
0010
0000
0000
0000
,
0010
0000
0000
0000
,
0100
0000
0000
0000
,
0010
0000
0000
0000
,
1000
1000
0000
0000
,
1000
1000
0000
0000
,
0001
0001
0000
0000
,
0001
0001
0000
0000
,
1000
1000
0000
0000
,
0010
0010
0000
0000
,
0001
0001
0000
0000
,
0100
0100
0000
0000
,
0001
0000
0000
0000
,
1000
0000
0000
0000
,
1000
1000
1000
1000
,
1000
1000
1000
0000
,
1000
0000
0000
0000
,
0001
0000
0000
0000
,
0001
0001
0001
0001
,
0001
0001
0001
0000
,
0001
0000
0000
0000
,
0100
0100
0000
0000
,
1000
0000
0000
0000
,
0100
0100
0000
0000
,
0100
0000
0000
0000
,
1000
1000
0000
0000
,
0100
0000
0000
0000
,
0001
0001
0000
0000
,
0010
0000
0010
0010
,
0000
0010
0010
0010
,
0000
0000
0000
0000
,
1000
1000
1000
1000
,
0000
0000
0000
0000
,
0000
0000
0010
0010
,
0000
0000
0000
0000
,
0000
0000
0010
0010
,
0000
0000
0000
0000
,
0000
0000
0001
0001
,
0000
0000
0000
0000
,
0000
0000
0100
0100
,
0000
0000
0000
0000
,
0010
0000
0000
0000
,
1000
0000
0000
0000
,
0010
0000
0000
0000
,
0001
0000
0000
0000
,
0010
0010
0000
0000
,
0010
0010
0000
0000
,
0010
0010
0000
0000
,
0010
0010
0000
0000
,
1000
1000
0000
0000
,
0010
0000
0000
0000
,
0001
0001
0000
0000
,
0010
0000
0000
0000
,
1000
1000
0000
0000
,
0100
0000
0000
0000
,
0001
0001
0000
0000
,
0100
0000
0000
0000
,
0100
0100
0000
0000
,
0010
0010
0000
0000
,
0100
0100
0000
0000
,
0010
0010
0000
0000
,
0001
0001
0000
0000
,
0001
0001
0000
0000
,
1000
1000
1000
0000
,
1000
0000
1000
0000
,
0000
0000
0000
0000
;

//---------------dance-single - ----------------
#NOTES:
     dance-single:
     :
     Easy:
     8:
     :
0000
0000
0000
0000
,
0000
0000
0000
0000
,
0000
0000
0000
0000
,
0000
0000
0000
0000
,
0000
0000
0000
0000
,
0000
0000
0000
0000
,
0000
0000
0000
0000
,
0000
0010
0001
0100
,
0000
1000
0000
1000
,
0001
1000
0010
0100
,
0001
1000
0010
0100
,
1001
0010
0100
0001
,
1001
0100
0010
1001
,
0001
1000
0010
0110
,
0001
0010
1000
1001
,
0100
0000
0100
0000
0010
1000
0001
0000
,
0001
1000
0100
0000
0010
0000
0010
0000
,
1001
1001
1100
1100
,
0001
0100
1000
0100
,
0001
0001
1000
1000
,
0100
0100
1001
1001
,
0100
0010
1000
1000
,
0010
0100
0001
0001
,
1001
0110
0110
1001
,
0110
0110
1001
0000
,
1001
1001
1001
1001
,
0100
0100
0100
0100
,
0010
0001
0010
0001
,
0100
1000
0100
1000
,
0001
0001
1000
1000
,
1001
1001
0100
0100
,
1000
0100
0001
0010
,
1000
0100
0010
0000
,
0010
0001
0001
0100
,
0001
0100
0100
1000
,
0100
1000
1000
0010
,
1000
0010
0010
0001
,
0010
0001
0001
0100
,
0001
0100
0100
1000
,
0100
1000
1000
0010
,
1000
0010
0010
0001
,
0010
0000
0001
0001
,
0000
1000
1000
1000
,
0100
0000
0000
0100
0000
0000
0000
0100
,
0000
1000
0000
1000
0000
0001
0000
0001
,
0000
0100
0000
0000
1000
0000
0000
0100
,
0000
0000
0001
0000
0000
1000
1000
0001
,
0001
0000
0000
0100
0000
0000
1000
0000
,
0001
0000
0000
0001
0001
1000
1000
0001
,
0000
0100
0000
0000
1000
0000
0000
0100
,
0000
0000
0001
0000
0000
1000
0001
1000
,
0000
1000
0000
0000
0010
0000
0000
0001
,
0000
0000
0100
0000
0000
1000
0001
1000
,
0000
0000
0000
0000
,
1001
0100
0001
0100
,
1001
0100
1000
1000
,
0001
0100
0010
1000
,
0010
0100
0010
0100
,
1000
0001
0010
0100
,
1001
1000
0001
1000
,
0110
0001
0110
1000
,
0100
0100
0110
0000
,
0010
0001
1001
1000
,
0100
1000
1001
0001
,
1000
0001
1001
0100
,
0001
0001
1000
1000
,
0010
1000
0010
0000
0001
0000
0001
0000
,
0100
0100
1010
0101
,
0010
0010
0100
0100
,
0001
0000
0001
0000
1000
0001
1000
0000
,
0010
0100
0010
0000
0100
0010
0100
0000
,
0001
1000
0001
1001
,
1000
1000
1000
0000
0001
0001
0001
0000
,
1000
0001
1000
0001
1000
0001
0100
0000
,
1100
1100
1001
0101
,
1010
1010
1001
0011
,
0010
0100
1000
0001
,
0001
0100
1000
0000
1001
0000
0000
0000
,
0000
0000
0000
0000
;

//---------------dance-single - ----------------
#NOTES:
     dance-single:
     :
     Medium:
     10:
     :
0000
0000
0000
0000
,
0000
0000
0000
0000
,
0000
0000
0000
0000
,
0000
0000
0000
0000
,
0000
0000
0000
0000
,
0000
0000
0000
0000
,
0000
0000
0000
0000
,
0000
0010
0001
1000
,
0000
0100
0000
0100
,
1000
1000
0100
0100
,
0001
0001
0100
0100
,
0010
0000
0010
0000
1000
0100
0001
0000
,
0100
0000
1000
0000
0001
0100
1000
0000
,
1000
0001
1000
0000
0110
0000
1001
0000
,
0001
1000
0001
0001
,
0001
1000
0001
0000
1001
0000
0110
0000
,
1000
0001
1000
0100
,
0001
0100
0010
1100
,
0001
0100
0010
1100
,
0001
0100
0010
1100
,
0001
0001
0010
0101
,
0010
1000
0010
0000
0001
0100
0001
0000
,
0100
0010
0100
0000
1010
0000
0101
0000
,
1000
1010
1000
1001
,
1000
0100
0010
0001
1000
0000
0000
0000
,
1001
0100
0100
0100
,
1001
0100
0100
0100
,
0010
0010
0001
0100
,
0010
0010
1000
0100
,
0001
0001
0100
0100
,
1000
1000
0100
0100
,
0110
1001
1100
1001
,
0101
1001
0110
0000
,
0010
1000
0100
0001
,
0010
1000
0100
0000
0010
0001
0100
0000
,
0010
0001
0100
1000
,
1000
0001
0100
0000
0001
1000
0100
0000
,
0100
1000
0010
0001
,
0010
0100
1000
0000
0010
0100
0001
0000
,
0100
0001
0010
1000
,
0010
1000
0001
0000
0010
0001
1000
0000
,
0010
0000
0001
0001
,
0000
1000
1000
1000
,
0100
0000
0000
1001
0000
0000
0000
0100
,
0000
1000
0000
1100
0000
0001
0000
0101
,
0000
1001
0000
0000
0010
0000
0000
0100
,
0000
0000
0001
0000
0000
0001
1000
0001
,
0100
0000
0000
0100
0000
0000
1001
0000
,
0110
0000
0000
1000
0001
1000
0001
0100
,
0000
0110
0000
0000
0010
0000
0000
1001
,
0000
0000
0100
0000
0000
0100
0010
0100
,
0000
1001
0000
0000
1000
0000
0000
0001
,
0000
0000
0100
0000
0000
0001
1000
0100
,
0000
0000
0000
0000
,
1000
0000
0100
0000
0010
0010
0010
0000
,
0001
0000
0100
0000
0010
0010
0010
0000
,
0010
1000
0001
0001
,
0010
0001
1000
1000
,
1000
0000
0100
0010
0001
0100
0010
0000
,
1000
0000
0100
0010
0001
0100
0010
0000
,
1000
0000
0100
0010
0001
0100
0010
0000
,
1000
0100
0001
0100
,
1000
0001
0100
0000
1010
0000
0001
0000
,
0010
0001
0100
0000
0110
0000
0100
0000
,
0001
0010
0100
0000
0011
0000
1000
0000
,
0100
0001
0010
1100
,
1000
0100
1000
0000
0001
0100
0001
0000
,
1000
0010
1000
0000
0001
0010
0001
0000
,
0001
0001
0100
0000
1000
1000
0100
0000
,
0001
0001
0100
0000
1000
1000
0100
0000
,
0100
1000
0100
0001
0100
1000
0100
0001
,
0100
1000
0100
0001
0100
1000
0100
0000
,
1000
0100
1000
0000
0001
0100
0001
0000
,
1000
0100
1000
0100
1000
0001
0100
0000
,
0101
1100
0001
0100
,
1000
0000
0100
0000
0001
0001
0100
0000
,
1000
0100
0010
0001
0100
0010
1000
0100
,
0011
0101
1001
0000
,
0000
0000
0000
0000
;

//---------------dance-single - ----------------
#NOTES:
     dance-single:
     :
     Hard:
     13:
     :
0000
0000
0000
0000
,
0000
0000
0000
0000
,
0000
0000
0000
0000
,
0000
0000
0000
0000
,
0000
0000
0000
0000
,
0000
0000
0000
0000
,
0000
0000
0000
0000
,
0001
0000
1000
0000
0010
1000
0100
0000
,
0010
0001
0100
0000
0010
1000
0100
0000
,
0001
0001
0100
0100
1000
0100
0010
0001
,
1000
1000
0100
0100
0010
0001
0100
0000
,
0010
1000
0100
0000
0010
0001
0100
0000
,
1000
0001
0100
0000
1000
0001
1000
0000
,
1000
0100
0010
0001
0100
0001
1000
0010
,
1000
0100
0010
0001
0100
0001
1000
0000
,
0100
0010
0100
1000
0100
0010
0100
1000
,
0100
0001
0100
1000
0100
0001
0100
0000
,
0010
1001
0100
1001
,
0100
0001
0100
0001
0100
0001
0100
0000
,
0010
0000
0001
0010
0100
1000
0100
0000
,
1000
0000
0010
0000
0001
1000
0100
0000
,
1010
0000
1010
0000
0100
1000
0100
0000
,
0010
0010
0100
0100
1100
0000
0011
0000
,
0010
0000
0010
0100
1000
0000
0010
1000
,
0001
0010
0100
1000
0001
0000
1001
0000
,
1001
0000
0101
0000
0010
0001
0100
0000
,
1001
0000
1100
0000
0010
1000
0100
0000
,
0010
1000
0010
0000
0100
0001
0100
0000
,
0010
1000
0010
1000
0001
0100
0001
0000
,
1000
0100
1000
0100
0100
1000
0010
0100
,
0001
0001
1000
0100
0100
0100
1000
0000
,
0100
0010
0001
0100
0010
0100
0001
0010
,
0100
0010
0001
0100
0001
0000
0000
0000
,
0010
1000
0100
1000
0100
0010
0001
0010
,
0001
0100
0010
0100
0010
1000
0100
1000
,
0010
1000
0001
0010
0001
1000
0100
0010
,
0001
0100
0010
1000
0001
0100
1000
0100
,
0010
0100
0001
0010
0100
1000
0010
0100
,
0001
1000
0100
0010
0001
0100
0010
1000
,
0100
0001
0100
1000
0100
0010
0001
0010
,
1000
0010
0001
1000
0010
1000
0001
0000
,
0010
0000
0001
0001
,
0000
1000
1000
1000
,
0010
0000
0000
1000
0000
0000
0000
0100
,
0000
0010
0000
0001
0000
0100
0000
0010
,
0000
1000
0000
0000
0100
0000
0000
0001
,
0000
0000
0010
0000
0000
0100
0100
0010
,
0010
0000
0000
1000
0000
0000
0100
0000
,
1000
0000
0000
0001
0001
1000
0100
0100
,
0000
0001
0000
0000
0010
0000
0000
1000
,
0000
0000
0100
0000
0000
0010
0100
0100
,
0000
0001
0000
0000
0100
0000
0000
1000
,
0000
0000
0010
0000
0000
0100
0100
0100
,
0000
0000
0000
0000
,
1000
0100
1000
0001
0100
0010
0100
0000
,
0001
0010
0001
0100
0010
1000
0100
0000
,
0010
1000
0010
0100
0010
0001
0010
0100
,
0010
1000
0010
0100
0010
0001
0010
0000
,
1000
0001
0100
0010
1000
0001
0100
0010
,
1000
0001
0100
0010
1000
0001
0100
0000
,
0001
0001
1000
0001
0001
0001
1000
0001
,
0001
0001
1000
0001
1000
1000
0001
0000
,
0010
0100
0001
0100
0010
0100
0001
0100
,
1000
0010
0001
0010
1000
0010
0001
0000
,
1000
0100
1000
0100
0010
0100
0010
0100
,
0001
0100
0001
0100
0010
0100
0010
0000
,
0100
1000
0010
0001
0010
1000
0100
0001
,
0100
1000
0100
0010
0001
0100
0010
0000
,
0001
0001
1000
0000
0010
1000
0001
0000
,
1000
0010
0100
0001
0100
0100
0001
0000
,
1000
0100
0010
0001
1000
0100
0010
0000
,
0001
0010
0100
1000
0001
0010
0100
0000
,
1000
0010
1000
0010
1000
0100
1000
0000
,
1000
0000
0100
0000
0001
0100
1000
0000
,
0011
0000
1010
0000
0001
0010
1000
0000
,
1100
0000
0101
0000
1000
0100
0001
0000
,
0001
0001
1000
0000
0001
1000
1000
0000
,
1000
0001
0100
0000
1000
0000
0000
0000
,
0000
0000
0000
0000
;

//---------------dance-single - ----------------
#NOTES:
     dance-single:
     :
     Challenge:
     16:
     :
0000
0000
0000
0000
,
0000
0000
0000
0000
,
0000
0000
0000
0000
,
0000
0000
0000
0000
,
0000
0000
0000
0000
,
0000
0000
0000
0000
,
0000
0000
0000
0000
,
1000
0001
0010
1100
0000
0100
0100
0000
,
1000
0010
1000
0000
0001
0000
0100
0010
0100
0000
0001
1000
0001
0000
0100
0000
,
0010
0000
0000
0000
1001
0000
0100
0000
0001
0000
0010
0000
1000
0000
0010
0001
,
0100
0000
0010
0000
1000
0000
0100
0010
0001
0000
0100
0000
0001
0000
1000
0000
,
0010
0000
1000
0000
0100
0000
0011
0000
0000
0001
0100
0000
0010
0000
1000
0001
,
0100
0010
0001
0010
1000
0001
0100
0110
,
0000
0000
0110
0000
0110
0000
0110
0000
1000
0000
0100
0000
0010
0000
0001
1000
,
0001
0000
0100
0000
0010
0000
0001
0010
1000
0000
0100
0000
1000
0000
0001
0000
,
0010
0000
0001
0000
0100
0000
1010
0000
0000
1000
0001
0000
0010
0000
0011
0000
,
0011
0000
0001
0100
1000
0000
0010
1000
0100
0000
0010
0001
1000
0000
0100
0010
,
0001
0000
1001
0000
1001
0000
0010
1000
0100
0000
0010
0001
1000
0000
0100
0000
,
0010
0000
0001
0000
1000
0000
0100
0010
0001
0000
0100
0000
1000
0000
0010
0000
,
1000
0000
0001
0000
0100
0000
1010
0000
0000
0001
1000
0000
0010
0000
0100
0000
,
0001
0000
0010
0001
0100
0000
0010
0000
1000
0000
0001
0000
1000
0000
0101
0000
,
0000
0000
0101
0000
0101
0000
0010
1000
0001
0000
0010
0000
0100
0000
1000
0001
,
1000
0000
0010
0000
0100
0000
0001
0010
0001
0000
1000
0000
0010
0000
0100
0001
,
0100
0000
0010
0000
0001
0000
0010
0000
1000
0000
0100
0000
1000
0001
0100
0000
,
0010
1000
0010
0000
0001
0100
0001
0000
0010
1000
0010
0000
0100
0001
1000
0001
,
0100
0011
0100
0010
1000
0100
0001
0100
,
0010
1000
0010
0100
0010
0001
0100
1010
,
1001
1001
0001
0011
0011
1000
0100
0110
,
0110
0000
0001
0000
1000
0000
1010
0000
0001
0000
0100
0000
1000
0001
1000
0001
,
1000
0000
0011
0000
0100
0000
0001
0010
0001
0000
0100
0000
0010
0000
1000
0000
,
0100
0000
0001
0010
0001
0000
1000
0010
1000
0000
0001
0100
0010
0000
1000
0000
,
0100
1010
0001
0100
1000
0100
0001
0100
,
1000
0000
0100
0000
0001
0000
1000
0000
0100
0000
0000
0000
0010
0001
0010
0001
,
0100
0100
0010
1000
0100
0001
0100
0010
,
1000
0010
0001
0100
0010
0001
0010
1000
,
0100
0001
0100
0010
0100
1000
0010
0100
,
0001
1000
1000
1000
0010
1000
0100
0010
,
1000
1000
0010
0001
0100
0010
0001
0010
,
1000
0001
1000
0100
0010
1000
0010
0100
,
0010
0001
0100
1000
0100
0001
0010
0100
,
1000
0001
0100
0001
1000
0000
0010
0100
0001
0000
0010
0100
1000
0000
0001
0000
,
1100
0000
0000
0000
0002
0103
0002
0103
,
0000
0000
0020
1030
0020
0031
0020
1030
,
0102
1003
0000
0100
0102
1003
0000
0110
,
1000
0000
0110
0000
0010
1000
0001
0000
0010
0001
1000
0000
0010
0100
0001
1000
,
0100
0020
0032
2003
3020
0032
0023
0230
,
0320
2030
3100
0011
0000
0011
0000
0011
,
0000
2000
3200
0302
0203
0320
0230
2300
,
3020
0000
0230
0000
0301
0000
1010
0000
0000
0000
1000
0100
1000
0000
0001
0000
,
0000
0020
0032
0203
2300
3200
0320
0230
,
0302
0000
2003
0000
3010
1000
0001
0000
0000
0000
1001
0000
0000
0000
1001
0000
,
0000
0010
0002
0000
0203
0000
0320
0000
0032
0000
0023
0000
2030
0000
3002
0000
,
0203
0320
2030
3001
0010
0100
0010
0100
,
0000
1100
1100
1100
1100
0000
0101
0000
,
1001
0000
0010
0000
1000
0000
0100
0000
0001
0000
0100
0000
0010
0000
0001
1000
,
0100
0000
0010
0000
0001
0000
2000
0000
3010
0000
1000
0100
0002
0000
0013
0000
,
0100
1000
0001
0000
0010
0000
1000
0000
0010
0000
0100
0000
0010
0000
0001
1000
,
0001
1010
1010
1010
1010
0100
0101
0001
,
0011
0000
1000
0000
0100
0000
0010
0000
0001
0100
1000
0000
0010
0000
0100
0000
,
0110
0000
0001
0000
0010
0000
0100
1000
0001
0000
0100
0000
0010
1000
0001
0000
,
1001
0000
0100
0000
0010
1000
0010
0000
0100
0000
0001
0000
0010
0100
1000
0000
,
1100
0000
0001
0100
0001
0000
1000
0100
1000
0000
0010
0100
0010
0100
0010
0100
,
0001
0001
0010
1000
0010
0100
0010
0001
,
0100
1000
0100
0101
0001
0010
1100
0001
,
1000
1000
0020
0130
0001
0020
1030
0010
,
0002
0103
1000
0002
0013
1000
0200
0310
,
0100
0000
0100
0000
1000
0001
1000
0000
0001
1000
0001
0000
1000
0001
1000
0000
,
0010
0000
0100
0001
1000
0000
0110
0000
0010
0000
0100
0001
2000
0000
0000
0000
,
3010
0000
0010
0000
1000
0100
1000
0000
0001
0100
0001
0000
1000
0001
1000
0000
,
1100
0001
0100
0011
1000
0010
0110
0000
,
0001
0001
0010
1000
0010
0100
0010
1000
,
0010
0100
0010
0011
0001
0100
1001
0000
,
1000
0100
0001
0100
0010
1000
0010
0001
,
0100
0010
1000
0000
0001
0000
0100
0000
0010
1000
0001
0000
1000
0000
0100
0000
,
0010
0001
0010
0000
0100
0000
1000
0000
0001
0100
0001
0000
1000
0000
0010
0000
,
1000
0100
1000
0000
0010
0000
0100
0000
0001
0010
0001
0000
1000
0000
0001
0000
,
0100
0010
1000
0000
0100
0010
0001
0000
1000
0001
0010
0000
0001
1000
0100
0000
,
1000
0100
0010
0001
0010
0100
1000
0000
0110
0000
0000
0000
0000
0000
0000
0000
;

//---------------dance-double - ----------------
#NOTES:
     dance-double:
     :
     Easy:
     9:
     :
00000000
00000000
00000000
00000000
,
00000000
00000000
00000000
00000000
,
00000000
00000000
00000000
00000000
,
00000000
00000000
00000000
00000000
,
00000000
00000000
00000000
00000000
,
00000000
00000000
00000000
00000000
,
00000000
00000000
00000000
00000000
,
00000000
00010000
00010000
00010000
,
00000000
01000000
00000000
10000000
,
00100000
00010000
00100000
00010000
,
00100000
00010000
00100000
00010000
,
00100000
01000000
00100000
01000000
,
00100000
10000000
00100000
10000000
,
00100000
00010000
00100000
10000000
,
00100000
00010000
00100000
10000000
,
01000000
00010000
00001000
00000100
,
00000010
00000001
00000010
00000001
,
00000010
00000010
00000010
00000010
,
00001000
00001000
00000100
00000100
,
00000010
00001000
00000100
00001000
,
00000010
00001000
00000100
00001000
,
00000010
00000100
00000010
00000100
,
00000001
00000100
00000001
00000100
,
00000010
00001000
00000100
00000001
,
00000100
00001000
00010000
00000000
,
01001000
00011000
00010100
00011000
,
01001000
01001000
00011000
01001000
,
00010000
00010000
00100000
10000000
,
01000000
00010000
01000000
10000000
,
10000000
10000000
10000000
10000000
,
10000000
01000000
00010000
00001000
,
00010010
00011000
00101000
00011000
,
00000100
00000001
00000010
00001001
,
00000010
00001000
00000010
00001000
,
00000001
00000001
00000001
00000001
,
00000010
00000100
00000010
00000100
,
00001000
00001000
00001000
00001000
,
00010000
00001000
00010000
00001000
,
01000000
01000000
01000000
01000000
,
00100000
10000000
00100000
10000000
,
00010000
00010000
00010000
00010000
,
00100000
00000000
00010000
00010000
,
00000000
10000000
10000000
10000000
,
01000000
00000000
00000000
10000000
00000000
00000000
00000000
00010000
,
00000000
00010000
00000000
00010000
00000000
00100000
00000000
00100000
,
00000000
00010000
00000000
00000000
01000000
00000000
00000000
01000000
,
00000000
10000000
00000000
00000000
,
10000000
00000000
00000000
01000000
00000000
00000000
00010000
00000000
,
00001000
00000000
00000000
00000000
,
00000000
00010000
00000000
00000000
00001000
00000000
00000000
00000100
,
00000000
00000001
00000000
00000000
,
00000000
00001000
00000000
00000000
00000100
00000000
00000000
00000100
,
00000000
00000001
00000000
00000000
,
00000000
00000010
00000010
00000001
00000100
00000000
00000100
00000000
,
00000001
00000100
00001000
00000000
00010000
00000000
01000000
00000000
,
10000000
10000000
01000000
01000000
,
10000000
01000000
00010000
00000000
00001000
00000000
00000100
00000000
,
00000001
00000001
00000100
00001000
,
00000100
00001000
00010000
00000000
01000000
00000000
10000000
00000000
,
01000000
00010000
00001000
00000000
00000100
00000000
00000001
00000000
,
00000100
00001000
00010000
00000000
01000000
00000000
10000000
00000000
,
01000000
00010000
00001000
00000000
00000100
00000000
00000001
00000000
,
00000001
00000100
00000001
00000000
00001000
00000100
00001000
00000000
,
00000001
00000001
00001000
00001000
,
00000001
00000100
00000001
00000000
00001000
00000100
00001000
00000000
,
00001001
00011000
00011000
10010000
,
00010000
01000000
00010000
00000000
10000000
01000000
10000000
00000000
,
00010000
00010000
10000000
10000000
,
00010000
01000000
00010000
00000000
10000000
01000000
10000000
00000000
,
11000000
01010000
11000000
01010000
,
10000000
01000000
00010000
00000000
00010000
00000000
10000000
00000000
,
10000000
01000000
00010000
00000000
00001000
00000000
00000100
00000000
,
00000001
00000100
00001000
00000000
00001000
00000000
00000001
00000000
,
00000001
00000100
00001000
00000000
00010000
00000000
01000000
00000000
,
00100000
00010000
01000000
00000000
00100000
00000000
01000000
00000000
,
10000000
01000000
00010000
00000000
00001000
00000000
00000100
00000000
,
00001001
00000101
00001000
00001100
,
00000011
00001000
00000100
00000000
,
00000000
00000000
00000000
00000000
;

//---------------dance-double - ----------------
#NOTES:
     dance-double:
     :
     Medium:
     11:
     :
00000000
00000000
00000000
00000000
,
00000000
00000000
00000000
00000000
,
00000000
00000000
00000000
00000000
,
00000000
00000000
00000000
00000000
,
00000000
00000000
00000000
00000000
,
00000000
00000000
00000000
00000000
,
00000000
00000000
00000000
00000000
,
00000000
10000000
10000000
00100000
,
00000000
00010000
00000000
00010000
,
00100000
10000000
01000000
00010000
,
00100000
00010000
00001000
00000000
00010010
00000000
00011000
00000000
,
00000100
00000000
00000001
00000000
00000010
00010000
00001000
00000000
,
00010000
00100000
10000000
00000000
00100000
00010000
00001000
00000000
,
01001000
01010000
00010000
10000000
,
00100000
01000000
00001000
00000000
00011000
00000000
00000100
00000000
,
00000110
00000000
00000001
00000000
00000010
00001000
00000100
00000000
,
00000010
00010000
00001000
00000000
00100000
00001000
00010000
00000000
,
00110000
10000000
01000000
00010000
,
00001000
00000100
00000001
00000000
00000100
00000000
00001010
00000000
,
00001100
00000000
00000001
00000000
00000010
00001000
00010000
00000000
,
00100000
00010000
00001000
00000000
00010000
01000000
10000000
00000000
,
10000000
00100000
00010000
01000000
,
10000000
01000000
00010000
00000000
10010000
00000000
00011000
00000000
,
00011000
00000000
00001001
00000000
00001000
00000100
00000010
00000000
,
00000001
00000100
00001000
00000000
00010000
00000000
00000000
00000000
,
01001000
01010000
01001000
00011000
,
00010100
00001100
00010100
00011000
,
01000000
10000000
00010000
00001000
,
00000100
00000001
00001000
00010000
,
00101000
00110000
00101000
00011000
,
00000010
00000001
00001000
00010000
,
00010010
00001010
00010010
00011000
,
00100000
10000000
01000000
10010000
,
00100000
00010000
10000000
00010000
01000000
00010000
01000000
00000000
,
10100000
00010000
01000000
00010000
,
00100000
10000000
00010000
10000000
01000000
10000000
01000000
00000000
,
00010000
00001000
00000100
00000001
,
00000010
00001000
00000001
00001000
00000100
00001000
00000100
00000000
,
00000101
00000010
00001100
00000001
,
00000010
00000001
00001000
00000001
00000100
00000001
00000100
00000000
,
00000010
00001000
00010000
01000000
,
00100000
00000000
00010000
00010000
,
00000000
10000000
10000000
10000000
,
00100000
00000000
00000000
01000000
00000000
00000000
00000000
00010000
,
00000000
00001000
00000000
00000100
00000000
00000001
00000000
00000001
,
00000000
00001000
00000000
00000000
00001100
00000000
00000000
00010100
,
00000000
00000000
01000000
00000000
00000000
10000000
10000000
00010000
,
00010000
00000000
00000000
10000000
00000000
00000000
01000000
00000000
,
00010000
00000000
00000000
00000100
00001000
00000100
00001000
00000100
,
00000000
00000001
00000000
00000000
00000101
00000000
00000000
00001000
,
00000000
00000000
00001100
00000000
00000000
00000001
00000100
00001000
,
00000000
00010000
00000000
00000000
00010000
00000000
00000000
01000000
,
00000000
00000000
10000000
00000000
00000000
00100000
00010000
10000000
,
00000000
10000000
01000000
00010000
01000000
00000000
10000000
00000000
,
00010000
00001000
00000100
00000000
00000110
00000000
00000001
00000000
,
00001000
00001100
00000001
00000101
,
00001000
00010000
01000000
00000000
01100000
00000000
10000000
00000000
,
00010000
01010000
10000000
11000000
,
00010000
00001000
00000100
00000000
00000110
00000000
00000001
00000000
,
00001000
00010000
01000000
00000000
01100000
00000000
10000000
00000000
,
00010000
00001000
00000100
00000000
00000110
00000000
00000001
00000000
,
00001000
00010000
01000000
00000000
01100000
00000000
10000000
00000000
,
00100000
10000000
00010000
00000000
11000000
00000000
00010000
00000000
,
00001000
00000100
00000001
00001100
,
00000010
00000001
00001000
00000000
00000101
00000000
00001000
00000000
,
00010000
01000000
10000000
01010000
,
00100000
10000000
01000000
00000000
00010000
00000000
00010000
00000000
,
10100000
00010000
01000000
10000000
,
00100000
00010000
01000000
00000000
10010000
00000000
01000000
00000000
,
00100000
10000000
00100000
01000000
,
00010000
10000000
01000000
00000000
00010000
00000000
00001000
00000000
,
00000100
00000001
00001000
00000000
00000100
00001000
00000001
00000000
,
00000010
00000100
00000001
00000000
00001000
00000000
00010000
00000000
,
01000000
10000000
00100000
00000000
10000000
01000000
00010000
00000000
,
00001000
00000100
00000001
00000000
00000010
00000000
00001000
00000000
,
00000001
00000100
00000001
00000000
00001000
00000100
00001000
00000000
,
00010100
00011000
01001000
00011000
,
01000000
10000000
10000000
00000000
,
00000000
00000000
00000000
00000000
;

//---------------dance-double - ----------------
#NOTES:
     dance-double:
     :
     Hard:
     13:
     :
00000000
00000000
00000000
00000000
,
00000000
00000000
00000000
00000000
,
00000000
00000000
00000000
00000000
,
00000000
00000000
00000000
00000000
,
00000000
00000000
00000000
00000000
,
00000000
00000000
00000000
00000000
,
00000000
00000000
00000000
00000000
,
00010000
00000000
00001000
00000000
00010000
01000000
10000000
00000000
,
00100000
00001000
00010000
01000000
10000000
00010000
01000000
00000000
,
10000000
01000000
10000000
00010000
01000000
00001000
00010000
00000000
,
00100000
00010000
00001000
00010000
00001000
00000100
00000001
00000000
,
00001000
00000100
00001000
00000010
00000100
00001000
00010000
00000000
,
00010000
00000010
00001000
00000010
00000100
00000010
00000001
00000000
,
00000001
00000010
00000001
00000010
00001000
00000100
00001000
00000000
,
00000100
00010000
00001000
00010000
00000010
00010000
00001000
00000000
,
00010000
01000000
10000000
01000000
10000000
00100000
01000000
00000000
,
10000000
01000000
00010000
00001000
00000100
00001000
00010000
00000000
,
00100000
00001000
00010000
00001000
00000100
00000010
00010000
00000000
,
00001000
00000100
00000001
00001000
00000010
00000100
00000001
00000000
,
00001000
00000001
00000100
00000010
00010000
00001000
01000000
00000000
,
00010000
01000000
00010000
10000000
00100000
01000000
00001000
00000000
,
00010000
00001000
00000100
00000010
00010000
00001000
00010000
00000000
,
00100000
00010000
00100000
10000000
01000000
00010000
01000000
00000000
,
00010000
00001000
01000000
00010000
10000000
01000000
00010000
00000000
,
01000000
10000000
00100000
10000000
01000000
00000000
00000000
00000000
,
00010000
01000000
00010000
00000000
00001000
00010000
00001000
00000000
,
00001000
00000100
00001000
00000000
00010000
00001000
00010000
00000000
,
00110000
10000000
01000000
00010000
,
00001000
00000100
00001000
00010000
,
00010000
01000000
00010000
00000000
00001000
00010000
00001000
00000000
,
00001100
00000010
00010010
00001000
,
00001000
00000100
00001000
00000000
00010000
00001000
00010000
00000000
,
01010000
10010000
11000000
10010000
,
00100000
10000000
00010000
01000000
00100000
00010000
00001000
00000000
,
00000100
00000001
00001000
00000100
00000010
00000001
00001000
00000000
,
00000010
00001000
00000100
00000010
00001000
00010000
00100000
00000000
,
10000000
00100000
00010000
00100000
01000000
00010000
01000000
00000000
,
00100000
10000000
00100000
00010000
00100000
00010000
00001000
00000000
,
00000100
00001000
00010000
01000000
00010000
00001000
00000100
00000000
,
00000010
00001000
00000100
00000010
00001000
00010000
00001000
00000000
,
01000000
10000000
00100000
00010000
00100000
10000000
01000000
00000000
,
00100000
00000000
00010000
00010000
,
00000000
10000000
10000000
10000000
,
00100000
00000000
00000000
01000000
00000000
00000000
00000000
00010000
,
00000000
00010000
00000000
10000000
00000000
10000000
00000000
01000000
,
00000000
00010000
00000000
00000000
00001000
00000000
00000000
00000100
,
00000000
00000000
00001000
00000000
00000000
00010000
01000000
00100000
,
01000000
00000000
00000000
10000000
00000000
00000000
01000000
00000000
,
00010000
00000000
00000000
00001000
00000100
00000010
00000100
00000010
,
00000000
00000110
00000000
00000000
00001000
00000000
00000000
00010000
,
00000000
00000000
01000000
00000000
00000000
10000000
01000000
00010000
,
00000000
00100000
00000000
00000000
01000000
00000000
00000000
11000000
,
00000000
00000000
00010000
00000000
00000000
00001000
00000100
00000001
,
00000000
00001000
00000100
00000001
00000010
00000000
00001000
00000000
,
00000010
00000001
00000100
00000000
00000010
00001000
00010000
00000000
,
00001000
00010000
01000000
00000000
10000000
00010000
01000000
00000000
,
00100000
01000000
10000000
00000000
00010000
00100000
10000000
00000000
,
00010000
01000000
00100000
00000000
00010000
00001000
00000100
00000000
,
00000010
00001000
00000100
00000000
00000100
00010000
00001000
00000000
,
00010000
01000000
10000000
00000000
00100000
00010000
00001000
00000000
,
00010000
01000000
10000000
00000000
00100000
00001000
00010000
00000000
,
00010000
00001000
00000100
00000000
00000010
00001000
00000100
00000000
,
00000001
00000100
00001000
00000000
00010000
01000000
10000000
00000000
,
10000000
00010000
10000000
00000000
00100000
10000000
01000000
00000000
,
00010000
00001000
00010000
00000000
00010000
00000100
00001000
00000000
,
00001000
00000100
00000001
00000000
00000001
00000100
00001000
00000000
,
00000001
00000010
00001000
00010000
00000010
00000100
00000010
00000000
,
00000001
00000100
00001000
00010000
00001000
01000000
00010000
00000000
,
00100000
00010000
01000000
00010000
10000000
01000000
00100000
00000000
,
10000000
00010000
01000000
00100000
10000000
01000000
10000000
00000000
,
00100000
10000000
01000000
00100000
00001000
00010000
01000000
10000000
,
00100000
00010000
00001000
00010000
00000100
00001000
00000100
00000001
,
00000100
00000010
00000001
00000100
00001000
00010000
01000000
00100000
,
00001000
00010000
01000000
00010000
00001000
00000100
00000001
00000000
,
00000010
00000100
00001000
00000010
00000100
00000001
00000100
00001000
,
00010000
01000000
10000000
00100000
01000000
00010000
00100000
01000000
,
00010000
00001000
00000100
00000010
00000001
00000010
00001000
00000000
,
00000101
00001000
00000100
00000000
,
00000000
00000000
00000000
00000000
;

//---------------dance-couple - ----------------
#NOTES:
     dance-couple:
     :
     Medium:
     1:
     :
00000000
00000000
00000000
00000000
,
00000000
00000000
00000000
00000000
,
00000000
00000000
00000000
00000000
,
00000000
00000000
00000000
00000000
,
00000000
00000000
00000000
00000000
,
00000000
00000000
00000000
00000000
,
00000000
00000000
00000000
00000000
,
00000000
00100010
00010001
01000100
,
00000000
10001000
00000000
10001000
,
11000000
00000000
00010001
00000000
00010000
10000000
01000001
00000000
,
11000000
00000000
00010001
00000000
00010000
10000000
01000001
00000000
,
00001100
00000000
10000001
00000000
00000001
00001000
10000100
00000000
,
00001100
00000000
10000001
00000000
00000001
00001000
10000100
00000000
,
10010000
00001001
10001000
01000100
,
00010001
01000100
10001000
01000100
,
00010001
10001000
01000100
00100010
,
00010001
00010001
00010001
00010001
,
01010101
00100010
10001000
11001100
,
10000000
00010000
01000000
10010000
,
00001000
00000001
00000100
00001001
,
10001000
00010001
01000100
01000100
,
00001001
10010000
01000100
01000100
,
01000000
00100000
01000000
00000000
10100000
00000000
01010000
00000000
,
00000100
00000010
00000100
00000000
00001010
00000000
00000101
00000000
,
10010000
00001001
00011000
00000000
,
10010000
01000000
01000000
01000000
,
00001001
00000100
00000100
00000100
,
00100000
10000000
00100000
10000000
00010000
01000000
00010000
00000000
,
00000010
00001000
00000010
00001000
00000001
00000100
00000001
00000000
,
00010000
00010000
01000000
01000000
,
00000001
00000001
00000100
00000100
,
10000000
01000000
00001000
00000100
,
10010000
00001001
00011000
00000000
,
00100000
10000000
01000000
10000000
01000000
00100000
00010001
00100000
,
00010000
01000000
00100000
01000000
00100000
10000000
01000001
10000000
,
00100000
10000000
00010000
00100000
00010000
10000000
01000001
00100000
,
00010000
01000000
00100000
10000000
00010000
01000000
10000001
00000000
,
00000010
00001000
00000100
00001000
00000100
00000010
10000001
00000010
,
00000001
00000100
00000010
00000100
00000010
00001000
10000100
00001000
,
00000010
00001000
00000001
00000010
00000001
00001000
10000100
00000010
,
00000001
00000100
00000010
00001000
00000001
00000100
10001000
00000000
,
00011000
00000000
10010000
00001001
,
00000000
00011000
00011000
00011000
,
01000100
00000000
00000000
10001000
00000000
00000000
00000000
01000100
,
00000000
00100010
00000000
00010001
00000000
01000100
00000000
00100010
,
00000000
10001000
00000000
00000000
00100010
00000000
00000000
01000100
,
00000000
00000000
00010001
00000000
00000000
00010001
10001000
00010001
,
01000100
00000000
00000000
01000100
00000000
00000000
10011001
00000000
,
01100110
00000000
00000000
10001000
00010001
10001000
00010001
01000100
,
00000000
01100110
00000000
00000000
00100010
00000000
00000000
10011001
,
00000000
00000000
01000100
00000000
00000000
01000100
00100010
01000100
,
00000000
10011001
00000000
00000000
01000100
00000000
00000000
01000100
,
00000000
00000000
01000100
00000000
00000000
00010001
10001000
01000100
,
00000000
00000000
00000000
00000000
,
00001000
00000100
10001000
00000001
00000100
00000010
10000100
00000000
,
00000001
00000010
10000001
00000100
00000010
00001000
10000100
00000000
,
10000000
01000000
10000001
00010000
01000000
00100000
01000001
00000000
,
00010000
00100000
00010001
01000000
00100000
10000000
01000001
00000000
,
00001000
00000000
00000100
00000010
00000001
00000100
00000010
00000000
,
10000000
00000000
01000000
00100000
00010000
01000000
00100000
00000000
,
00000001
00000000
00000100
00000010
00001000
00000100
00000010
00000000
,
00010000
00000000
01000000
00100000
10000000
01000000
00100000
00000000
,
00001000
00000001
00000100
00000000
00001010
00000000
10000001
00000000
,
00000010
00000001
00000100
00000000
00000110
00000000
10001000
00000000
,
00000001
00000010
00000100
00000000
00000011
00000000
10001000
00000000
,
00000100
00001000
00000001
00000000
00001100
00000000
10000010
00000000
,
10000000
00010000
01000000
00000000
10100000
00000000
00010001
00000000
,
00100000
00010000
01000000
00000000
01100000
00000000
10000001
00000000
,
00010000
00100000
01000000
00000000
00110000
00000000
10000001
00000000
,
01000000
10000000
00010000
00000000
11000000
00000000
00100001
00000000
,
00001000
00000100
00000010
00000001
00001000
00000100
00000010
00000000
,
00000001
00000010
00000100
00001000
00000001
00000010
00000100
00000000
,
10000000
01000000
00100000
00010000
10000000
01000000
00100000
00000000
,
00010000
00100000
01000000
10000000
00010000
00100000
01000000
00000000
,
00000011
00000000
00001010
00000000
00000001
00000100
00001000
00000000
,
00110000
00000000
10100000
00000000
00010000
01000000
10000000
00000000
,
10010000
00001001
00010000
00001000
,
00100010
00011000
01000100
00000000
00100010
00000000
00000000
00000000
;

//---------------dance-solo - ----------------
#NOTES:
     dance-solo:
     :
     Easy:
     6:
     :
000000
000000
000000
000000
,
000000
000000
000000
000000
,
000000
000000
000000
000000
,
000000
000000
000000
000000
,
000000
000000
000000
000000
,
000000
000000
000000
000000
,
000000
000000
000000
000000
,
000000
000100
010000
001000
,
000000
000010
000000
000010
,
100000
000100
001000
000001
,
010000
000010
001000
000100
,
100000
000100
010000
000100
,
000001
001000
000100
010010
,
000010
010000
000100
001100
,
000001
000100
100000
100001
,
001000
000000
001000
000000
000010
000100
000001
000000
,
000001
000100
000010
000000
100000
000000
100000
000000
,
001100
001100
010100
000110
,
100000
001000
010000
001000
,
000010
000010
000001
000001
,
001000
001000
010001
100010
,
001000
000100
010000
010000
,
001000
000100
100000
100000
,
100001
001100
001100
100001
,
001100
001100
100001
000000
,
100010
100010
010001
010001
,
001000
001000
001000
001000
,
000100
000010
000100
000001
,
001000
010000
001000
100000
,
000001
000001
100000
100000
,
100001
100001
001000
001000
,
000001
001000
000010
000100
,
100000
001000
010000
000100
,
100000
000010
000010
001000
,
000100
100000
100000
000010
,
001000
000100
000100
010000
,
000001
001000
001000
000010
,
100000
010000
010000
001000
,
000010
100000
100000
000001
,
001000
000001
000001
000010
,
100000
001000
001000
010000
,
000100
000000
000001
000001
,
000000
010000
010000
010000
,
100000
000000
000000
001000
000000
000000
000000
001000
,
000000
010000
000000
010000
000000
000001
000000
000001
,
000000
001000
000000
000000
010000
000000
000000
001000
,
000000
000000
000010
000000
000000
100000
100000
000001
,
000001
000000
000000
001000
000000
000000
010000
000000
,
000010
000000
000000
001000
001000
000000
000000
000100
,
000100
001000
000000
000000
000001
000000
000000
100000
,
000000
000000
000010
000000
000000
001000
000010
001000
,
000000
001000
000000
000000
000100
000000
000000
010000
,
000000
000000
000001
000000
000000
010000
001000
010000
,
000000
000000
000000
000000
,
100001
001000
000010
001000
,
100001
001000
010000
010000
,
000010
000100
001000
000001
,
010000
001000
010000
001000
,
100000
000010
001000
000100
,
100001
010000
000010
010000
,
100001
000010
001100
010000
,
000001
000001
100001
000000
,
000100
100000
100001
000001
,
001000
000010
010010
010000
,
000001
010000
100010
001000
,
000001
000001
100000
100000
,
000100
001000
000100
000000
010000
000000
010000
000000
,
000001
000001
100010
010001
,
001000
001000
000100
000100
,
010000
000000
010000
000000
000010
100000
000010
000000
,
001000
000100
001000
000000
000100
001000
000100
000000
,
000010
000010
010000
000010
,
100000
100000
100000
000000
000001
000001
000001
000000
,
010000
100000
010000
100000
010000
100000
000100
000000
,
001010
001010
100010
001010
,
010001
010001
011000
001010
,
100000
000001
001000
000100
,
000100
100000
000001
000000
100001
000000
000000
000000
;

//---------------dance-solo - ----------------
#NOTES:
     dance-solo:
     :
     Medium:
     7:
     :
000000
000000
000000
000000
,
000000
000000
000000
000000
,
000000
000000
000000
000000
,
000000
000000
000000
000000
,
000000
000000
000000
000000
,
000000
000000
000000
000000
,
000000
000000
000000
000000
,
000000
000100
001000
000010
,
000000
000010
000000
000010
,
100000
100000
001000
001000
,
010000
010000
000001
000001
,
000100
000000
000100
000000
010000
001000
010000
000000
,
000001
000000
000100
000000
000010
001000
000010
000000
,
100000
000010
100000
000000
001100
000000
100001
000000
,
000001
100000
000100
000100
,
010000
000001
010000
000000
010010
000000
001100
000000
,
100000
000001
001000
000001
,
000010
001000
000100
101000
,
000001
001000
000010
101000
,
000010
001000
000100
101000
,
000001
000001
000100
001010
,
100000
000100
100000
000000
000001
000100
000001
000000
,
001000
000100
001000
000000
001010
000000
011000
000000
,
000001
000101
000001
100001
,
100000
000100
010000
000100
001000
000000
000000
000000
,
100001
001000
001000
001000
,
001100
000010
000010
000010
,
001000
001000
000001
100000
,
000100
000100
010000
001000
,
000001
000001
001000
001000
,
100000
100000
001000
001000
,
001010
011000
010001
100010
,
001100
100001
001100
000000
,
000001
010000
001000
000000
,
100000
000100
001000
000000
000100
001000
000001
000000
,
000100
000001
001000
100000
,
001000
000010
100000
000000
000001
010000
001000
000000
,
001000
100000
000001
000100
,
010000
001000
010000
000000
100000
000010
001000
000000
,
000001
000100
100000
001000
,
000100
010000
000001
000000
000100
000010
100000
000000
,
001000
000000
000010
000010
,
000000
100000
100000
100000
,
001000
000000
000000
001010
000000
000000
000000
001000
,
000000
010000
000000
011000
000000
000001
000000
001001
,
000000
100001
000000
000000
000100
000000
000000
001000
,
000000
000000
000001
000000
000000
000001
010000
000001
,
010000
000000
000000
010000
000000
000000
100001
000000
,
001100
000000
000000
010000
000001
010000
000001
001000
,
000000
001100
000000
000000
000100
000000
000000
100001
,
000000
000000
001000
000000
000000
001000
000010
001000
,
000000
100001
000000
000000
100000
000000
000000
000100
,
000000
000000
001000
000000
000000
000100
001000
000001
,
000000
000000
000000
000000
,
100000
000000
000100
000000
001000
001000
001000
000000
,
000010
000000
001000
000000
000001
000001
000001
000000
,
010000
000100
100000
100000
,
000010
001000
000100
000100
,
000100
000000
001000
000100
100000
001000
000100
000000
,
000100
000000
001000
000100
000001
001000
000100
000000
,
000100
000000
001000
000100
100000
001000
000100
000000
,
000001
001000
000100
100000
,
000001
001000
000100
000000
001010
000000
100000
000000
,
000001
000100
000001
000000
001100
000000
001000
000000
,
000001
000010
000001
000000
010001
000000
100000
000000
,
001000
000010
000100
011000
,
100000
001000
100000
000000
010000
000001
010000
000000
,
000010
100000
000010
000000
000001
000100
000001
000000
,
001000
001000
000100
000000
100000
100000
000001
000000
,
010000
010000
001000
000000
000100
000100
000001
000000
,
000001
000010
000001
000100
000001
000010
000001
000100
,
000001
000010
000001
000100
000001
000010
000001
000000
,
001000
000100
001000
000000
100000
001000
100000
000000
,
000010
001000
000010
001000
000010
100000
001000
000000
,
001010
011000
000001
100000
,
000100
000000
001000
000000
000010
000010
001000
000000
,
010000
001000
100000
001000
000001
000100
000010
001000
,
001010
000110
100001
000000
;

//---------------dance-solo - ----------------
#NOTES:
     dance-solo:
     :
     Hard:
     9:
     :
000000
000000
000000
000000
,
000000
000000
000000
000000
,
000000
000000
000000
000000
,
000000
000000
000000
000000
,
000000
000000
000000
000000
,
000000
000000
000000
000000
,
000000
000000
000000
000000
,
000010
000000
001000
000000
000100
100000
000100
000000
,
001000
000001
010000
000000
000100
100000
001000
000000
,
000010
000010
001000
001000
000001
000100
001000
100000
,
000001
000001
001000
001000
000100
010000
001000
000000
,
000001
000100
000001
000000
001000
000010
001000
000000
,
000100
010000
000001
000000
100000
000010
100000
000000
,
000001
001000
000100
100000
000010
100000
000001
010000
,
000001
010000
000100
001000
000010
001000
000001
000000
,
001000
010000
001000
100000
001000
000010
001000
000001
,
001000
010000
001000
100000
001000
000100
001000
000000
,
000100
100001
001000
100001
,
001000
000010
001000
000010
001000
000010
001000
000000
,
100000
000000
001000
010000
001000
000100
000001
000000
,
000001
000000
000100
000000
010000
001000
010000
000000
,
100010
000000
100010
000000
001000
000001
001000
000000
,
000010
000010
001000
001000
001100
000000
010001
000000
,
010000
000000
010000
001000
100000
000000
000100
001000
,
000001
000100
000010
001000
000001
000000
100001
000000
,
100001
000000
100010
000000
001000
000100
100000
000000
,
010001
000000
011000
000000
000100
100000
001000
000000
,
000100
001000
000100
000000
001000
000010
001000
000000
,
000001
010000
000001
010000
001000
100000
001000
000000
,
100000
000100
100000
000100
000100
010000
000100
000010
,
000100
000100
001000
000001
000001
000001
100000
000000
,
000010
001000
000001
001000
000100
001000
000001
100000
,
001000
010000
001000
010000
000001
000000
000000
000000
,
000100
000010
001000
000010
001000
000001
100000
000001
,
100000
000100
001000
000100
001000
000010
100000
000001
,
010000
001000
010000
001000
000100
000001
001000
000010
,
100000
000100
010000
000010
001000
010000
001000
100000
,
001000
000001
100000
000010
100000
000100
001000
000000
,
000001
010000
000100
100000
000001
010000
000100
100000
,
000001
010000
000001
100000
000001
010000
001000
000100
,
001000
010000
000001
001000
000001
100000
000100
000000
,
000100
000000
000001
000001
,
000000
010000
010000
010000
,
000100
000000
000000
001000
000000
000000
000000
000001
,
000000
100000
000000
000100
000000
001000
000000
000001
,
000000
010000
000000
000000
001000
000000
000000
000010
,
000000
000000
100000
000000
000000
000001
000001
001000
,
001000
000000
000000
000100
000000
000000
100000
000000
,
000001
000000
000000
001000
001000
000100
100000
100000
,
000000
000001
000000
000000
010000
000000
000000
000001
,
000000
000000
001000
000000
000000
000010
001000
001000
,
000000
000100
000000
000000
100000
000000
000000
000001
,
000000
000000
001000
000000
000000
000010
000010
000010
,
000000
000000
000000
000000
,
010000
001000
010000
000001
000100
000001
000100
000000
,
001000
010000
001000
100000
000100
001000
000001
000000
,
000100
100000
000100
001000
000100
000001
000100
001000
,
000100
100000
000100
001000
000100
000001
000100
000000
,
100000
000001
001000
000100
010000
000010
001000
000100
,
100000
000001
001000
000100
010000
000010
001000
000000
,
000001
000001
010000
000001
000001
000001
010000
000001
,
000001
000001
010000
000001
010000
010000
001000
000000
,
100000
000010
001000
000010
100000
000010
001000
000010
,
000100
000001
001000
000001
000100
000001
001000
000000
,
100000
001000
100000
001000
010000
001000
010000
001000
,
000100
001000
000100
001000
010000
001000
010000
000000
,
000001
001000
000100
100000
000100
001000
000001
100000
,
000001
000100
000001
010000
001000
100000
001000
000000
,
100000
100000
000010
000000
000100
000001
010000
000000
,
001000
100000
000100
010000
001000
001000
100000
000000
,
000010
001000
000001
100000
000100
001000
000010
000100
,
000010
001000
000001
000100
001000
100000
000001
000000
,
010000
000100
010000
000100
010000
000001
010000
000000
,
000010
000000
100000
000000
000100
001000
000010
000000
,
010001
000000
100010
000000
000100
001000
000100
000000
,
001010
000000
011000
000000
000001
001000
000001
000000
,
000001
000001
010000
000000
000010
100000
100000
000000
,
000001
000100
001000
000000
100000
000000
000000
000000
;
