#TITLE:PARANOiA MAX;
#SUBTITLE:~FUNKY BLEEP MIX~;
#ARTIST:190 remixed by DEPROGRAM MAN;
#BANNER:PARANOiA MAX ~FUNKY BLEEP MIX~-bn.png;
#BACKGROUND:PARANOiA MAX ~FUNKY BLEEP MIX~-bg.png;
#JACKET:PARANOiA MAX ~FUNKY BLEEP MIX~-jacket.png;
#MUSIC:PARANOiA MAX ~FUNKY BLEEP MIX~.ogg;
#SAMPLESTART:50.526;
#SAMPLELENGTH:20;
#DISPLAYBPM:190;
#BPMS:0=190;
#BGCHANGES:;

//---------------dance-single - ----------------
#NOTES:
     dance-single:
     :
     Beginner:
     3:
     :
0000
0000
0000
0000
,
0000
0000
0000
0000
,
0000
0000
0000
0000
,
0000
0000
0000
0000
,
0000
0001
0000
0001
,
0000
1000
0000
1000
,
0000
0001
0000
0001
,
0000
0000
0000
0100
,
0000
0001
0000
0001
,
0000
0010
0000
0010
,
0000
0100
0000
0100
,
0000
1000
0000
1000
,
0000
0010
0000
1000
,
0000
0001
0000
0100
,
0000
0001
0000
0010
,
0000
0000
1000
1000
,
1000
0000
0001
0000
,
0100
0100
0100
0000
,
0010
0000
1000
0000
,
0001
0001
0001
0000
,
0010
0000
0001
0000
,
0100
0100
0100
0000
,
0001
0000
0001
0000
,
1000
0000
0010
0000
,
0000
1000
0000
0010
,
0000
0100
0000
0001
,
0000
0010
0000
0001
,
0000
0100
0000
1000
,
0000
0010
0000
1000
,
0000
0100
0000
0001
,
0000
0100
0000
0010
,
0000
0000
1000
1000
,
1000
0000
0002
0000
,
0000
0000
0003
0000
,
0100
0000
0020
0000
,
0000
0000
0030
0000
,
1000
0000
0100
0000
,
0001
0000
0010
0010
,
0010
0000
0001
0000
,
0100
0000
1000
0000
,
0001
0000
0001
0000
,
1000
0000
1000
0000
,
0010
0000
0100
0000
,
0001
0000
1000
0000
,
0100
0000
0010
0000
,
0001
0000
1000
0000
,
0000
0010
0000
0010
,
0000
0100
0000
0100
,
0000
0001
0000
1000
,
1000
0000
0001
0000
,
0010
0000
0100
0000
,
1000
1000
1000
0000
,
0001
0000
0100
0000
,
0010
0010
0010
0000
,
0100
0000
0001
0000
,
0010
0000
0100
0100
,
0100
0000
1000
0000
,
0010
0000
1001
0000
,
0110
0000
0000
0000
;

//---------------dance-single - ----------------
#NOTES:
     dance-single:
     :
     Easy:
     7:
     :
0000
0000
0000
0000
,
0000
0000
0000
0000
,
0000
0000
0000
0000
,
0000
0000
0000
0000
,
0000
0001
1000
0001
,
0010
0000
0001
0000
0100
0000
1000
0100
,
0000
0001
1000
0001
,
1000
0010
0001
0110
,
1001
1000
0010
0001
,
0100
0010
0100
0001
,
0010
0100
1000
0010
,
1000
0100
0010
0001
,
0100
0001
0010
0100
,
0001
0100
1000
0010
,
0100
1000
0001
0100
,
0010
0010
1010
0011
,
0100
0001
0010
0001
,
1000
0000
0010
0000
1000
0001
1000
0000
,
0100
0010
0001
0100
,
0001
0000
0001
0000
0001
0000
0001
1000
,
0000
0010
1000
0100
,
0001
1000
0001
0100
,
0010
1000
0100
0010
,
0001
0001
0101
1100
,
0000
0001
0010
0100
,
0000
1000
0010
0001
,
0000
0100
0001
0010
,
0000
0001
1000
0100
,
1000
0100
0010
0001
,
0100
0010
1000
0001
,
1000
0001
0000
0100
0000
0000
0010
0000
,
1000
0001
0100
0100
,
0101
0000
0000
2200
0000
0000
3300
0000
,
0001
0010
0001
1000
,
1010
0000
0000
0022
0000
0000
0033
0000
,
0100
0010
1000
0001
,
1000
0001
0000
0100
0000
0000
0010
0000
,
0000
1000
0000
0000
0001
0100
0001
0000
,
0010
0000
0000
0001
0000
0000
0100
0000
,
0000
1000
0000
0000
0010
0100
0010
0000
,
0001
0001
0001
0001
,
1000
1000
1000
1000
,
0010
1000
0100
0000
1000
0000
0001
0000
,
0010
0001
0100
1000
,
0000
0010
0000
0010
0000
0100
0000
0100
,
0000
1000
0000
0001
0000
1000
0000
0001
,
0000
1000
0000
0010
0000
1000
0000
0010
,
0000
0100
0000
0001
0000
0100
0000
0001
,
0000
0010
0000
0001
0000
0100
0000
1000
,
0001
0100
0110
1001
,
1010
0000
0000
0202
0000
0000
0303
0000
,
0001
0000
0010
0000
1000
0001
0100
0000
,
0101
0000
0000
2200
0000
0000
3300
0000
,
1000
0000
0010
0000
1000
0001
0100
0000
,
1010
0000
0000
0022
0000
0000
0033
0000
,
0010
0000
0100
0000
1000
0001
0010
0000
,
0011
0000
0000
2200
0000
0000
3300
0000
,
0010
0100
0001
0000
1001
0000
0110
0000
,
2002
3003
0220
0330
;

//---------------dance-single - ----------------
#NOTES:
     dance-single:
     :
     Medium:
     10:
     :
0000
0000
0000
0000
,
0000
0000
0000
0000
,
0000
0000
0000
0000
,
0000
0000
0000
0000
,
0000
0002
2003
3002
,
0013
0001
0100
0000
0010
1000
0010
0100
,
0000
0002
2003
3002
,
1003
0000
0000
1000
0000
0000
1000
0000
0001
0000
0000
0000
0110
0000
0000
0000
,
1001
0000
1000
0010
0000
0100
0001
0010
,
0001
0000
0010
0100
1000
0001
0000
1000
,
0000
0010
1000
0100
0000
0010
0001
0100
,
0001
0000
1000
0010
1000
0001
0000
0100
,
0000
0001
0010
0100
0000
1000
0010
0100
,
0001
0000
0010
0001
1000
0010
0000
0100
,
0000
0001
0010
0100
0000
1000
0010
0100
,
0001
0000
0000
0000
1000
0000
0001
0000
0100
0000
0000
0100
0000
0000
0100
0000
,
0000
0010
1000
0001
0000
0010
0001
1000
,
0100
0000
1100
0000
1000
0010
0100
0001
,
0000
0010
0001
1000
0000
1000
0100
0010
,
0001
0000
0001
0000
0001
1000
0001
1000
,
0000
0010
1000
0100
0000
0010
0001
0100
,
0001
0000
0011
0000
0010
0001
1000
0100
,
0000
1000
0010
1000
0000
1000
0010
0100
,
0001
0000
0000
0000
0001
0000
0000
0000
0100
0000
0000
0100
0000
0000
0100
0000
,
0001
0000
0010
0000
0001
0100
0010
1000
,
0000
0100
1000
0001
0000
0100
0010
1000
,
0000
0000
1010
0000
1000
0001
0010
0100
,
0000
1000
0010
0100
0000
0010
1000
0001
,
0000
0010
0001
0100
0000
0010
1000
0001
,
0000
0010
0001
0100
0000
0010
1000
0000
,
0001
1000
0010
0100
0000
0001
1000
0010
,
1000
0000
0000
0100
0000
0000
0010
0000
0001
0000
0000
0000
0011
0000
0000
0000
,
0101
0000
0000
1100
0000
0001
0001
0000
,
1000
0010
0000
1000
0010
0000
1000
0010
,
1010
0000
0000
0011
0000
1000
1000
0000
,
0001
0100
0010
0100
0001
0000
1000
0001
,
0010
0001
1000
0100
0000
0010
0100
0000
,
1000
0001
0100
0010
1001
0000
0110
0000
,
1000
0000
1000
0100
0000
0100
0001
0000
,
0001
0010
0100
1000
0100
0010
0001
0000
,
0001
0000
0000
0001
0001
0000
0000
0001
,
1000
0000
0000
1000
1000
0000
0000
1000
,
1000
0001
0100
0000
0010
1000
0001
0000
,
0010
0001
0000
0010
0100
1000
0000
0001
,
0100
0020
0000
2030
0000
3002
0000
0023
,
0000
0230
0000
2300
0000
3002
0000
0203
,
0000
0301
0010
1000
0000
0001
0100
1000
,
0000
0001
0010
1000
0000
0001
0100
1000
,
0000
0020
0000
0230
0000
0302
0000
1003
,
0001
0010
0001
0100
2000
0000
3001
0000
,
0011
0000
0000
1100
0000
0000
0001
0100
,
0010
0000
1000
0100
0001
0100
1000
0000
,
1010
0000
0000
0101
0000
0000
0010
0001
,
0100
0000
0001
0010
1000
0010
0001
0000
,
0101
0000
0000
1100
0000
0000
0010
1000
,
0100
0000
1000
0010
0001
0010
1000
0000
,
1010
0000
0000
0011
0000
0000
0001
0100
,
1000
0000
0100
0000
0001
0000
0000
0000
0100
0000
0000
0100
0000
0000
0100
0000
,
0010
1000
0100
0001
;

//---------------dance-single - ----------------
#NOTES:
     dance-single:
     :
     Hard:
     14:
     :
0000
0000
0000
0000
,
0000
0000
0000
0000
,
0000
0000
0000
0000
,
0000
0000
0000
0000
,
0000
0000
0000
0000
0001
0100
0000
0000
1000
0100
0000
0000
0001
0100
0000
0000
,
0010
1000
0100
0010
0001
0100
0001
1000
,
0000
0000
0000
0000
0001
0100
0000
0000
1000
0100
0000
0000
0001
0100
0000
0000
,
1000
0000
0000
1000
0000
0000
1000
0000
0001
0000
0000
0100
0010
0000
0000
0000
,
0110
0000
0001
0000
0001
0000
0100
0000
0010
0000
1000
0000
1000
0000
0100
0010
,
0001
0000
1001
0010
0001
0010
1000
1100
,
0000
0000
1100
0000
1100
0000
1100
0000
0000
0000
0001
0000
0100
0000
0010
1000
,
0001
0000
0100
0001
0010
1100
0000
1000
,
0001
0000
0101
0000
0101
0000
0101
0000
0000
0000
0010
0000
1000
0000
0001
0100
,
0001
0000
0010
0000
0100
0000
1000
0001
0100
0000
0010
0000
1000
0000
1010
0000
,
0000
0000
1010
0000
1010
0000
1010
0000
0000
0000
0100
0000
0010
0000
0001
1000
,
0001
0000
0100
0000
1000
0000
0100
0000
1001
0000
0000
1001
0000
0000
1001
0000
,
0010
0000
1000
0000
1000
0000
0001
0000
0010
0000
0001
0000
0001
0000
0100
0010
,
1000
0000
0000
0000
1100
0000
0100
0000
0010
0001
0010
0001
0010
0000
0100
0000
,
0000
0000
1100
0000
1100
0000
1100
0000
0000
0000
0001
0000
0100
0000
0010
1000
,
0001
0000
0001
0000
0001
0001
0001
0001
,
0000
0000
0011
0000
0011
0000
0011
0000
0000
0000
0010
0000
0100
0000
1000
0001
,
1000
0000
0000
0000
0010
0000
0100
0001
0100
0000
0010
0000
1000
0000
0001
0000
,
0000
0000
0101
0000
0101
0000
0101
0000
0000
0000
0010
0000
1000
0000
0100
0010
,
0001
0000
0000
0000
0001
0000
0000
0000
1001
0000
0000
1001
0000
0000
1001
0000
,
0010
2000
3200
2300
3020
0230
0302
0203
,
0310
2000
3002
2003
3100
0020
0032
0103
,
0000
0200
0320
2030
3200
0320
0032
2003
,
3010
0200
0302
2003
3010
2000
3200
0320
,
0031
0200
0302
0023
0230
0320
0032
2003
,
3010
0200
0302
0023
0130
2000
3002
0013
,
0001
2000
3002
0203
0320
2030
3200
0320
,
0031
0000
1000
0010
1000
0000
0001
0000
0100
0000
0000
0000
0100
0000
0000
0000
,
0102
0000
0103
2100
0000
0001
3001
0000
,
1000
0010
0100
0010
1000
0010
0100
0010
,
2010
0000
3010
0012
0000
1000
1003
0010
,
0001
0010
0100
0010
0001
0010
1000
0100
,
1000
0010
0001
0100
0000
0010
1000
0000
,
0100
0000
0010
0001
0010
0001
0010
0000
0100
0000
1000
0001
1000
0000
0000
0000
,
0010
1000
0001
0010
0000
0100
0100
1000
,
0001
0000
0100
0000
1000
0000
0001
0000
0001
0000
0100
0010
0100
0000
0000
0000
,
0001
0000
0000
0001
0000
0000
0001
0000
0001
0000
0000
0001
0000
0000
0001
0000
,
1000
0000
0000
1000
0000
0000
1000
0000
1000
0000
0000
1000
0000
0000
1000
0000
,
1000
0100
0010
0000
0001
0000
0100
0010
1000
0000
0001
0000
1000
0001
0100
0000
,
0010
0000
1000
0000
0100
0000
0010
0001
0010
0000
0100
0000
1000
0000
0001
0000
,
0100
0110
0010
1010
1000
1001
0001
0011
,
0010
0110
0100
1100
1000
1001
0001
0101
,
1000
0020
2030
3200
0310
0002
0203
0320
,
1030
0002
2003
3200
0310
0002
2003
3020
,
0130
0101
0001
1001
1000
1010
0010
0110
,
0100
0000
0001
0000
0010
0000
0100
0000
1000
0001
1000
0000
0001
1000
0001
0000
,
0011
0100
0010
1010
2000
3020
0230
2300
,
3200
0302
0023
2030
3020
0032
0203
0310
,
1010
0001
1000
1100
0200
0320
0032
0203
,
0302
2003
3020
2030
3200
0320
0032
1003
,
0011
0100
0010
1010
2000
3002
0023
0230
,
2300
3020
0032
0023
0230
0302
2003
3100
,
0110
0001
1000
0011
0200
0302
0023
0230
,
2300
0000
3002
0000
0203
0000
0310
0000
1001
0000
0000
1001
0000
0000
1001
0000
,
1001
0001
1000
0001
;

//---------------dance-single - ----------------
#NOTES:
     dance-single:
     :
     Challenge:
     16:
     :
0000
0000
0000
0000
,
0000
0000
0000
0000
,
0000
0000
0000
0000
,
0000
0000
0000
0000
,
0000
0000
0000
0000
0001
0100
0001
0000
1000
0100
1000
0000
0001
0100
0001
0000
,
0010
0001
0100
0010
0001
0010
1000
1100
,
0010
0000
0000
0000
0001
0100
0001
0000
1000
0100
1000
0000
0001
0100
0001
0000
,
1000
0000
0000
1000
0000
0000
1000
0000
0001
0000
0100
0010
0100
0000
0000
0000
,
0110
0000
0001
0000
0010
0000
0001
0100
0001
0000
0010
0000
0100
0000
1000
0010
,
1000
0000
0000
0000
0001
0100
0010
0100
0001
0000
1000
0000
0100
0000
0010
0000
,
0001
0000
0100
0010
1000
0000
0001
0000
0010
0000
0001
0000
0100
0000
0010
1000
,
0001
0000
0100
0010
1000
0000
0001
0100
0001
0000
0010
0000
0100
0000
1000
0000
,
0001
0000
1000
0000
0010
0000
1000
0000
0100
0000
0010
0000
0001
0000
0100
0001
,
0010
0000
0001
0000
1000
0100
0010
0000
0001
0000
1000
0000
0010
0000
0100
0000
,
0001
0000
0010
0000
0001
0100
0010
0100
0001
0000
1000
0000
0010
1000
0100
1000
,
0010
0000
1000
0100
0010
0001
0010
0100
1000
0000
0000
1000
0000
0000
1000
0000
,
1001
0000
0010
1000
0100
0000
0001
0010
0100
0000
1000
0010
1000
0000
0001
0100
,
0001
1000
0100
0000
1000
0001
0100
0000
0010
1000
0010
0100
0001
0000
0010
0000
,
0001
0000
0100
0010
1000
0000
0001
0000
0010
0000
0001
0000
0100
0010
1000
0001
,
0010
0000
0001
0100
0001
0000
0010
0100
1000
0010
0100
0010
1000
0010
0100
0000
,
0010
0000
0001
0000
0010
0001
0100
0010
1000
0000
0100
0000
1000
0001
1000
0100
,
0010
0000
0001
1000
0001
0000
1000
0001
1000
0000
0010
0100
0001
0000
1000
0000
,
0100
0000
1000
0000
0001
0010
0001
1000
0010
0000
0100
0000
0001
0010
0100
1000
,
0001
0000
0100
0010
1000
0000
0100
0010
0001
0000
0000
0001
0000
0000
0001
0000
,
1000
0001
0100
0000
0010
0000
1000
0100
0010
0100
1000
0000
0001
0010
0001
1000
,
0010
0000
0100
0001
0100
0000
0010
0000
1000
0100
1000
0001
0010
0000
0100
0000
,
0000
0000
1000
0000
0010
0000
0100
0000
0001
0010
0001
0010
0100
1000
0001
0000
,
0100
0000
0010
1000
0010
0000
0100
0000
0001
0000
0010
0001
1000
0010
0100
0000
,
0001
0000
0010
0000
0100
0000
1000
0010
1000
0000
0100
0000
0010
0001
1000
0000
,
0010
0100
0001
0100
0010
0000
1000
0000
0100
0010
0100
1000
0001
0000
0100
0000
,
0001
0000
1000
0000
0010
1000
0100
0010
0001
0000
0100
0000
0001
0010
1000
0000
,
0100
0000
1000
0010
1000
0000
0001
0100
0001
0000
0000
0000
0101
0000
0000
0000
,
1010
0100
0001
0011
0000
0100
0001
1000
,
0010
1000
0001
0000
0010
0000
0100
0000
0001
0000
0100
0000
1000
0000
0010
0000
,
0110
0000
0010
0000
1000
0000
1100
0000
0000
0000
0001
0100
0001
0000
1000
0000
,
0010
0000
0001
0000
0010
0000
1000
0000
0100
0010
0001
0000
1000
0000
0100
0000
,
1000
0000
0001
0000
0010
0000
0100
1000
0010
0000
0100
0000
0001
0010
0001
0000
,
1000
0000
0001
0010
1000
0010
0001
0000
0100
0000
0001
0100
1000
0000
0000
0000
,
1010
0001
1000
1100
0100
0010
0011
0100
,
0010
0000
0101
0000
0001
0000
1000
0000
0010
1000
0010
1000
0001
0100
0001
0100
,
0001
0000
0010
0001
0000
0010
0001
0000
0001
0000
0010
0001
0000
0010
0001
0000
,
1000
0000
0100
1000
0000
0100
1000
0000
1000
0000
0100
1000
0000
0100
1000
0000
,
1000
0100
0010
0000
0001
0100
0010
1000
0001
0000
0100
0000
0010
1000
0001
0000
,
0010
0001
1000
0000
0010
1000
0100
1000
0001
0000
0010
0000
0001
0000
0100
0000
,
0010
0000
1000
0100
1000
0000
0001
0100
0001
0000
1000
0010
1000
0000
0001
0010
,
0001
0000
1000
0100
1000
0000
0001
0100
0001
0000
1000
0010
1000
0000
0001
0010
,
0001
0000
0100
0000
0010
0000
1000
0001
1000
0000
0100
0000
0010
0000
0001
0100
,
0001
0000
0010
0000
0100
0000
1000
0010
1000
0000
0001
0000
0100
0000
0010
1000
,
0010
0000
1000
0100
1000
0000
0001
0100
0001
0000
1000
0010
1000
0000
0001
0010
,
0001
0100
0010
1000
0100
0010
0001
0100
0010
0000
1000
0001
1000
0000
0100
0000
,
1000
0010
0001
0010
1000
0000
0100
0010
0002
0000
0203
0000
0320
0000
2030
0000
,
3200
0000
2300
0000
3002
0000
0013
0001
2000
0000
3020
0000
0230
0000
0301
0000
,
0011
0000
0001
0000
1000
0000
0100
0010
0001
0000
0100
0000
0010
1000
0001
1000
,
0100
0000
0010
0001
0100
0000
0010
1000
0001
0000
0010
0100
1000
0000
0001
0000
,
0101
0000
0100
0000
0010
0000
1000
0001
0200
0000
0320
0000
2030
0000
3100
0010
,
0002
0000
0203
0000
0320
0000
1030
0001
1000
0000
0100
0000
0001
0000
1000
0010
,
1000
0000
0100
0000
0001
0000
0010
0000
0001
0100
0010
0100
0001
1000
0010
1000
,
0100
0000
0010
0001
1000
0000
0010
0100
0001
0000
0000
0001
0000
0000
0001
0000
,
0011
1100
0101
1010
;
