#TITLE:PARANOiA Jupiter MAX;
#ARTIST:500-140;
#BANNER:PARANOiA Jupiter MAX-bn.png;
#BACKGROUND:PARANOiA Jupiter MAX-bg.png;
#JACKET:PARANOiA Jupiter MAX-jacket.png;
#MUSIC:PARANOiA Jupiter MAX.ogg;
#SAMPLESTART:60;
#SAMPLELENGTH:20;
#DISPLAYBPM:180;
#BPMS:0=180;
#BGCHANGES:;

//---------------dance-single - ----------------
#NOTES:
     dance-single:
     :
     Beginner:
     5:
     :
0000
0000
0000
0000
,
0000
0000
0000
0000
,
0000
0000
0000
0000
,
0000
0000
0000
0000
,
0000
0000
0000
0000
,
0000
0000
0000
0000
,
0000
0000
0000
0000
,
0000
0000
0000
0000
,
0000
0000
0000
0000
,
0010
0010
0000
0000
,
0100
0100
0000
0000
,
0010
0010
0000
0000
,
0001
0000
1000
0000
,
0010
0000
0010
0000
,
0010
0000
0000
0000
,
1000
0000
1000
0000
,
1000
0000
0000
0000
,
0001
0000
0001
0000
,
0001
0000
0000
0000
,
0100
0000
0100
0000
,
0100
0000
0000
0000
,
0000
0001
0000
1000
,
0000
0010
0010
0010
,
0000
1000
0000
0100
,
0000
1000
1000
1000
,
0000
0001
0000
0010
,
0000
0100
0100
0100
,
0000
1000
0000
0001
,
0001
0000
1000
0000
,
0010
0000
1000
0000
,
0200
0000
0300
0000
,
0010
0000
0001
0000
,
0200
0000
0300
0000
,
0001
0000
1000
0000
,
0200
0000
0300
0000
,
1000
0000
0001
0000
,
0020
0000
0030
0000
,
0001
0000
0001
0000
,
0001
0000
0001
0000
,
1000
0000
1000
0000
,
1000
0000
1000
0000
,
0010
0000
1000
0000
,
0010
0000
1000
0000
,
0100
0000
0010
0000
,
0001
0000
1000
0000
,
0100
0100
0100
0000
,
1000
0000
0001
0001
,
0001
0000
1000
0000
,
0010
0010
0010
0010
,
0010
0000
1000
0000
,
0100
0000
1000
1000
,
1000
0000
0000
0000
,
0001
0001
0001
0001
,
0001
0000
0100
0000
,
0010
0000
1000
0000
,
0100
0000
0010
0000
,
0001
0000
0100
0100
,
0100
0000
0010
0000
,
1000
0000
0010
0000
,
1000
0000
0100
0000
,
0010
0000
0001
0000
,
1000
0000
0010
0000
,
1000
0000
0100
0000
,
0010
0000
0001
0000
,
0100
0000
0010
0010
,
0010
0000
1000
0000
,
0001
0000
0010
0010
,
0010
0000
0100
0000
,
1000
0000
0001
0000
,
0100
0100
0100
0100
,
0001
0000
1000
0000
,
0010
0010
0010
0010
,
1000
1000
0001
1000
,
0010
0010
0000
0000
,
0100
0100
0000
0000
,
0001
0001
0000
0000
,
1000
0000
0110
0000
,
1001
0000
0000
0000
;

//---------------dance-single - ----------------
#NOTES:
     dance-single:
     :
     Easy:
     9:
     :
0000
0000
0000
0000
,
0000
0000
0000
0000
,
0000
0000
0000
0000
,
0000
0000
0000
0000
,
0000
0000
0000
0000
,
0000
0000
0000
0000
,
0000
0000
0000
0000
,
0000
0000
0000
0000
,
0000
0000
0000
0000
,
1001
1001
0010
1000
,
1100
1100
0001
0100
,
0011
0011
0100
0010
,
2000
3002
2003
3002
,
0023
0000
0030
0001
2000
0000
3000
0010
,
0200
0000
0300
0001
2000
0000
3100
0000
,
0020
0000
0030
0001
2000
0000
3000
0010
,
0200
1000
0301
0100
,
0002
0000
0003
0010
0200
0000
0300
1000
,
0002
0000
0003
1000
0020
0000
0130
0000
,
0020
0000
0030
0100
0002
0000
0003
1000
,
0010
0020
0001
1030
,
0010
1100
0010
0101
,
1000
0010
1000
0001
,
0100
0011
0100
1010
,
0001
0010
0100
1000
,
0001
0110
1000
0110
,
0010
1000
0100
0010
,
0001
1001
1000
1001
,
0010
1000
0100
0010
,
0002
0000
0003
1000
0020
0000
0030
1000
,
0200
0000
0010
0310
,
0002
0000
0003
0010
0002
0000
0003
1000
,
0020
0000
0000
0001
0000
0000
0130
0000
,
2000
0000
3000
0100
0020
0000
0030
0001
,
2000
0000
0100
3100
,
0020
0000
0030
0100
2000
0000
3000
0010
,
0200
0000
0000
1000
0000
0000
0301
0000
,
0010
0010
0001
0001
,
1000
1000
0100
0100
,
1000
1000
0010
0010
,
0100
0100
0001
0001
,
0010
0001
0100
0010
,
1000
0100
1000
0001
,
0010
0001
0100
1000
,
0010
0000
0100
0000
0001
1000
0001
1000
,
0100
0000
1001
0000
0001
0100
0001
1000
,
0010
0100
0101
0101
,
2010
0001
0100
3001
,
1000
0010
0110
0110
,
1001
0000
1100
0000
0001
0010
1000
0000
,
0100
1000
0001
0000
0011
0000
0011
0000
,
1100
0000
0101
0000
1000
0010
0100
0000
,
0002
2003
3002
2003
,
3020
0000
1030
0100
2000
0000
3010
0100
,
0002
0000
0013
0000
0001
1000
0001
1000
,
0200
0000
0310
0001
2000
0000
3001
0010
,
0002
0203
0010
0301
,
2000
0000
3001
0010
0200
0000
1300
0010
,
0200
0000
0301
0010
0200
0000
1300
0000
,
0002
0000
1003
0100
2000
0000
3001
0100
,
0020
1030
0110
0110
,
0001
1000
0100
0000
1000
0001
0010
0000
,
0001
0100
0010
0000
1010
0000
1010
0000
,
0200
0000
1300
0001
0020
0000
0031
1000
,
0002
0000
0103
0000
0001
0010
1000
0000
,
0200
0000
1300
0010
0200
0000
0301
1000
,
0020
0000
1030
0001
0100
0000
0101
0000
,
0020
0000
1030
0100
2000
0000
3001
0010
,
0001
1000
0001
1000
0001
0010
0100
1000
,
0200
0000
0000
0000
1000
0000
0000
1000
0000
0000
0001
0000
0000
1300
0000
0000
,
0010
1000
0100
0000
1100
0000
0011
0000
,
0100
0001
0010
0000
1001
0000
0101
0000
,
1000
0001
0100
0000
0010
1000
0100
0000
,
1100
1100
0001
0100
,
0011
0011
1000
0001
,
1010
1010
0100
0001
,
0010
0010
1001
0110
,
1001
0000
0000
0000
;

//---------------dance-single - ----------------
#NOTES:
     dance-single:
     :
     Medium:
     13:
     :
0000
0000
0000
0000
,
0000
0000
0000
0000
,
0000
0000
0000
0000
,
0000
0000
0000
0000
,
0000
0000
0000
0000
,
0000
0000
0000
0000
,
0000
0000
0000
0000
,
0000
0000
0000
0000
,
0000
0000
0000
0000
,
0011
0000
0000
0000
1100
0000
0000
0000
0000
0000
0001
1000
0001
0000
0000
0000
,
1010
0000
0000
0000
0101
0000
0000
0000
0000
0000
1000
0100
1000
0000
0000
0000
,
0110
0000
0000
0000
1001
0000
0000
0000
0000
0000
0010
1000
0010
0000
0000
0000
,
1000
1000
1000
1000
0001
0001
0001
0001
,
0010
0001
0000
0001
1000
0100
0000
0100
,
1000
0010
0000
0100
0001
0000
0010
0100
,
1000
0010
0000
1000
0100
0010
0000
0001
,
1000
0000
0010
0100
0000
0001
0001
0000
,
0010
0001
0000
0001
1000
0010
0000
1000
,
0100
0010
0000
0010
0001
0000
1000
0010
,
1000
0100
0000
0010
0100
1000
0000
0001
,
1000
0000
0000
0000
0010
0000
0100
0000
0000
0000
0001
0000
0001
0000
1000
0100
,
1000
0000
0000
0010
0000
0000
0100
0000
0001
0000
0000
0010
0000
0000
0100
0000
,
1000
0000
0000
0001
0000
0000
0100
0000
0010
0000
0001
0000
0010
0000
1000
0000
,
0100
0000
0000
0010
0000
0000
0001
0000
0100
0000
0000
0010
0000
0000
1000
0000
,
0001
0000
0000
1000
0001
0000
0100
0000
0101
0000
0000
0000
1100
0000
0000
0000
,
0101
0000
0000
1000
0000
0000
0001
0000
0010
0000
0000
0100
0000
0000
1000
0000
,
0010
0000
0000
0100
0000
0000
0001
0000
0010
0000
1000
0000
0010
0000
0001
0000
,
0100
0000
0000
0010
0000
0000
1000
0000
0100
0000
0000
1000
0000
0000
0001
0000
,
0010
0000
0000
0001
0000
0000
1000
0000
1010
0000
0000
0000
0011
0000
0000
0000
,
2020
0000
0030
0001
0002
0000
3000
0100
,
0200
0000
0303
0010
2000
0000
3002
0000
,
0023
0000
0000
0100
0230
0000
0000
1000
,
2300
0000
0001
3002
0000
1000
1003
0000
,
0020
0000
0000
1000
2030
0000
0000
0100
,
3200
0000
0000
0010
0320
0000
0032
0000
,
0203
0000
0000
0001
0302
0000
0000
1000
,
2003
0000
0010
3020
0000
0100
0230
0000
,
0301
0001
1000
1000
,
0010
0010
0100
0100
,
0001
0010
0100
1000
,
0010
0000
1000
0001
0000
1000
0001
0000
,
0100
0010
1000
0100
,
1000
0010
0100
0001
,
0010
0000
0000
0001
0000
0000
1000
0000
0001
0000
0000
0100
0000
0000
0010
0000
,
1000
0100
1000
0001
0010
1000
0010
0001
,
0100
0000
0000
0010
1000
0000
0000
0000
0001
0000
0010
0000
0001
0000
1000
0000
,
0100
0000
0000
0010
0001
0000
0000
0000
1001
0000
0000
0000
0110
0000
0000
0000
,
1001
0000
0000
0010
1000
0000
0000
0000
0100
0000
1000
0001
1000
0000
0000
0000
,
0010
0100
0010
0100
0101
0000
1100
0000
,
1001
0000
0000
0100
0010
0000
0000
0000
0001
0000
1000
0010
1000
0000
0000
0000
,
0100
1000
0100
1000
1100
0000
0110
0000
,
0011
0000
0000
1000
0001
0000
0000
0000
0100
0000
0010
1000
0010
0000
0000
0000
,
1000
0001
1000
0001
0010
0100
0010
0100
,
1000
0000
0000
0010
0000
0000
0100
0000
0001
0000
0000
0010
0000
0000
0001
0000
,
1000
0000
0000
0001
0000
0000
0010
0000
0001
0000
0000
0100
0000
0000
0010
0000
,
1000
0000
0000
0100
0000
0000
1000
0000
0010
0000
0000
0100
0000
0000
0001
0000
,
0010
0000
0000
0001
0000
0000
1000
0000
0100
0000
0010
0000
0001
0000
0000
0000
,
0010
0000
0000
0100
0000
0000
0010
0000
0001
0000
0000
0100
0000
0000
0001
0000
,
1000
0000
0000
0010
0000
0000
1000
0000
0100
0000
0000
0010
0000
0000
0001
0000
,
1000
0000
0000
0001
0000
0000
0010
0000
0001
0000
0000
0100
0000
0000
0010
0000
,
1000
0000
0000
0100
0000
0000
1000
0000
0002
0000
0000
0000
0103
0000
0010
0000
,
0110
0000
0000
0000
1000
0000
0001
0000
0010
0000
0000
0100
1000
0000
0001
0000
,
0100
0000
0000
0010
1000
0000
0000
0000
0001
0000
1000
0000
0010
0000
0100
0000
,
0010
0000
0000
1000
0000
0000
0001
0000
0010
0000
0000
0100
0000
0000
1000
0000
,
0010
0000
0000
1000
0000
0000
0100
0000
0001
0000
0100
0000
1000
0000
0010
0000
,
0100
0000
0000
0001
0000
0000
0010
0000
0001
0000
0000
0100
0000
0000
0010
0000
,
1000
0000
0000
0100
0000
0000
0010
0000
1000
0000
0010
0000
0001
0000
0100
0000
,
0010
0000
0000
1000
0000
0000
0100
0000
1000
0000
0000
0001
0000
0000
0100
0000
,
0010
0000
0000
0100
0000
0000
0001
0000
1000
0000
0010
0000
1000
0000
0001
0000
,
0100
0000
0000
0000
1010
0000
0000
1010
0000
0000
0101
0000
0000
1100
0000
0000
,
0001
0100
0010
1000
0100
0010
0002
0000
,
1003
0010
1000
0100
0010
0001
0100
0010
,
1000
0000
0100
0000
0110
0000
0000
0110
0000
0000
0001
0000
0100
0010
0100
0010
,
0100
0000
0000
0001
1000
0000
0000
0000
0010
0000
1000
0000
0100
0000
0000
0000
,
1010
0000
0101
0000
0001
0010
0100
0000
,
1100
0000
0011
0000
1000
0001
0100
0000
,
0010
1000
0000
0010
0100
0000
0000
0000
0101
0000
0000
1100
0000
0000
1001
0000
,
1001
0000
0000
0000
;

//---------------dance-single - ----------------
#NOTES:
     dance-single:
     :
     Hard:
     16:
     :
0000
0000
0000
0000
,
0000
0000
0000
0000
,
0000
0000
0000
0000
,
0000
0000
0000
0000
,
0000
0000
0000
0000
,
0000
0000
0000
0000
,
0000
0000
0000
0000
,
0000
0000
0000
0000
,
0000
0000
0000
0000
,
0011
0000
0000
0001
0100
0000
0000
0000
0010
1000
0100
1000
0010
0000
0000
0000
,
1100
0000
0000
1000
0010
0000
0000
0000
0100
0001
1000
0001
0100
0000
0000
0000
,
0110
0000
0000
0001
1000
0000
0000
0000
0100
0010
0001
0010
0100
0000
0000
0000
,
1000
0010
1000
0010
1000
0010
1000
0000
0001
0010
0001
0010
0001
0010
0001
0000
,
0100
0001
1000
0010
1000
0010
0100
0001
,
1000
0100
0010
0100
1000
0001
0001
0010
,
0010
0100
1000
1000
0001
0010
0100
0001
,
1000
0100
0001
1000
0010
0001
0010
0100
,
0001
0100
0010
0010
1000
0100
0001
1000
,
0100
0010
0001
0001
1000
0010
1000
0100
,
0001
0100
1000
0100
0010
0001
1000
0010
,
0100
0001
0000
1000
0100
0000
0010
0001
0000
1000
0010
0000
1000
0100
0010
0001
,
0100
0000
0010
1000
0000
1000
0010
0100
0000
0000
0001
0010
0000
0010
0001
1000
,
0000
0000
0100
0010
0000
0010
0001
0100
0001
1000
0001
1000
0001
0010
0100
1000
,
0000
0000
0100
1000
0000
1000
0001
0010
0000
0000
0001
0100
0000
0100
0010
1000
,
0100
1000
0000
0001
0000
1000
0100
0000
0010
0001
0010
0000
0001
1000
0010
0100
,
0001
0000
0010
0001
0000
1000
0100
0000
0000
0000
1000
0010
0000
1000
0001
0100
,
0000
0000
0010
1000
0000
0001
1000
0100
1000
0010
0100
0010
1000
0001
0010
0100
,
0000
0000
1000
0100
0000
0100
1000
0001
0000
0000
0010
0001
0000
0001
1000
0010
,
0100
0001
0100
0001
0010
0100
1000
0000
0001
1000
0001
0000
0100
0010
1000
0001
,
1000
0100
0000
1000
0010
0100
0000
0100
,
0001
0010
0000
0001
1000
0000
1000
0100
,
1000
0010
0000
0100
0010
1000
0000
0100
,
0010
0000
0001
0100
0000
0010
1000
0000
,
1001
0010
0000
0100
0001
1000
0000
0100
,
1000
0001
0000
0010
0100
0000
0100
1000
,
0001
1000
0000
0010
1000
0100
0000
1000
,
0001
0000
0100
0010
0000
1000
0001
0000
,
1000
0010
0000
0000
1000
0010
0000
0000
0100
0001
0000
0000
0100
0001
0000
0000
,
1000
0100
0000
0000
1000
0100
0000
0000
0010
0001
0000
0000
0010
0001
0000
0000
,
1000
0001
0000
0000
1000
0001
0000
0000
0100
0010
0000
0000
0100
0010
0000
0000
,
1000
0010
0000
0000
0100
0001
0000
0000
1000
0100
0000
0000
0010
0001
0000
0000
,
0100
0000
0001
0010
0000
0001
0010
0000
0100
0000
1000
0001
0000
1000
0001
0000
,
0100
0010
0000
1000
0001
0000
0001
0010
,
0100
0000
1000
0010
0000
1000
0010
0000
0100
0001
0100
0001
1000
0001
0010
0100
,
1000
0010
0000
1000
0010
0000
0100
0000
0001
0010
0001
1000
0100
1000
0010
0000
,
0100
0000
0001
0010
1000
0000
0000
0000
0100
1000
0100
1000
0001
0100
0010
0000
,
1000
0100
0000
1000
0001
0000
0000
0000
0100
0010
0100
0000
0001
1000
0010
0000
,
0100
0001
0000
0010
0001
1000
0000
0000
0010
0100
0010
0100
0010
1000
0001
0000
,
1000
0100
1000
0100
1000
0100
1000
0000
0001
0100
0001
0100
0001
0100
0001
0000
,
0010
0001
0000
1000
0100
0000
0000
0000
1000
0001
0100
0001
0010
0100
1000
0000
,
0010
0100
0010
0100
0010
0100
0010
0100
0001
0010
0001
0000
1000
0010
1000
0000
,
0100
1000
0000
0010
0001
0100
0000
0010
1000
0001
1000
0001
1000
0100
0010
0001
,
0010
0100
0010
0001
0010
0100
1000
0000
0010
0100
0001
0000
0001
0000
0001
1000
,
0100
0000
0010
0001
0010
0000
0100
0000
1000
0000
0001
0100
0001
0000
0010
0000
,
0100
1000
0010
1000
0100
0000
0010
0000
0001
0100
0001
0010
0001
0000
1000
0000
,
0010
0000
1000
0001
1000
0000
0100
0000
0010
0000
0001
0100
0001
0000
1000
0000
,
0100
0010
0001
0010
0100
0000
1000
0000
0001
1000
0100
1000
0001
0000
0010
0000
,
0100
0000
1000
0001
0010
0000
0001
0000
0100
0000
0010
1000
0001
0000
0100
0000
,
0001
1000
0010
1000
0100
0000
0010
0000
0001
1000
0100
0010
0001
0000
0100
0000
,
0010
0000
1000
0100
0010
0000
0001
0000
1000
0000
0001
1000
0010
0000
0100
0000
,
0001
0010
0000
0010
0001
1000
0010
0000
0100
0001
0100
0001
1000
0010
1000
0001
,
0100
0000
0010
0000
1000
0100
1000
0000
0001
0100
0010
0100
0001
0010
0100
0000
,
1000
0001
0000
0000
1000
0100
0010
0000
0001
0100
0001
0000
0010
0001
1000
0100
,
0010
0000
0001
0100
0000
0010
1000
0000
0100
1000
0100
1000
0000
0001
0010
0000
,
0100
0000
1000
0001
0000
0100
0010
0000
1000
0000
0001
0010
0001
0010
0100
1000
,
0010
0000
1000
0001
0000
0001
0010
0000
0001
0000
0100
0010
0000
0010
1000
0000
,
0100
1000
0001
0000
0100
0001
1000
0001
0100
0000
0010
0000
1000
0100
1000
0001
,
0010
0000
0100
1000
0100
1000
0001
0000
0100
0010
0100
0010
1000
0001
0100
0010
,
1000
0000
0100
0010
0000
0010
0001
0000
1000
0100
0010
0100
1000
0000
0001
1000
,
0200
0000
0000
0000
1300
0001
1000
0001
0000
0000
0101
0000
0000
1100
0000
0000
,
0010
1000
0100
0000
0100
0000
1000
0001
0000
0000
0010
0001
0100
0000
0010
1000
,
0100
0000
1000
0001
0020
0000
0000
0001
0000
0031
0000
1000
0010
1000
0001
0000
,
0100
0000
0000
0000
0010
0000
0000
0000
0100
0000
0000
0000
0010
0000
0000
0000
0000
0000
0000
0000
0000
1010
0000
0000
0000
0000
0000
0000
0000
0000
0101
0000
0000
0000
0000
0000
1000
0000
0000
0001
0000
0000
1000
0000
0000
0001
0000
0000
,
0100
0000
0000
0010
1000
0000
0000
0000
0100
1000
0001
0010
0001
0000
0000
0000
,
0110
0000
0000
0010
1000
0000
0000
0000
0100
1000
0001
0010
0100
0000
0000
0000
,
0011
0000
0000
0100
0010
0000
0000
0000
1000
0001
0010
0001
1000
0000
0000
0000
,
0010
0100
0000
0001
1000
0000
0000
0000
0011
0000
0000
0110
0000
0000
1100
0000
,
1001
0000
0000
0000
;

//---------------dance-single - ----------------
#NOTES:
     dance-single:
     :
     Challenge:
     18:
     :
0000
0000
0000
0000
,
0000
0000
0000
0000
,
0000
0000
0000
0000
,
0000
0000
0000
0000
,
0000
0000
0000
0000
,
0000
0000
0000
0000
,
0000
0000
0000
0000
,
0000
0000
0000
0000
,
0000
0000
0000
0000
,
0100
0010
0000
1000
0100
0000
0000
0000
1000
0001
0010
0001
0100
0000
0000
0000
,
0010
1000
0000
0100
0010
0000
0000
0000
0001
0100
0001
1000
0010
0000
0000
0000
,
0100
0001
0000
1000
0100
0000
0000
0000
0010
0001
1000
0001
0100
0000
0000
0000
,
0001
0010
0001
0010
0001
0010
0001
0010
1000
0010
1000
0010
1000
0010
1000
0010
,
0001
0100
0010
0100
1000
0100
0001
0010
,
1000
0000
0010
0000
0100
0000
0010
0000
0001
1000
0100
1000
0001
0000
0010
0000
,
0100
0001
0100
0010
0100
1000
0010
0001
,
0010
0000
0100
0000
1000
0000
0100
0000
0001
0010
0001
1000
0010
0000
0100
0000
,
0010
1000
0010
0001
0010
0100
0001
0100
,
0010
0000
0001
0000
0010
0000
1000
0000
0100
0010
0001
1000
0010
0000
0100
0000
,
1000
0100
0010
1000
0100
0001
0100
0010
,
0100
0000
1000
0000
0001
0000
0100
0000
0010
1000
0010
0000
1000
0001
0010
0100
,
1000
0000
0010
0100
0000
0100
0001
1000
0001
0000
1000
0010
0000
0010
0100
0001
,
0010
0000
0100
1000
0000
1000
0010
0100
0001
0010
0001
1000
0001
0010
0001
0100
,
0010
0000
1000
0001
0000
0001
0100
0010
1000
0000
0100
1000
0000
1000
0001
0010
,
0100
0010
0000
0001
0000
0001
1000
0010
0100
0001
1000
0010
1000
0100
1000
0010
,
0100
0000
0001
0010
0000
0010
0100
1000
0010
0000
1000
0001
0000
0001
0010
0100
,
1000
0000
0010
1000
0000
1000
0001
0010
0100
0010
0100
1000
0010
0100
0001
0010
,
0001
0000
0100
0001
0000
0001
1000
0010
0100
1000
0100
0010
0100
0001
0010
1000
,
0010
0100
0010
0001
0000
0001
1000
0010
0100
0001
1000
0001
0010
1000
0010
0100
,
2000
0100
0000
3100
0020
0001
0000
0031
,
0200
0010
0000
0301
0102
0000
1003
0100
,
2000
0001
0000
3001
0020
0100
0000
0130
,
1200
0000
0001
0001
0000
1000
1300
0000
,
2001
0001
0000
3100
0002
1000
0000
0013
,
0200
0001
0000
1300
1020
0000
0130
0001
,
0020
1000
0000
0130
2000
0010
0000
3001
,
0201
0000
1000
1000
0000
0001
0301
0000
,
1000
0100
0000
0000
0100
0001
0000
0000
0001
0010
0000
0000
0010
1000
0000
0000
,
1000
0001
0000
0000
0001
0010
0000
0000
0010
0100
0000
0000
0100
1000
0000
0000
,
1000
0010
0000
0000
0010
0100
0000
0000
0100
0001
0000
0000
0001
1000
0000
0000
,
1000
0100
0000
0000
0010
0001
0000
0000
1000
0001
0000
0000
0100
0010
0000
0000
,
1000
0100
0010
0001
0010
0100
1000
0000
0001
0010
0100
1000
0100
0010
0001
0000
,
0100
1000
0100
0010
0100
0001
0100
0000
0110
0000
0001
1000
0001
0000
0100
0000
,
0010
0000
1000
0001
0000
0001
0010
0100
1000
0010
1000
0001
1000
0100
0010
0001
,
0100
0010
0000
0100
0001
0000
0010
0000
0001
1000
0100
1000
0010
1000
0001
0100
,
0010
0000
1000
0100
0000
1000
0001
0000
0100
0010
0100
1000
0100
0001
0010
0000
,
0100
0000
1000
0001
0010
0001
0100
0000
0001
1000
0010
1000
0001
0010
0100
0000
,
1000
0010
0001
0010
1000
0010
0000
0000
0100
1000
0100
0001
0100
0010
0000
0000
,
1000
0001
0010
0001
1000
0100
0010
0000
0001
0100
1000
0000
1000
0100
0001
0000
,
0010
0100
0010
0001
0100
0010
1000
0000
0100
1000
0001
0010
0001
0100
0010
0000
,
1000
0100
1000
0100
1000
0100
1000
0100
0001
0100
0001
0100
0001
0100
0001
0100
,
1000
0000
0010
0100
0001
0010
0000
0000
0100
1000
0100
1000
0100
0010
0001
1000
,
0001
0100
0010
0100
0001
0100
0010
0000
1000
0100
0010
0100
1000
0100
0010
0001
,
0100
0000
0010
1000
0000
1000
0010
0000
0100
0000
0001
0010
0000
0001
0010
0000
,
0100
1000
0100
1000
0001
0100
0001
0100
0010
1000
0010
1000
0001
0010
0001
0010
,
0100
0000
1000
0001
0000
0001
0100
0000
0010
0000
1000
0100
0000
0100
0010
0000
,
0001
0100
0010
1000
0100
1000
0000
0000
0001
0010
0100
1000
0001
1000
0100
0000
,
0010
0000
0001
0100
0000
0001
0010
0000
0100
0000
1000
0010
0000
1000
0001
0000
,
0010
0000
0001
1000
0000
1000
0100
0000
0010
0001
0010
0001
1000
0010
0100
0001
,
0010
0000
0001
1000
0000
1000
0100
0000
1000
0010
0100
0010
1000
0001
0010
0000
,
0100
0001
0100
0010
0100
1000
0100
0000
1000
0010
0001
0010
2000
0000
0000
0000
,
3001
0010
0001
0100
0001
1000
0001
0000
0010
0100
1000
0010
0000
0100
0001
1000
,
0010
1000
0100
0010
0001
0100
0001
0000
1000
0010
0001
0010
0100
0010
0001
0010
,
1000
0100
1000
0010
0100
0010
1000
0000
0001
0010
0001
0100
0000
0001
0010
0000
,
0100
1000
0010
1000
0100
0010
0001
0000
1000
0001
0010
0001
1000
0001
0100
0000
,
0010
1000
0010
0100
0010
0001
0010
0000
1000
0000
0100
0010
0000
0001
0100
0000
,
0010
1000
0010
0100
0010
1000
0100
0010
0001
0100
0001
0010
0100
1000
0001
0010
,
0100
1000
0001
0010
0001
0100
0010
0000
1000
0001
0010
0001
1000
0010
0100
0000
,
0001
0010
0001
1000
0100
0010
0001
0000
0100
0010
0100
1000
0100
0001
0100
0010
,
0100
0000
0001
0010
1000
0010
0001
0100
0000
0000
0101
0000
0000
1100
0000
0000
,
1000
0010
0100
0000
0100
0000
0001
0010
0000
0000
0001
0100
1000
0000
0001
0010
,
1000
0100
0010
0100
1000
0000
0001
0100
0000
0100
0000
0100
0010
1000
0001
0000
,
1000
0000
0000
0000
0100
0000
0000
0000
0001
0000
0000
0000
1000
0000
0000
0010
0000
0000
0001
0000
0000
0200
0000
0000
0000
0000
0000
0000
0000
0000
0310
0000
0000
0000
0000
0000
1000
0000
0000
0001
0000
0000
1000
0000
0000
0100
0000
0000
,
0010
0001
0000
0001
0100
0000
0000
0000
0010
1000
0001
1000
0010
0000
0000
0000
,
1000
0100
0000
0100
0010
0000
0000
0000
0001
1000
0010
1000
0001
0000
0000
0000
,
1000
0001
0000
0001
0100
0000
0000
0000
0010
1000
0100
0010
0001
0000
0000
0000
,
0100
0001
0000
0001
1000
0000
0000
0000
1010
0000
0000
0101
0000
0000
1100
0000
,
1001
0000
0000
0000
;
