#TITLE:Out of Control;
#ARTIST:nc ft. NRG Factory;
#BANNER:Out of Control-bn.png;
#BACKGROUND:Out of Control-bg.png;
#JACKET:Out of Control-jacket.png;
#MUSIC:Out of Control.ogg;
#SAMPLESTART:72.828;
#SAMPLELENGTH:20;
#DISPLAYBPM:145;
#BPMS:0=145;
#STOPS:78.5=0.414,205.75=0.414;
#BGCHANGES:;

//---------------dance-single - ----------------
#NOTES:
     dance-single:
     :
     Beginner:
     4:
     :
0000
0000
0000
0000
,
0000
0000
0000
0000
,
0000
0000
0000
0000
,
0000
0000
0000
0000
,
1001
0000
0000
0000
,
0000
0000
0000
0000
,
0001
0000
0001
0000
,
1000
0000
1000
0000
,
0110
0000
0010
0000
,
0010
0000
0010
0000
,
0100
0000
0100
0000
,
0100
0000
1001
0000
,
0110
0000
0000
0000
,
0001
0000
0010
0000
,
0001
0000
0100
0000
,
1000
0000
0010
0000
,
1000
0000
0001
0000
,
1000
0000
0100
0000
,
0010
0000
0001
0000
,
0100
0000
0110
1001
,
0000
0000
1000
1000
,
0000
0000
0000
0001
,
0000
0000
0100
0100
,
0000
0000
0000
0010
,
0000
0000
0000
1000
,
1000
0000
0000
0001
,
0001
0000
0000
0100
,
0100
0000
0000
0110
,
0000
0000
0000
0010
,
0010
0000
0000
1000
,
1000
0000
0000
0001
,
0001
0000
0000
1001
,
0000
0100
0000
0010
,
0000
1000
0000
0100
,
0000
0010
0000
0001
,
0000
0100
0000
1001
,
0000
0000
0000
1000
,
1000
0000
0000
0001
,
0001
0000
0000
1000
,
1000
0000
0000
0010
,
0000
0010
0000
0100
,
0000
0100
0000
0010
,
0000
0100
0000
0110
,
0000
0001
0000
1001
,
0000
1000
1000
1000
,
0000
0001
0001
0001
,
0000
0100
0100
0100
,
0000
0010
0010
0010
,
0000
1000
1000
1000
,
0000
0100
0100
0100
,
0000
0010
0010
0010
,
0000
0110
1001
0000
,
0001
0001
0001
0000
,
1000
1000
1000
0000
,
0100
0100
0100
0000
,
0110
0000
0110
0000
,
0100
0100
0100
0000
,
0010
0010
0010
0000
,
0001
0001
0001
0000
,
1000
0000
2002
0000
,
0000
0000
0000
0000
,
0000
3003
0000
0000
;

//---------------dance-single - ----------------
#NOTES:
     dance-single:
     :
     Easy:
     7:
     :
0000
0000
0000
0000
,
0000
0000
0000
0000
,
0000
0000
0000
0000
,
0000
0000
0000
0000
,
1001
0001
0001
0001
,
0001
0001
0001
0001
,
1000
1000
1000
1000
,
1000
1000
1000
1000
,
0110
0010
0010
0010
,
0100
0100
0100
0100
,
0001
0010
0100
1000
,
0002
2000
3003
0000
1001
0000
0110
0000
,
1001
0010
1000
0100
,
1000
0010
1000
0001
,
0010
0100
1000
0010
,
1000
0001
0100
0010
,
0110
0001
0010
0001
,
0100
0010
1000
0001
,
1000
0100
0010
0001
,
0100
0000
0100
0000
0100
0010
1001
0000
,
0100
1000
0010
1000
,
0100
0010
0001
0110
,
0001
0100
0010
1000
,
0001
1000
0100
0110
,
0000
0000
0000
0000
0000
0001
0000
1000
,
0000
0000
0000
0000
0000
0010
0000
0100
,
0000
0000
0000
0000
0000
0001
0000
0010
,
0000
0000
0000
1001
,
0000
0000
0000
0000
0000
1000
0000
0100
,
0000
0000
0000
0000
0000
1000
0000
0010
,
0000
0000
0000
0000
0000
0100
0000
0001
,
0000
0000
0000
0002
,
0103
1000
1000
0020
,
1030
0100
0100
2000
,
3001
0010
0010
0200
,
1300
0001
0010
1001
,
0000
1000
0001
0010
,
0000
0001
0100
1000
,
0000
0010
0100
0010
,
0000
1000
0100
0001
,
0001
0001
0001
1000
,
1000
1000
1000
0001
,
0010
0100
1000
0110
,
0001
0100
0100
0200
,
0310
1000
0001
2000
,
3100
0010
0001
0020
,
0130
1000
0010
0002
,
1003
0001
0010
2001
,
3010
1000
0100
0120
,
0130
0010
0001
1002
,
1003
0001
0100
0210
,
0310
0000
0000
0000
1000
0000
0000
1000
1001
0000
0000
0000
0001
0000
0000
0000
,
0010
0100
0110
0100
,
0010
0001
1001
1000
,
0001
0100
0110
0010
,
1001
0110
1001
0010
,
1000
0100
0110
0001
,
0100
0001
1001
1000
,
0001
1000
0110
0001
,
0100
0010
2002
0000
,
0000
0000
0000
0000
,
0000
3003
0000
0000
;

//---------------dance-single - ----------------
#NOTES:
     dance-single:
     :
     Medium:
     10:
     :
0000
0000
0000
0000
,
0000
0000
0000
0000
,
0000
0000
0000
0000
,
0000
0000
0000
0000
,
1001
0000
0000
0001
0000
0000
1000
0000
0000
0001
0000
0000
1000
0000
0000
0001
,
0000
0000
1000
0000
0000
0001
0000
0000
1000
0000
0000
0001
0000
0000
1000
0000
,
0010
0010
0010
0010
,
0100
0100
0100
0100
,
0110
0000
0000
0010
0000
0000
0100
0000
0000
0010
0000
0000
0100
0000
0000
0010
,
0000
0000
0100
0000
0000
0010
0000
0000
0100
0000
0000
0010
0000
0000
0100
0000
,
0001
0010
0001
0000
1000
0010
1000
0000
,
0002
0000
0000
2000
0000
0000
0000
0000
0000
0000
3003
0000
0010
0000
0000
0100
0000
0000
0010
0000
0000
0000
0000
0000
,
1001
0000
0000
0001
0000
0000
1000
0000
0000
0001
0000
0000
1000
0000
0000
0010
,
0000
0000
0100
0000
0000
0010
0000
0000
0100
0000
0000
0001
0000
0000
1000
0000
,
0010
1000
0000
0100
0000
0010
0000
0001
,
0100
0001
0000
0010
0000
0100
0000
1000
,
0110
0000
0000
0010
0000
0000
0100
0000
0000
0010
0000
0000
0100
0000
0000
1000
,
0000
0000
0001
0000
0000
1000
0000
0000
0001
0000
0000
0100
0000
0000
0010
0000
,
1000
0001
0000
0010
0000
0100
0000
1000
,
0001
0100
0001
0100
0001
0100
1001
0010
,
0100
0000
0000
0000
0001
0010
0001
1000
,
0100
0000
1000
0001
0100
0000
0110
0010
,
1000
0000
0000
0000
0001
0100
0001
0010
,
0001
0100
0010
1000
0001
0000
1000
0100
,
0001
0000
0010
0000
0100
1100
0000
0101
,
0000
0010
0000
0001
0000
0101
0000
1100
,
0000
0010
0000
1000
0000
1001
0000
0110
,
0000
0010
0000
1000
0001
0100
0001
0010
,
1000
0000
0100
0000
0010
0011
0000
1010
,
0000
0001
0000
1000
0000
1010
0000
0011
,
0000
0100
0000
0010
0000
0110
0000
1001
,
0000
0010
0001
1000
0001
0010
0200
0000
,
1300
0010
1000
0100
0010
0001
0200
0000
,
0301
0010
0001
0100
0010
1000
0002
0000
,
0013
0001
0100
0010
1000
0001
2000
0000
,
3010
1000
0001
1000
0100
0010
0001
0200
,
0000
0000
0000
0300
0000
0101
0000
1010
,
0000
0000
1100
0011
,
0000
0000
1001
0110
,
0010
0000
1000
0000
0100
0000
1000
0100
,
1000
0000
0001
0100
0001
0000
1000
0010
,
1000
0000
0001
0010
0001
0000
0100
0010
,
1000
0001
0100
0010
1000
0001
0011
0000
,
0100
0010
1000
1000
1000
1000
2000
0000
,
3010
1000
0100
0010
0001
0100
0002
0000
,
1003
0001
1000
0100
0010
0001
0200
0000
,
0310
1000
0001
1000
0100
0010
0002
0000
,
0103
0001
0010
0001
0100
0010
2000
0000
,
3001
1000
0001
1000
0100
0010
0002
0000
,
0103
0001
0010
0100
1000
0001
0020
0000
,
0031
0100
0010
1000
0100
0010
0002
0000
,
1003
0000
0001
0000
1001
0000
0000
1001
0120
0000
0000
0000
1030
0000
0010
0000
,
1000
0100
0010
0001
0200
0000
0301
0010
,
0001
0100
0010
1000
0200
0000
1300
0010
,
1000
0001
1000
0100
0020
0000
0031
0100
,
2001
0000
0001
0001
3002
0000
0013
0001
,
1000
0001
1000
0100
0020
0000
0031
1000
,
0010
1000
0001
0010
0200
0000
0310
0001
,
0100
0010
1000
0001
2000
0000
3100
0010
,
0001
0100
0010
1000
0001
2200
0000
0000
,
0000
0000
0000
0000
,
0000
3300
0000
0000
;

//---------------dance-single - ----------------
#NOTES:
     dance-single:
     :
     Hard:
     13:
     :
0000
0000
0000
0000
,
0000
0000
0000
0000
,
0000
0000
0000
0000
,
0000
0000
0000
0000
,
1001
0000
0000
0001
0000
0000
1000
0000
0000
0100
0000
0000
0010
0000
0000
0100
,
0000
0000
1000
0000
0000
0010
0000
0000
0100
0000
0000
0001
0000
0000
1000
0000
,
0010
0000
0000
0000
0010
0000
1000
0100
0000
1000
0100
0000
0000
0010
0000
0000
,
0010
0000
0000
0000
0010
0000
0001
0100
0000
0001
0100
0000
0000
0010
0000
0000
,
0110
0000
0000
0001
0000
0000
0010
0000
0000
0100
0000
0000
1000
0000
0000
0001
,
0000
0000
1000
0000
0000
0010
0000
0000
0100
0000
0000
0001
0000
0000
0010
0000
,
0001
0100
0010
0100
1000
0010
1000
0001
,
0010
0000
0000
2200
0000
0000
0000
0000
0000
0000
3300
0000
0101
0000
0000
0001
0000
0000
0100
0000
0000
0000
0000
0000
,
1001
0000
0000
0010
1000
0000
0000
1000
0100
0000
0000
0100
0010
0000
0000
0010
,
0001
0000
0000
0001
1000
0000
0000
1000
0001
0000
0000
0001
0100
0000
0000
0100
,
0010
0000
0000
0010
0100
0000
0000
0100
1000
0000
0000
1000
0010
0000
0000
0010
,
1000
0000
0000
1000
0100
0000
0000
0100
0010
0000
0000
0010
0001
0000
0000
0001
,
0100
0010
1000
0010
0100
0001
1000
0000
,
0001
0000
0000
1000
0000
0000
0001
0000
0000
0010
0000
0000
0100
0000
0000
1000
,
0000
0000
0010
0000
0000
1000
0000
0000
0100
0000
0000
0010
0000
0000
0001
0000
,
1000
0000
0100
0000
0010
0000
0001
0000
0100
0000
1010
0000
0001
1000
0001
1000
,
0000
0000
0010
0000
1000
0000
0100
0000
1000
0001
1000
0001
0000
0000
0100
0000
,
0010
0000
1000
0100
0000
1000
0100
0000
0010
0000
0001
0000
0100
0010
0100
0010
,
0000
0000
1000
0000
0010
0000
0100
0000
0001
1000
0001
1000
0000
0000
0100
0000
,
0010
0000
0001
0100
0000
0001
0100
0000
0001
1000
0001
0000
1000
0100
1000
0100
,
0000
0000
0010
0000
0001
0000
1000
0000
0010
0100
0010
0100
0000
0000
0001
0000
,
0010
0000
0001
1000
0000
0001
1000
0000
0100
0000
0010
0000
0001
1000
0001
1000
,
0000
0000
0100
0000
0010
0000
0001
0000
0100
0010
0100
0000
0000
0000
0101
0000
,
1000
0000
0100
0010
0000
0100
0010
0000
0001
0000
1000
0000
0010
1000
0010
1000
,
0000
0000
0001
0000
1000
0000
0100
0000
0010
0001
0010
0000
0000
0000
0011
0000
,
0100
0000
0001
0010
0000
0001
0010
0000
0100
0000
1000
0000
0010
0100
0010
0100
,
0000
0000
0001
0000
0010
0000
0100
0000
1000
0000
0010
0100
0000
0010
0100
0000
,
0001
0000
0010
0000
0100
0000
1000
0000
0001
0100
0001
0100
0001
0000
1000
0001
,
0000
0000
0010
0000
0100
0000
1000
0000
0010
0000
0100
0002
0000
0000
0010
0000
,
0010
0000
0013
0000
0001
0000
1000
0000
0100
1000
0100
0000
0010
0000
0001
0000
,
1000
0000
0010
0000
1000
0000
0100
0000
1000
0001
1000
0002
0000
0000
0100
0000
,
0100
0000
0103
0000
0010
0000
1000
0000
0001
0010
0001
0010
0002
0000
0000
0000
,
0100
0000
1000
0000
0103
0110
0000
1001
,
0000
0000
0000
0000
1000
0100
0002
0000
,
0010
0000
1000
0000
0013
0001
0200
0000
,
0010
0000
1000
0000
0301
0000
1000
0100
,
0010
0100
0001
1000
0001
0010
1000
0010
,
0001
0100
1000
0010
0100
0001
0010
1000
,
0001
0100
0001
0100
0010
1000
1100
0000
,
0001
0000
0100
0000
1000
0001
1000
0001
1000
0001
1000
0001
2000
0000
0000
0000
,
3010
0000
0100
0000
0001
0000
0010
0000
0100
1000
0100
2000
0000
0000
0000
0000
,
3010
0000
1000
0000
0001
0000
0010
0000
0001
0100
0001
0200
0001
0000
0000
0000
,
0301
0000
0010
0000
0001
0000
0100
0000
1000
0010
1000
0020
0000
0000
0000
0000
,
0130
0000
0010
0000
1000
0000
0100
0000
1000
0001
1000
0001
2000
0000
0000
0000
,
3100
0000
0010
0000
0100
0000
1000
0000
0001
0010
0001
0020
0000
0000
0000
0000
,
0031
0000
0100
0000
1000
0000
0001
0000
0100
0010
0100
0020
0100
0000
0000
0000
,
1030
0000
0001
0000
1000
0000
0100
0000
0010
0001
0010
0001
0020
0000
0000
0000
,
0031
0000
0100
0000
1010
0000
0000
0101
2001
0000
0000
0000
3010
0000
1000
0000
,
0100
0000
0010
0000
0001
0100
0010
2000
0000
0000
0000
0000
3100
0000
0010
0000
,
0001
0000
0100
0000
1000
0010
0100
0010
2000
0000
0000
0000
3001
0000
1000
0000
,
0100
0000
0010
0000
0001
0100
0001
0100
0002
0000
0000
0000
0013
0000
0100
0000
,
1001
0000
1001
0110
1002
0000
0013
0001
,
0100
0000
0010
0000
1000
0100
0010
0002
0000
0000
0000
0000
1003
0000
0001
0000
,
0010
0000
0001
0000
0100
0010
1000
0010
0200
0000
0000
0000
0310
0000
1000
0000
,
0100
0000
0010
0000
0001
1000
0010
0200
0000
0000
0000
0000
0301
0000
0010
0000
,
0001
0000
0100
0000
0010
1000
0001
0100
0010
0000
2200
0000
0000
0000
0000
0000
,
0000
0000
0000
0000
,
0000
3300
0000
0000
;
