#TITLE:Open Your Eyes;
#ARTIST:NM feat.JaY_bEe (JB Ah-Fua);
#BANNER:Open Your Eyes.png;
#BACKGROUND:Open Your Eyes-bg.png;
#JACKET:Open Your Eyes-jacket.png;
#MUSIC:Open Your Eyes.ogg;
#SAMPLESTART:51.91;
#SAMPLELENGTH:20;
#DISPLAYBPM:82;
#BPMS:0=82;
#BGCHANGES:;

//---------------dance-single - ----------------
#NOTES:
     dance-single:
     :
     Beginner:
     3:
     :
0000
0000
0000
0000
,
0000
0000
0000
0000
,
0000
0000
0000
0000
,
0000
0000
0000
0000
,
0000
0000
0000
0000
,
0000
0000
0000
0000
,
0010
0000
1000
0000
,
0100
0100
0100
0000
,
0010
0000
0001
0000
,
1000
0000
0010
0000
,
0010
0000
1000
0000
,
0100
0100
0100
0000
,
0010
0000
0001
0000
,
1000
0000
0010
0000
,
0001
0000
0000
1000
,
1000
0000
0000
0001
,
0001
0000
1000
1000
,
1000
0000
0001
0001
,
0001
0000
0000
0000
,
1000
0000
0100
0000
,
1000
0000
0000
0000
,
0001
0000
0100
0100
,
0100
0000
0000
0000
,
1000
0000
0001
0000
,
0100
0000
0000
0000
,
1000
0000
0100
0100
,
0100
0000
1000
0000
,
0001
0001
1000
0000
,
1000
1000
0001
0000
,
1000
1000
0001
0000
,
0100
0000
0010
0000
;

//---------------dance-single - ----------------
#NOTES:
     dance-single:
     :
     Easy:
     5:
     :
0000
0000
0000
0000
,
0000
0000
0000
0000
,
0000
0000
0000
0000
,
0000
0000
0000
0000
,
0000
0000
0000
0000
,
0000
0000
0000
0000
,
0010
0010
1000
0000
,
0100
0100
0010
0001
,
1000
1000
0100
0000
,
1000
1000
0010
0000
,
0010
0010
0001
0000
,
0100
0100
0010
1000
,
0001
0001
0100
0000
,
0001
0001
0010
0000
,
0020
0000
0030
0000
,
0020
0000
0030
0000
,
0010
1000
0010
0100
,
0010
0001
0010
0000
,
0100
0010
0000
1000
,
0010
1000
0001
0100
,
0100
0010
0000
0001
,
0010
0001
1000
0100
,
0020
0000
0030
0000
,
0010
0100
0000
1000
,
0100
1000
0001
0010
,
1001
0000
0110
0000
,
1001
0000
1000
0010
,
0000
0010
0001
0100
,
0000
0100
1000
0010
,
0000
0010
1000
0100
,
0010
0001
2000
0002
,
0000
0000
0000
0000
,
3003
0000
0000
0000
;

//---------------dance-single - ----------------
#NOTES:
     dance-single:
     :
     Medium:
     7:
     :
0000
0000
0000
0000
,
0000
0000
0000
0000
,
0000
0000
0000
0000
,
0000
0000
0000
0000
,
0000
0000
0000
0000
,
0000
0000
0000
0000
,
1000
0000
0100
0000
0010
0000
0001
0100
,
1000
0010
0100
0001
,
1010
0000
0000
0101
0000
1000
0100
0010
,
0100
0000
0100
0010
0000
0001
1000
0000
,
0001
0000
0100
0000
0010
0000
1000
0100
,
0001
0010
0100
1000
,
0011
0000
0000
1100
0000
0001
0100
0010
,
1000
0000
0100
0010
0000
0010
0100
0010
,
0002
0000
0000
0000
0003
1000
0100
0010
,
0002
0000
0003
0010
0200
0000
0300
0000
,
1000
0000
0101
0000
0010
0001
0100
1000
,
0100
0000
1010
0000
0011
0100
1010
0100
,
2001
0010
0100
3010
,
0110
0001
1000
0110
,
2001
0010
0100
3010
,
0011
0100
1010
0101
,
0220
0000
0000
0330
,
1002
0010
0100
0013
,
0110
1000
0001
0110
,
1002
0010
0100
0013
,
0001
0000
0100
0000
0010
0000
1000
0000
0001
0000
0000
0000
0011
0000
0000
0100
,
0000
0000
0100
0000
0010
0000
0000
0000
1000
0000
0000
0000
1100
0000
0000
0010
,
0000
0000
0010
0000
0100
0000
0000
0000
1000
0000
0000
0000
1010
0000
0000
0100
,
0000
0100
0010
0000
0001
0000
0101
0000
,
1010
0010
0110
0001
2000
0000
0200
0000
,
0000
0000
0000
0000
,
3300
0000
0000
0000
;

//---------------dance-single - ----------------
#NOTES:
     dance-single:
     :
     Hard:
     9:
     :
0000
0000
0000
0000
,
0000
0000
0000
0000
,
0000
0000
0000
0000
,
0000
0000
0000
0000
,
0000
0000
0000
0000
,
0000
0000
0000
0000
,
0010
0000
1000
0000
0010
0001
0010
1000
,
0010
1000
0001
0000
1000
0000
0101
0000
,
1000
0000
0010
0000
1000
0100
0010
0001
,
1000
0000
0100
0110
0000
0001
1001
0000
,
0100
0000
1000
0000
0100
0001
0100
1000
,
0100
1000
0001
0000
1000
0000
0011
0000
,
1000
0000
0100
0000
1000
0010
0100
0001
,
1000
0000
0100
0110
0000
1000
0010
0001
,
0010
0000
0000
1000
0100
0000
0000
0001
0000
0000
0001
0000
0100
0000
1000
0000
,
0010
0000
0000
1000
0100
0000
0000
0001
0000
0000
0001
0000
0100
0000
1000
0000
,
0100
0000
0000
0001
0010
0000
0000
1000
0000
0000
1000
0000
0010
0000
0001
0000
,
0010
0000
0000
0000
0100
0000
0100
0000
0001
0010
0100
1000
0001
0010
0100
1000
,
0001
0000
0000
0010
0100
0000
0000
1000
0000
0000
1000
0000
0100
0000
0001
0000
,
1000
0000
0000
0100
0110
0000
0000
0010
0000
0000
0010
0000
0110
0000
0000
0000
,
0001
0000
0000
0100
0010
0000
0000
1000
0000
0000
1000
0000
0010
0000
0001
0000
,
1000
0000
0000
0100
0010
0000
1000
0000
1100
0000
0001
0000
0011
0000
0010
0000
,
0120
0000
0000
0000
0001
0000
0000
0100
0000
0000
0100
0000
0031
0000
0000
0000
,
1000
0000
0000
0100
0010
0000
0000
0001
0000
0000
0001
0000
0010
0000
1000
0000
,
0001
0000
0000
0010
0110
0000
0000
0100
0000
0000
0100
0000
0110
0000
1000
0000
,
1010
0000
0000
0110
0000
0000
0000
0101
0000
0000
0010
0000
0100
0000
1000
0000
,
0010
0001
0010
0100
0010
1000
0100
0010
0001
0000
0000
0100
0001
0000
0000
1000
,
0000
0000
0100
0000
0100
0000
0010
0001
0100
0000
0000
0100
0010
0000
0000
1000
,
0000
0000
1000
0000
1100
0000
0010
1000
0100
0000
0000
0100
1000
0000
0000
0001
,
0000
0000
0100
0000
0100
0000
0010
1000
0100
0000
0000
1000
0001
0000
0100
0000
,
0010
1000
0001
0100
0010
1000
0001
0100
0002
0000
0000
0000
0200
0000
0000
0000
,
0000
0000
0000
0000
,
0303
0000
0000
0000
;

//---------------dance-single - ----------------
#NOTES:
     dance-single:
     :
     Challenge:
     12:
     :
0000
0000
0000
0000
,
0000
0000
0000
0000
,
0000
0000
0000
0000
,
0000
0000
0000
0000
,
0000
0000
0000
0000
,
0000
0000
0000
0000
,
1010
0000
0000
0001
0000
1000
0000
0000
0100
0000
0000
0010
0000
0000
0001
0000
,
0101
0000
0000
0000
0000
0000
0010
0000
0000
0000
1000
0000
0000
0000
0000
0000
1100
0000
0000
0000
0000
0000
0000
0000
0001
0000
0000
1000
0000
0000
0001
0000
,
0010
0000
0100
1000
0000
1000
0002
0000
0000
0000
0103
0000
0110
0000
0001
0010
,
0001
0000
0100
0000
1000
0000
2001
0000
0000
0000
3001
0000
0011
0000
0000
0100
,
0010
0000
1000
0001
0000
0010
0000
0000
0001
0000
0000
0100
0000
0000
1000
0000
,
0010
0000
0000
0000
1000
0000
0001
0000
0000
0000
0100
0000
0010
0000
0000
0000
0101
0000
0000
0000
0000
0000
0000
0000
1000
0000
0000
0001
0000
0000
1000
0000
,
0100
0000
0010
0001
0000
1000
0000
0020
0000
0000
0130
0000
0110
0000
0001
1000
,
0001
0000
0000
0000
0010
0000
0000
0000
1000
0000
0000
0000
0100
0000
0000
0000
1001
0000
0000
0000
1000
0000
0010
0100
0010
0000
1000
0000
0001
0000
0000
0000
,
0011
0000
0001
0100
0010
0000
1000
0100
0000
1000
0001
0000
0010
0001
0100
0000
,
1010
0000
1000
0000
0100
0000
0010
0001
0100
0010
1000
0000
1100
0000
0001
0000
,
0010
0000
0000
0000
0001
0000
0100
0000
0010
0000
1000
0000
0001
0000
1000
0000
0000
0000
0100
0000
0010
0000
0001
0000
1000
0000
0000
0100
0000
0000
1000
0000
,
0010
0000
0100
0001
1000
0000
0100
0010
0001
0001
1000
1000
0010
0010
0100
0100
,
0110
0000
0000
0000
0001
0000
0010
0000
1000
0000
0100
0000
1000
0000
0001
0000
0000
0000
0001
0000
0100
0000
0000
0000
0010
0000
0000
1000
0000
0000
0001
0000
,
1000
0000
0100
0000
0010
0000
0001
0000
0010
0000
1000
0000
0010
0000
0100
0000
0000
0000
0100
0000
1100
0000
0000
0000
0001
0000
0000
1000
0000
0000
0010
0000
,
0101
0000
0000
0000
1000
0000
0001
0000
0010
0000
0001
0000
0100
0000
0000
0000
0010
0000
1000
0000
0100
0000
0000
0000
1000
0000
0000
0001
0000
0000
0010
0000
,
0011
0000
0001
1000
0000
0010
0100
0000
0001
0001
0010
0010
0100
0100
1000
1000
,
1010
0000
0000
0000
1000
0000
0100
0000
0010
0000
0001
0000
0100
0000
1000
0000
0000
0000
0010
0000
0100
0000
0000
0000
0001
0000
0000
1000
0000
0000
0100
0000
,
0010
0000
0001
0000
0010
0000
1000
0000
0010
0000
0100
0000
0010
0000
0001
0000
0000
0000
0100
0000
0010
0000
0000
0000
1000
0000
0000
0100
0000
0000
0001
0000
,
1001
0000
0000
0000
0001
0000
0100
0000
0010
0000
0100
0000
0001
0000
1000
0000
0000
0000
0010
0000
1000
0000
0000
0000
0100
0000
0000
0010
0000
0000
0001
0000
,
0011
0000
1000
1100
0000
1010
0000
0101
0000
0010
0001
0100
0001
1000
0010
0100
,
0001
0001
0100
0100
0010
0010
1000
1000
1001
0000
1000
0010
1000
0100
0010
0001
,
0100
0000
0010
1000
0000
1000
0001
0000
0110
0000
0001
0010
0100
0010
1000
0010
,
0001
0000
1000
0100
0000
0100
0010
0000
0011
0000
0100
0001
0010
0100
0001
0100
,
1000
0000
0010
1000
0000
1000
0001
0000
1010
0000
1000
0100
0010
0100
0010
0001
,
1000
1000
0001
0001
0100
0100
0010
0010
1000
0100
0010
0001
2000
0000
0002
0000
,
0000
0000
0000
0000
0003
0000
0000
0000
3001
0000
0000
0010
0100
0000
0000
0000
2000
0000
0000
0000
0000
0000
0000
0000
0000
0000
0000
0000
0000
0000
0000
0000
,
0000
3000
0000
0000
;
