#VERSION:0.83;
#TITLE:Onion Ring;
#SUBTITLE:;
#ARTIST:HIROYUKI NAMBA;
#TITLETRANSLIT:;
#SUBTITLETRANSLIT:;
#ARTISTTRANSLIT:;
#GENRE:;
#ORIGIN:;
#TAGS:;
#CREDIT:;
#BANNER:Onion Ring-bn.png;
#BACKGROUND:Onion Ring-bg.png;
#PREVIEWVID:;
#JACKET:Onion Ring-jacket.png;
#CDIMAGE:;
#DISCIMAGE:;
#LYRICSPATH:;
#CDTITLE:;
#MUSIC:Onion Ring.ogg;
#OFFSET:0.000000;
#SAMPLESTART:10.909000;
#SAMPLELENGTH:20.000000;
#SELECTABLE:YES;
#DISPLAYBPM:132.000000;
#BPMS:0.000000=132.000000;
#STOPS:;
#DELAYS:;
#WARPS:;
#TIMESIGNATURES:0.000000=4=4;
#TICKCOUNTS:0.000000=4;
#COMBOS:0.000000=1;
#SPEEDS:0.000000=1.000000=0.000000=0;
#SCROLLS:0.000000=1.000000;
#FAKES:;
#LABELS:0.000000=Song Start;
#BGCHANGES:;
#KEYSOUNDS:;
#ATTACKS:
;

//---------------dance-single - ----------------
#NOTEDATA:;
#CHARTNAME:;
#CHARTHASH:143126330:
#STEPSTYPE:dance-single;
#BANNER:;
#DESCRIPTION:;
#CHARTSTYLE:;
#DIFFICULTY:Hard;
#METER:15;
#METERF:0.000000;
#RADARVALUES:0.747889,0.774734,0.477818,0.872537,0.846569,504.000000,458.000000,46.000000,84.000000,0.000000,0.000000,0.000000,0.000000,0.000000,0.747889,0.774734,0.477818,0.872537,0.846569,504.000000,458.000000,46.000000,84.000000,0.000000,0.000000,0.000000,0.000000,0.000000;
#CREDIT:;
#DISPLAYBPM:132.000000;
#NOTES:
0000
0000
0000
0000
,
0000
0000
0000
0000
,
1001
0000
0000
0000
1000
0001
0000
0010
0000
0010
0100
0000
1000
0000
0001
0000
,
0100
0000
0010
0000
1000
0001
0000
0100
0000
0100
0000
0010
1000
0010
1000
0000
,
1001
0000
0000
0000
0001
0010
0000
0100
0000
0100
1000
0000
0001
0000
0100
0000
,
0010
1000
0010
0000
1000
0100
0000
0001
0000
0001
1000
0000
0010
0100
0001
0000
,
0022
0003
0031
0100
0010
1000
0001
1000
,
0000
0000
1100
0000
0100
0000
1000
0000
0010
1000
0010
0000
0010
0000
0100
0000
,
0202
0000
0300
0000
1003
0000
0001
0000
0000
0000
1100
0000
0000
0000
0010
0100
,
0010
1000
0001
0000
0001
0000
0000
1000
0010
0100
0000
0100
0000
0001
1000
0000
,
2020
0030
3001
0100
0010
1000
0001
1000
,
0000
0000
1100
0000
0010
0000
1000
0000
0001
0100
0001
0000
0001
0000
0010
0000
,
2200
0000
3000
0000
1300
0000
0001
0000
0000
0000
1010
0000
0000
1000
0100
0010
,
0002
0000
0100
0000
0103
0000
0001
0010
0002
0000
1003
0010
2000
0000
3100
0000
,
1000
0000
1000
0000
1000
0010
0000
0010
0200
0000
0302
0000
2003
0000
3002
0000
,
0103
0000
0010
0000
0020
0000
1030
0001
1000
0010
0000
0100
0000
0001
0200
0000
,
0010
0000
0010
0000
0310
1000
0000
1000
0002
0000
0203
0000
0302
0000
2003
0000
,
3010
0000
1000
0000
0200
0000
1300
0001
0100
0010
0000
2000
0000
3002
0100
0000
,
0103
0000
0010
0000
1000
0001
1000
0001
0020
0000
0230
0000
2300
0000
3002
0000
,
0103
0000
1000
0000
2000
0000
3001
0010
0001
0100
0000
0010
0000
1000
0002
0000
,
0010
0000
0013
0000
0001
1000
0001
1000
0200
0000
0320
0000
0032
0000
2003
0000
,
3010
0000
0100
0000
0002
0000
1003
0010
1000
0001
0000
0100
0000
0010
1000
0000
,
1001
0000
0101
0000
1100
1100
0000
0022
,
0030
0000
1000
0000
1003
0001
0000
0100
0000
0100
0010
0000
0100
0000
0001
0000
,
0011
0000
1100
0000
0101
0101
0000
2020
,
0030
0000
3001
1000
0001
1000
0010
0100
0001
0010
0100
1000
0020
0000
0130
0000
,
1000
0001
1000
0001
0000
0010
0000
0110
0000
0110
0000
1000
0000
0002
0000
0000
,
0203
0000
0310
2000
0000
0000
0000
0001
0000
3001
0100
0000
0020
0000
0000
0000
,
1030
0100
1000
0100
0000
0010
0000
0011
0000
0011
0000
1000
0000
0002
0000
0000
,
0203
0000
0310
1000
0000
0002
0000
0010
0000
0013
0100
0000
2000
0000
3001
0000
,
1001
0000
0110
0000
0001
1000
0000
0010
0000
1000
0001
0010
0100
0000
0100
0000
,
2200
0000
0300
0000
3001
0000
2000
0000
3010
0100
0010
0100
0010
0000
1000
0000
,
0001
0000
0012
0000
1003
0001
0000
0200
0000
0310
0100
0000
0002
0000
1003
0000
,
0020
0000
0000
0000
1030
0000
0001
0000
0100
1000
0100
0001
0020
0000
0130
0000
,
0110
0000
1000
0000
1000
0000
0001
0100
0000
0001
0200
0000
0320
0000
1030
0000
,
1001
0000
0100
0000
0010
0000
1000
0001
0000
1000
0002
0000
0023
0000
0130
0000
,
1000
0100
1000
0100
1000
0100
1000
0200
0000
1300
0001
0000
0001
0000
0100
0000
,
0020
1030
0000
0001
0000
0001
0200
0010
0000
0310
1000
0000
0102
0000
1000
0000
,
1003
0000
0020
0000
0230
0001
0000
0001
0000
0310
1000
0001
1000
0100
0010
0000
,
0001
0000
0001
0000
0001
0000
1000
0020
0000
1030
0100
1000
0020
0000
0130
0000
,
0110
0000
0000
0001
1000
0001
0200
0000
0310
0100
0000
0001
0000
0001
0000
1000
,
0002
0000
0103
0000
1000
0010
1000
0001
0000
0001
0100
0010
2000
0000
0001
0000
,
0001
0000
0100
0000
3100
0000
1000
0010
2000
0000
3001
0100
0020
0000
1030
0001
,
0200
0000
0310
1000
0001
0010
0001
1000
0100
1000
0001
0100
0001
1000
0010
1000
,
0100
0000
0012
0000
0013
0000
1000
0001
0200
0000
0310
1000
0001
0000
1000
0010
,
1000
0100
0010
0001
1000
0100
0010
0001
0200
0000
0310
2000
0000
3001
1000
0100
,
0010
0000
0011
0000
1100
1100
0000
0202
,
0003
0000
0310
1000
0001
0000
1000
0100
0000
0100
0010
0001
1000
0001
0100
0000
,
0110
0000
1001
0000
1010
1010
0000
0202
,
0300
0000
2003
0000
3001
1000
0000
0000
0010
0100
0010
1000
0001
0010
0100
0000
,
1000
0001
1000
0001
0000
0100
0000
0110
0000
0110
0000
2000
0000
0000
3001
0000
,
0010
0100
0010
0100
0000
1001
0000
1001
0000
0000
0000
0000
0000
0000
0000
0000
;

//---------------dance-single - ----------------
#NOTEDATA:;
#CHARTNAME:;
#CHARTHASH:0:
#STEPSTYPE:dance-single;
#BANNER:;
#DESCRIPTION:;
#CHARTSTYLE:;
#DIFFICULTY:Medium;
#METER:13;
#METERF:0.000000;
#RADARVALUES:0.590595,0.561014,0.519367,0.477818,0.363557,398.000000,348.000000,50.000000,46.000000,0.000000,0.000000,0.000000,0.000000,0.000000,0.590595,0.561014,0.519367,0.477818,0.363557,398.000000,348.000000,50.000000,46.000000,0.000000,0.000000,0.000000,0.000000,0.000000;
#CREDIT:;
#DISPLAYBPM:132.000000;
#NOTES:
0000
0000
0000
0000
,
0000
0000
0000
0000
,
1001
0000
0010
0100
1000
0001
0200
0010
,
0310
0000
1000
0000
0001
0000
1000
0000
0100
0000
0010
0000
0001
1000
0001
0000
,
1001
0000
0100
0001
0010
0100
2000
0001
,
3001
1000
0010
0100
0010
1000
0001
0000
,
0021
0000
0031
0100
0010
1000
0001
1000
,
0000
1100
0000
0001
1000
0100
1000
0001
,
1020
0000
0000
0000
0130
0000
0010
0000
0000
0000
0110
0000
0000
0000
1000
0001
,
1000
0100
0010
0000
0001
0100
1000
0000
,
0012
0000
0013
0100
1000
0010
1000
0001
,
0000
1100
0000
0010
0100
0001
0100
0010
,
2010
0000
0000
0000
3001
0000
1000
0000
0000
0000
0110
0000
0000
0000
0010
0100
,
0020
0000
0000
0000
0000
0000
1030
0100
1000
0000
0001
0100
0001
0000
0010
0000
,
0100
0000
1100
0000
1100
0001
1000
0200
,
0000
0000
0010
0000
0320
0000
0000
0000
0031
1000
0000
0001
0000
1000
0200
0000
,
0310
0000
0011
0000
0011
0100
0001
2000
,
0000
0000
3001
0000
0201
0000
0000
0000
0310
0100
0000
0010
0000
2000
0000
0000
,
3001
0000
1010
0000
1010
0100
0010
2000
,
0000
0000
0100
0000
3200
0000
0000
0000
1300
0001
0000
0010
0000
0001
0200
0000
,
0310
0000
0101
0000
0101
1000
0100
0020
,
0000
0000
0031
0000
2001
0000
0000
0000
3010
0100
0000
0001
0000
2000
0000
0000
,
3010
0000
0110
0000
1010
1010
0000
0202
,
0000
0300
0000
0000
1000
0000
0000
1003
0000
0000
0001
0000
0100
0000
0010
0000
,
1010
0000
1001
0000
0011
0011
0000
2200
,
0300
3001
0010
0100
1000
0100
0010
0001
,
1000
0010
1000
0010
0000
0100
0000
0001
0000
1000
0000
0010
0000
0200
0000
0000
,
0301
0000
1000
0200
0000
0000
0000
0000
0310
0000
0001
0000
0102
0000
0000
0000
,
1003
0010
1000
0010
0000
0100
0000
0001
0000
1000
0000
0010
0000
0200
0000
0000
,
0301
0000
0010
0100
0000
2000
0000
0000
3010
0000
0100
0000
0001
0000
0000
0000
,
1001
0000
2002
0000
0000
0000
0000
0000
3003
0000
1000
0100
1000
0000
0001
0000
,
0020
0000
0031
2000
0000
0100
3100
0010
,
0001
0000
1010
0000
0000
1010
0000
0000
1010
0000
0001
0000
1000
0000
0100
0000
,
0020
0000
0000
0000
0031
0000
0100
0000
0010
1000
0010
1000
0010
0000
0100
0000
,
0001
0000
0010
0000
0100
0000
1000
0001
0000
1000
0001
0000
0100
0000
0010
0000
,
1000
0000
0001
0000
1000
0000
0100
0010
0000
0100
0010
0000
0001
0000
1000
0000
,
0020
0000
0100
0000
0130
0001
0100
0002
0000
0000
1000
0000
1003
0000
0001
0000
,
0010
0001
0000
1000
0000
0010
0200
0000
0000
0000
0001
0000
0301
0000
0000
0000
,
1000
0000
0001
0000
2200
0000
0000
0000
3300
0000
0010
0100
0010
0100
0010
0000
,
1000
0000
0100
0000
0010
0000
0001
0100
0000
0001
0100
0000
0010
0000
1000
0000
,
0001
0000
0011
0001
0100
0010
1000
0001
,
0010
0000
0100
0000
1000
0000
0000
0001
0000
0001
0000
0000
2200
0000
0000
0000
,
0000
0000
0000
3000
0000
0000
1300
0001
1000
0000
0001
1000
0001
0000
0100
0000
,
0010
0000
0010
0000
0010
0000
1000
0001
0000
1000
0001
0000
1000
0001
0000
0100
,
0000
0000
2020
0000
0030
0000
3001
0010
0001
0000
1000
0010
1000
0000
0100
0010
,
0100
0000
1000
0000
0001
0000
1000
0000
0010
0000
0100
0000
0001
0000
1000
0010
,
1000
0000
0011
0000
1100
1100
0000
0202
,
0003
0301
1000
0010
1000
0001
0010
0100
,
0110
0000
1001
0000
0011
0011
0000
2100
,
0000
0002
0000
3000
1003
0010
1000
0001
,
0100
0010
1000
0001
0010
0100
1000
0001
,
0010
0100
0010
0100
0000
1001
0000
1001
0000
0000
0000
0000
0000
0000
0000
0000
;

//---------------dance-single - ----------------
#NOTEDATA:;
#CHARTNAME:;
#CHARTHASH:0:
#STEPSTYPE:dance-single;
#BANNER:;
#DESCRIPTION:;
#CHARTSTYLE:;
#DIFFICULTY:Easy;
#METER:9;
#METERF:0.000000;
#RADARVALUES:0.388783,0.481453,0.311620,0.623241,0.000000,262.000000,232.000000,30.000000,60.000000,0.000000,0.000000,0.000000,0.000000,0.000000,0.388783,0.481453,0.311620,0.623241,0.000000,262.000000,232.000000,30.000000,60.000000,0.000000,0.000000,0.000000,0.000000,0.000000;
#CREDIT:;
#DISPLAYBPM:132.000000;
#NOTES:
0000
0000
0000
0000
,
0000
0000
0000
0000
,
1001
0000
0010
0000
1000
0001
0100
0000
,
0001
0000
0011
0000
1000
0010
0100
0000
,
1001
0000
0010
0000
0001
0100
1000
0000
,
0010
0000
1010
0000
0100
0001
1000
0000
,
0021
0000
0032
0000
2003
0000
3001
1000
,
0000
1100
0000
0010
0200
0000
0301
0000
,
0201
0000
0310
0100
0000
1001
0000
0000
,
1000
1000
1000
0000
0001
1000
0010
0000
,
1020
0000
0230
0000
0320
0000
0130
0010
,
0000
0101
0000
0000
0010
0001
0100
0000
,
2010
0000
3001
1000
0000
1001
0000
0000
,
0020
0000
0000
0130
0001
0100
0001
0100
,
0000
0000
0002
0000
2003
0000
3010
0200
,
0000
0310
0200
0000
1000
0000
0301
0020
,
0000
0000
0032
0000
2003
0000
3010
0200
,
0000
0310
0200
0000
0301
1000
0100
0020
,
0000
0000
0230
0000
2300
0000
3001
0200
,
0000
0310
0200
0000
1000
0000
0301
0000
,
0010
0000
0002
0000
2003
0000
3010
0200
,
0000
0310
0200
0000
0301
1000
0010
0100
,
0001
0000
0101
0000
1000
0001
0000
2200
,
0000
0000
0000
0300
,
0001
0000
3100
0000
1000
0010
0000
2020
,
0030
0001
0001
3001
,
1000
0010
1000
0010
0100
0001
1000
0000
,
0100
0210
0001
0310
,
1000
0010
1000
0010
0100
0001
1000
0000
,
0011
0000
1200
0000
1300
0010
0001
0000
,
0200
0020
0000
0000
0330
1000
0001
1000
,
0200
0000
0320
0002
0000
0000
0000
0030
,
0000
1000
0000
1003
0000
0010
0100
0001
,
2000
0000
3001
0200
0000
0320
0000
1000
,
1030
0001
0100
0000
0010
0000
1000
0100
,
1000
0001
0100
0000
0010
0000
1000
0001
,
0020
0000
0000
0000
0000
0100
0100
0130
,
1000
0001
0010
0001
2000
0000
3000
0000
,
0000
0020
0200
0000
0030
0001
0301
0000
,
1000
0010
1000
0000
1100
0000
0011
0000
,
0000
0000
0100
0010
1000
0000
1010
0000
,
0002
2000
0000
0000
3003
0000
0022
0000
,
0000
0030
1000
0100
,
0010
0010
1000
0103
,
0000
1002
0000
1003
0002
0000
0203
0000
,
0320
0000
2030
0000
3002
0000
1003
0010
,
0100
0000
0101
0000
1000
0001
0000
2020
,
3000
0001
0100
1030
,
0110
0000
1001
0000
1000
0001
0000
0201
,
0000
0020
0300
0000
1030
0001
1000
0001
,
1000
0010
1000
0010
0100
0001
1000
0000
,
0010
0100
0010
1001
1001
0000
0000
0000
;

//---------------dance-single - ----------------
#NOTEDATA:;
#CHARTNAME:;
#CHARTHASH:0:
#STEPSTYPE:dance-single;
#BANNER:;
#DESCRIPTION:;
#CHARTSTYLE:;
#DIFFICULTY:Beginner;
#METER:4;
#METERF:0.000000;
#RADARVALUES:0.175101,0.213979,0.166197,0.000000,0.000000,118.000000,102.000000,16.000000,0.000000,0.000000,0.000000,0.000000,0.000000,0.000000,0.175101,0.213979,0.166197,0.000000,0.000000,118.000000,102.000000,16.000000,0.000000,0.000000,0.000000,0.000000,0.000000,0.000000;
#CREDIT:;
#DISPLAYBPM:132.000000;
#NOTES:
// measure 0
0000
0000
0000
0000
,  // measure 1
0000
0000
0000
0000
,  // measure 2
1001
0000
0000
0000
,  // measure 3
0000
0000
0000
0001
,  // measure 4
0001
0000
0000
0000
,  // measure 5
0000
0000
0000
0000
,  // measure 6
1000
0000
0001
0000
,  // measure 7
1000
0000
0010
0000
,  // measure 8
0100
0100
0000
0000
,  // measure 9
0001
0001
0001
0000
,  // measure 10
0010
0000
0001
0000
,  // measure 11
0100
0000
1000
0000
,  // measure 12
0001
0001
0000
0000
,  // measure 13
1001
0000
1000
1000
,  // measure 14
0000
0010
0010
0000
,  // measure 15
0100
0100
0000
0000
,  // measure 16
0000
0001
0001
0000
,  // measure 17
1000
1000
0000
0000
,  // measure 18
0000
0010
0010
0000
,  // measure 19
0100
0100
0000
0000
,  // measure 20
0000
0001
0001
0000
,  // measure 21
1000
1000
0000
0000
,  // measure 22
1001
0000
0010
0000
,  // measure 23
0110
0000
0000
0000
,  // measure 24
0110
0000
0001
0000
,  // measure 25
0110
0000
0000
0000
,  // measure 26
1000
1000
1000
0000
,  // measure 27
0001
0001
0000
0000
,  // measure 28
1000
1000
1000
0000
,  // measure 29
0010
0010
0000
0000
,  // measure 30
1001
0000
0000
0001
,  // measure 31
0001
0001
0000
0000
,  // measure 32
0000
0100
0100
0100
,  // measure 33
0000
1000
1000
0000
,  // measure 34
0001
0000
1001
0000
,  // measure 35
1000
0000
0110
0000
,  // measure 36
0110
0000
0000
0100
,  // measure 37
0100
0100
0000
0000
,  // measure 38
0000
0110
0000
0010
,  // measure 39
0010
0000
1000
0000
,  // measure 40
0000
0001
0001
0001
,  // measure 41
0001
0000
0000
1001
,  // measure 42
0000
0000
0010
0000
,  // measure 43
0010
0010
0010
0010
,  // measure 44
0000
0000
1000
1000
,  // measure 45
1000
1000
1000
1000
,  // measure 46
0000
0000
0110
0000
,  // measure 47
1001
0000
0000
0000
,  // measure 48
0010
0010
0010
0000
,  // measure 49
0110
0000
0000
0000
,  // measure 50
0100
0100
0100
0100
,  // measure 51
0100
0000
1001
0000
;
