#TITLE:One Way Or Another;
#SUBTITLE:;
#ARTIST:Blondie;
#TITLETRANSLIT:;
#SUBTITLETRANSLIT:;
#ARTISTTRANSLIT:;
#GENRE:;
#CREDIT:;
#BANNER:One Way Or Another-bn.png;
#BACKGROUND:One Way Or Another-bg.png;
#LYRICSPATH:;
#CDTITLE:;
#MUSIC:One Way Or Another.ogg;
#OFFSET:-0.093750;
#SAMPLESTART:23.747341;
#SAMPLELENGTH:20.000000;
#SELECTABLE:YES;
#DISPLAYBPM:157.000000:168.000000;
#BPMS:0.000000=161.000000
,32.000000=162.639999
,48.000000=165.000000
,64.000000=162.369995
,80.000000=161.332993
,88.000000=161.500000
,100.000000=160.440002
,128.000000=159.000000
,136.000000=158.667007
,140.000000=157.000000
,156.000000=158.000000
,164.000000=160.000000
,175.000000=168.000000
,176.000000=164.000000
,192.000000=161.000000
,208.000000=160.250000
,220.000000=161.000000
,240.000000=163.000000
,248.000000=161.750000
,256.000000=163.000000
,268.000000=162.000000
,276.000000=166.000000
;
#STOPS:
;
#BGCHANGES:;
#KEYSOUNDS:;
#ATTACKS:;

//---------------dance-single - x scale 12----------------
#NOTES:
     dance-single:
     :
     Hard:
     12:
     0.589697,0.612240,0.646536,0.232090,0.066311,498.000000,420.000000,78.000000,28.000000,0.000000,0.000000,0.589697,0.612240,0.646536,0.232090,0.066311,498.000000,420.000000,78.000000,28.000000,0.000000,0.000000:
// measure 0
0000
0000
0000
0000
,  // measure 1
0000
0000
0000
0000
,  // measure 2
0000
0000
0000
0000
,  // measure 3
0000
0000
0000
0000
,  // measure 4
2002
0000
0000
0000
,  // measure 5
0000
0000
3003
0000
0100
0100
0010
0010
,  // measure 6
1000
1000
0100
0100
0010
0010
0001
0001
,  // measure 7
1000
1000
0001
0001
1000
0010
0100
0001
,  // measure 8
0010
0000
0011
0000
0100
0010
1000
0001
,  // measure 9
0100
0000
0101
0000
0010
0100
0001
1000
,  // measure 10
0001
0000
1100
0000
1000
0100
0010
0001
,  // measure 11
1000
0000
1010
0000
0110
0010
0100
0001
,  // measure 12
1000
0000
0110
0000
0001
0010
0100
1000
,  // measure 13
0100
0000
1001
0000
0001
0100
0010
1000
,  // measure 14
0010
0000
1010
0000
1000
0001
0100
0010
,  // measure 15
0001
0000
0011
0000
0001
1000
0010
0100
,  // measure 16
0101
0000
1100
0000
0010
1000
0100
0001
,  // measure 17
0011
0000
1100
0000
0001
0010
1000
0100
,  // measure 18
0110
0000
0101
0000
1000
0001
0100
0010
,  // measure 19
1000
1000
0001
0001
0100
0100
0010
0010
,  // measure 20
1010
0000
1001
0000
0100
1000
0010
0001
,  // measure 21
1010
0000
0011
0000
1000
0010
0001
0100
,  // measure 22
1001
0000
0110
0000
0010
0100
0001
1000
,  // measure 23
0010
0010
0100
0100
0001
0001
1000
1000
,  // measure 24
1100
0000
0101
0000
0010
0001
1000
0100
,  // measure 25
1100
0000
1010
0000
0100
1000
0001
0010
,  // measure 26
1001
0000
0101
0000
1000
0100
0001
0010
,  // measure 27
0100
0100
0001
0001
1000
1000
0010
0010
,  // measure 28
0011
0000
0110
0000
1000
0001
0100
0010
,  // measure 29
2000
0000
3002
0000
0013
0100
0001
1000
,  // measure 30
0200
0000
0320
0000
0130
1000
0010
0001
,  // measure 31
1000
0100
0010
0001
0010
0100
1000
0000
,  // measure 32
0020
0000
0000
0000
0100
0000
0100
0000
0130
0000
0000
0010
1000
0000
0000
0000
,  // measure 33
0200
0000
0000
0000
0001
0000
0001
0000
0301
0000
0000
0100
0010
0000
0000
0000
,  // measure 34
0002
0000
1003
2000
0000
3001
0002
0000
,  // measure 35
0203
0000
0000
0000
0001
0000
0001
0000
0301
0000
0000
1000
0100
0000
0000
0000
,  // measure 36
0020
0000
0000
0000
1000
0000
1000
0000
1030
0000
0000
0001
0010
0000
0000
0000
,  // measure 37
2000
0000
0000
0000
0001
0000
0001
0000
3001
0000
0000
1000
0100
0000
0000
0000
,  // measure 38
0020
0000
0031
0002
0000
1003
2000
0000
,  // measure 39
3200
0000
0000
0000
0010
0000
0010
0000
0310
0000
0000
0100
1000
0000
0000
0000
,  // measure 40
2000
0000
3001
0002
0000
0103
0200
0000
,  // measure 41
0320
0000
0000
0000
0100
0000
0100
0000
0130
0000
0000
0010
0001
0000
0000
0000
,  // measure 42
0200
0000
0000
0000
0001
0000
0001
0000
0301
0000
0000
1000
0100
0000
0000
0000
,  // measure 43
0020
2030
3002
0103
,  // measure 44
0101
0010
1100
0010
,  // measure 45
1010
0100
0011
0100
,  // measure 46
0110
0001
1001
1000
,  // measure 47
1000
0001
1000
0001
1000
0000
0100
0000
0010
0000
0010
0000
0010
0000
0010
0000
,  // measure 48
1100
0001
0011
0001
,  // measure 49
1010
1000
0101
1000
,  // measure 50
1001
0010
0110
0100
,  // measure 51
1000
0001
1000
0001
1000
0000
0100
0000
0010
0000
0010
0000
0010
0000
0010
0000
,  // measure 52
1010
0100
1100
0100
,  // measure 53
0011
0010
0101
0010
,  // measure 54
0110
1000
1001
0001
,  // measure 55
1000
0001
1000
0001
1000
0000
0100
0000
0010
0000
0010
0000
0010
0000
0010
0000
,  // measure 56
0011
1000
0101
1000
,  // measure 57
1001
0001
1010
0001
,  // measure 58
1100
0100
0110
0010
,  // measure 59
1000
0001
1000
0001
1000
0000
0100
0000
0010
0000
0010
0000
0010
0000
0010
0000
,  // measure 60
0100
0000
0101
0000
1000
0001
0100
0010
,  // measure 61
1010
0000
1001
0000
0010
1000
0001
0100
,  // measure 62
0110
0000
0100
0010
1000
0010
0100
0000
,  // measure 63
1100
0000
0011
0000
0100
0001
0010
0000
,  // measure 64
0010
0000
1001
0000
0100
1000
0010
0001
,  // measure 65
0101
0000
0011
0000
0010
0100
0001
1000
,  // measure 66
0110
0000
1000
0001
0010
0001
1000
0000
,  // measure 67
1100
0000
1010
0000
0100
1000
0010
0000
,  // measure 68
1000
0000
0110
0000
0001
0010
0100
1000
,  // measure 69
1100
0000
0101
0000
0100
0010
0001
1000
,  // measure 70
1001
0000
0001
0010
0100
0010
0001
0000
,  // measure 71
0011
0000
1010
0000
1000
0010
0001
0000
,  // measure 72
0001
0000
1010
0000
0010
0001
1000
0100
,  // measure 73
0011
0000
1100
0000
0010
1000
0100
0001
,  // measure 74
0101
0000
0001
0100
1000
0100
0001
0000
,  // measure 75
0010
0000
0110
0000
0001
0100
1000
0000
,  // measure 76
2002
0000
0000
0000
,  // measure 77
0000
0000
0000
3003
;

//---------------dance-single - x scale 9----------------
#NOTES:
     dance-single:
     :
     Medium:
     8:
     0.452338,0.515571,0.497335,0.331557,0.000000,382.000000,322.000000,60.000000,40.000000,0.000000,0.000000,0.452338,0.515571,0.497335,0.331557,0.000000,382.000000,322.000000,60.000000,40.000000,0.000000,0.000000:
0000
0000
0000
0000
,
0000
0000
0000
0000
,
0000
0000
0000
0000
,
0000
0000
0000
0000
,
2002
0000
0000
0000
,
0000
0000
3003
0000
0000
0100
0010
0100
,
0000
0000
0110
0000
0000
0001
1000
0001
,
0000
0000
0100
0000
0100
0010
1000
0001
,
0010
0000
0011
0000
1000
0001
0000
0100
,
0001
0000
0101
0000
0100
0010
0000
1000
,
0100
0000
1100
0000
1000
0010
0000
0001
,
0010
0000
0010
0000
0001
1000
0001
1000
,
0100
0000
1010
0000
1000
0001
0000
0010
,
0001
0000
0110
0000
1000
0010
0000
0100
,
0010
0000
1010
0000
1000
0100
0000
0001
,
0100
0000
0101
0000
0010
1000
0010
1000
,
0001
0000
0011
0000
0000
0000
1000
0100
,
1000
0000
1100
0000
0000
0001
0100
0010
,
0100
0000
1001
0000
0000
0010
1000
0001
,
0010
0011
1010
0101
,
1000
0000
1100
0000
0000
0000
0100
0010
,
0100
0000
1001
0000
0000
1000
0010
0001
,
1000
0000
0110
0000
0000
0100
0010
0001
,
1000
1100
0110
0011
,
0100
0000
0101
0000
0000
0000
0001
0010
,
0001
0000
1001
0000
0000
1000
0100
0010
,
0001
0000
1010
0000
0000
0100
1000
0010
,
0100
1010
0011
0101
,
0100
0000
1100
0000
0000
0000
1000
0001
,
1000
0000
1001
0000
0000
0100
0010
0001
,
0100
0000
0110
0000
0000
0010
0001
1000
,
0001
0010
0000
0010
0100
1000
0000
0000
,
0102
0000
0100
0000
0000
1000
1003
0000
,
1200
0000
0001
0000
0000
1000
1300
0000
,
0020
0100
0000
0001
0000
0000
1030
0000
,
2001
0000
0001
0000
0000
0010
3010
0000
,
0210
0000
0010
0000
0000
0001
0301
0000
,
0021
0000
1000
0000
0000
0100
0130
0000
,
0002
0100
0000
0010
0000
0000
1003
0000
,
2010
0000
0001
0000
0000
0100
3100
0000
,
0200
0001
0000
0010
0000
0000
1300
0000
,
0002
0000
0100
0000
0000
0010
0013
0000
,
2000
0000
0010
0000
0000
0100
3100
0000
,
0001
1000
0020
0030
,
0002
0103
0200
0310
,
0020
1030
2000
3001
,
0002
0013
0020
1030
,
2000
3100
0200
0301
,
0002
0013
0020
0130
,
0200
1300
2000
3001
,
0002
1003
2000
3010
,
0020
0130
0200
0301
,
2000
3010
0200
0301
,
0020
0130
0002
1003
,
0020
0031
0200
0310
,
0002
1003
2000
3010
,
0010
0000
1001
0000
0000
0000
0100
0001
,
1000
0000
1010
0000
0000
0100
0001
0000
,
1100
0000
0011
0000
0100
0010
0100
0000
,
0101
0000
0110
0000
1000
0001
1000
0000
,
0010
0000
1000
0000
0001
0000
1000
0010
,
0100
0000
0001
0000
1000
0001
0100
0000
,
0010
0000
0001
0000
0100
0001
0010
0000
,
0100
0000
0010
0000
1000
0010
0100
0000
,
0001
0000
0011
0000
0100
0000
0010
1000
,
0010
0000
1001
0000
0100
0001
1000
0000
,
1010
0000
1100
0000
0100
1000
0010
0000
,
0110
0000
0101
0000
0100
0010
0001
0000
,
1000
0000
1100
0000
0100
0000
0010
0001
,
0010
0000
0011
0000
1000
0100
0001
0000
,
0101
0000
1010
0000
1000
0010
1000
0000
,
0110
0000
1001
0000
0100
0001
0100
0000
,
0100
0000
0110
0000
1000
0000
0010
0001
,
1000
0000
0101
0000
0010
0100
0001
0000
,
1100
0000
0011
0000
0010
0100
1000
0000
,
1010
0000
0100
0000
0001
1000
0010
0000
,
2002
0000
0000
0000
,
0000
0000
0000
3003
;

//---------------dance-single - ----------------
#NOTES:
     dance-single:
     :
     Easy:
     6:
     0.309058,0.451124,0.248668,0.447602,0.000000,261.000000,231.000000,30.000000,54.000000,0.000000,0.000000,0.309058,0.451124,0.248668,0.447602,0.000000,261.000000,231.000000,30.000000,54.000000,0.000000,0.000000:
0000
0000
0000
0000
,
0000
0000
0000
0000
,
0000
0000
0000
0000
,
0000
0000
0000
0000
,
2002
0000
0000
0000
,
0000
0000
0000
3003
,
1000
1000
0010
0010
,
0100
0100
0001
0001
,
0010
0100
1000
0001
,
0100
0010
1000
0001
,
1000
0100
0010
0001
,
0100
0101
1100
0010
,
1000
0001
0010
0100
,
0010
1000
0001
0100
,
0001
0010
0100
1000
,
0010
1010
0011
0100
,
0120
0130
0000
0010
,
2000
3100
0000
1000
,
0002
0103
0000
0001
,
1000
1100
0001
0101
,
0020
1030
0000
0100
,
2000
3001
0000
0100
,
0002
0013
0000
0100
,
1000
1010
0001
0011
,
0200
1300
0000
1000
,
0002
0013
0000
0010
,
2000
3010
0000
0010
,
0100
0110
1000
1001
,
0002
1003
0000
0010
,
2000
3001
0000
0100
,
0020
1030
0000
0100
,
2000
3000
0002
0003
,
0200
0020
0000
0330
,
2000
0002
0000
3003
,
1000
0100
0010
0001
,
0200
0002
0000
0303
,
2000
0002
0000
3003
,
0020
0200
0000
0330
,
1000
0001
0100
0010
,
2000
0002
0000
3003
,
0010
1000
0001
0100
,
0002
1000
0000
1003
,
0020
0100
0000
0130
,
1000
0001
2002
3003
,
1000
0000
1000
0000
,
1000
0000
1000
0000
,
0001
0000
0001
0000
,
0001
0010
0100
1000
,
0010
0000
0010
0000
,
0010
0000
0010
0000
,
0100
0000
0100
0000
,
0100
0010
1000
0001
,
0010
0000
0010
0000
,
0010
0000
0010
0000
,
0001
0000
0001
0000
,
1000
0100
0010
0001
,
2000
0200
0000
3300
,
0002
0020
0000
0033
,
1000
1010
0001
0101
,
0010
1100
0011
0110
,
2000
3002
0100
0013
,
2000
3020
0001
0130
,
0010
1100
0010
0101
,
1000
0001
1001
0100
,
0020
2030
0001
3100
,
0002
2003
0100
3010
,
0100
0011
0100
1010
,
1000
0010
0110
0001
,
2000
3200
0010
0301
,
0020
0230
1000
0301
,
1000
1010
1000
1100
,
0001
0100
0110
0010
,
2000
3002
0010
0103
,
0020
0230
0001
1300
,
0001
1000
0100
0011
,
1000
0010
0100
0101
,
2002
0000
0000
0000
,
0000
0000
0000
3003
;

//---------------dance-single - ----------------
#NOTES:
     dance-single:
     :
     Beginner:
     2:
     0.142096,0.193339,0.016578,0.099467,0.000000,120.000000,118.000000,2.000000,12.000000,0.000000,0.000000,0.142096,0.193339,0.016578,0.099467,0.000000,120.000000,118.000000,2.000000,12.000000,0.000000,0.000000:
0000
0000
0000
0000
,
0000
0000
0000
0000
,
0000
0000
0000
0000
,
0000
0000
0000
0000
,
2002
0000
0000
0000
,
0000
0000
0000
3003
,
0000
0000
0000
0000
,
0000
0000
0000
0000
,
0010
0010
0000
0000
,
0100
0100
0000
0000
,
0001
0001
0000
0000
,
1000
1000
0000
0000
,
0100
0100
0000
0000
,
0010
0010
0000
0000
,
1000
1000
0000
0000
,
0001
0001
0000
0000
,
1000
1000
0000
0000
,
0100
0100
0000
0000
,
0010
0010
0000
0000
,
0001
0000
0001
0000
,
0010
0010
0000
0000
,
0001
0001
0000
0000
,
1000
1000
0000
0000
,
0100
0000
0100
0000
,
0100
0100
0000
0000
,
0001
0001
0000
0000
,
0010
0010
0000
0000
,
1000
0000
1000
0000
,
0001
0001
0000
0000
,
1000
1000
0000
0000
,
0010
0010
0000
0000
,
0100
0000
0100
0000
,
0002
0000
0003
0000
,
2000
0000
3000
0000
,
0010
0000
0010
0000
,
0020
0000
0030
0000
,
2000
0000
3000
0000
,
0002
0000
0003
0000
,
0100
0000
0100
0000
,
0200
0000
0300
0000
,
0001
0000
0001
0000
,
0002
0000
0003
0000
,
0020
0000
0030
0000
,
0100
0000
1000
0000
,
0001
0000
0000
0000
,
1000
0000
0000
0000
,
0001
0000
0000
0000
,
0100
0000
0100
0000
,
0010
0000
0000
0000
,
0100
0000
0000
0000
,
0010
0000
0000
0000
,
1000
0000
1000
0000
,
0001
0000
0000
0000
,
0010
0000
0000
0000
,
0100
0000
0000
0000
,
1000
0000
0001
0000
,
1000
0000
0000
0000
,
0100
0000
0000
0000
,
0010
0000
0000
0000
,
0001
0000
1000
0000
,
0010
0010
0000
0000
,
0100
0100
0000
0000
,
0001
0000
0001
0000
,
1000
0000
1000
0000
,
1000
1000
0000
0000
,
0010
0010
0000
0000
,
0100
0000
0100
0000
,
0001
0000
0001
0000
,
0010
0010
0000
0000
,
0100
0100
0000
0000
,
1000
0000
0001
0000
,
1000
0000
0001
0000
,
0010
0010
0000
0000
,
0100
0100
0000
0000
,
1000
0000
0001
0000
,
1000
0000
0001
0000
,
2002
0000
0000
0000
,
0000
0000
0000
3003
;
