#TITLE:On the Edge;
#ARTIST:Harmony Machine;
#BANNER:On the Edge-bn.png;
#BACKGROUND:On the Edge-bg.png;
#JACKET:On the Edge-jacket.png;
#MUSIC:On the Edge.ogg;
#SAMPLESTART:27.424;
#SAMPLELENGTH:20;
#DISPLAYBPM:140;
#BPMS:0=140;
#STOPS:60=1.286,125=1.286;
#BGCHANGES:;

//---------------dance-single - ----------------
#NOTES:
     dance-single:
     :
     Beginner:
     3:
     :
0000
0000
0000
0000
,
0000
0000
0000
0000
,
0000
0000
0000
0000
,
0000
0000
0000
0000
,
2002
0000
0000
0000
,
3003
0000
0000
0000
,
0000
0000
0000
0000
,
0000
0000
0000
0000
,
2002
0000
0000
0000
,
3003
0000
0000
0000
,
0010
0000
0000
0000
,
1000
0000
0000
0000
,
2002
0000
0000
0000
,
3003
0000
0000
0000
,
0100
0000
0000
0000
,
0000
0110
0000
0000
,
0000
0010
0000
1000
,
0000
0001
0000
1000
,
0000
0100
0000
0010
,
0000
0110
0000
0000
,
0000
0001
0000
0010
,
0000
0001
0000
0100
,
0000
0010
0000
1000
,
0000
0110
0000
0000
,
0000
1000
0000
0100
,
0000
1000
0000
0010
,
0000
0100
0000
0001
,
0000
1001
0000
0000
,
0000
0001
0000
0010
,
0000
0001
0000
0100
,
0000
1000
0000
0010
,
0000
2002
0000
0000
,
0000
0000
0000
0000
,
0000
0000
3003
0000
,
0000
0000
1001
0000
,
1000
0000
1000
0000
,
0001
0000
0010
0000
,
0001
0000
0100
0000
,
0010
0000
0110
0000
,
0010
0000
1000
0000
,
0100
0000
1000
0000
,
0010
0000
0100
0000
,
0001
0000
0110
0000
,
0001
0000
0010
0000
,
0001
0000
1000
0000
,
0010
0000
1000
0000
,
0100
0000
0110
0000
,
0100
0000
0010
0000
,
0100
0000
1000
0000
,
0010
0000
1000
0000
,
0001
0000
1001
0000
;

//---------------dance-single - ----------------
#NOTES:
     dance-single:
     :
     Easy:
     6:
     :
0000
0000
0000
0000
,
0000
0000
0000
0000
,
0000
0000
0000
0000
,
0000
0000
0000
0000
,
2002
0000
0000
0000
,
3003
0000
0000
0000
,
0000
0010
0000
0000
,
0000
0100
0000
0000
,
1001
0000
0001
0000
,
0010
0000
1000
0000
,
0100
0000
0010
0000
,
0001
0000
0100
0000
,
1001
0000
0001
0000
,
1000
0000
0010
0000
,
0200
0000
0000
0000
,
0300
0220
0000
0000
,
0330
0001
0001
1000
,
0010
1000
0100
0010
,
0001
0100
0100
0010
,
0010
0220
0000
0000
,
0330
1000
0010
1000
,
0100
0010
0001
1000
,
0001
0010
0100
1000
,
0010
0220
0000
0000
,
0330
0100
0001
0010
,
0100
1000
1000
0001
,
0001
0010
0001
0100
,
1000
2002
0000
0000
,
3003
1000
0010
1000
,
0100
0010
0001
0100
,
0001
0010
0001
0100
,
1000
1001
0002
0000
,
0000
0000
0000
0000
,
0000
0000
0000
0000
,
0000
0003
1001
1000
,
0010
1000
0100
0010
,
0001
0100
0001
0010
,
0100
1000
0010
1000
,
0100
0001
0110
0001
,
1000
0010
1000
0100
,
0010
0001
0100
0010
,
1000
0100
1000
0001
,
0010
1000
0110
0010
,
0100
0010
0001
0100
,
0001
0010
0001
0100
,
0010
1000
0100
0010
,
0001
0100
0110
0001
,
0010
0001
1000
0010
,
1000
0100
0010
0100
,
0010
0001
0100
0010
,
1000
0001
2002
0000
,
0000
0000
3003
0000
;

//---------------dance-single - ----------------
#NOTES:
     dance-single:
     :
     Medium:
     11:
     :
0000
0000
0000
0000
,
0000
0000
0000
0000
,
0000
0000
0000
0000
,
0000
0000
0000
0000
,
2002
0000
0000
0000
,
3003
1000
0000
0000
,
0000
0001
0000
0000
,
0000
0100
0000
0000
,
1001
0000
0010
1000
0001
0000
0010
0100
,
1000
0000
0001
1000
0010
0000
1000
0100
,
0010
0000
0001
1000
0001
0000
1000
0010
,
0100
0000
0010
1000
0100
0000
1000
0001
,
1001
0000
0010
1000
0001
0010
0001
1000
,
0010
0000
0100
0001
0010
0001
1000
0002
,
0200
0000
0000
0000
,
0303
0000
0000
0000
0110
0000
0000
0010
0000
0000
1000
0000
0100
0000
0000
0010
,
0000
0000
0001
0000
1000
0000
0000
0001
0000
0000
0010
0000
0001
0000
0000
0100
,
0000
0000
1000
0000
0010
0000
0000
1000
0000
0000
0100
0000
0010
0000
0000
0100
,
0000
0000
1000
0000
0001
0000
0000
0010
0000
0000
0001
0000
1000
0000
0000
0010
,
0000
0000
0100
0000
0110
0000
0000
1000
0000
0000
0010
0000
1000
0000
0000
0001
,
0000
0000
0010
0000
0100
0000
0000
0010
0000
0000
0001
0000
1000
0000
0000
0010
,
0000
0000
0001
0000
0100
0000
0000
0001
0000
0000
0010
0000
0001
0000
0000
0100
,
0000
0000
0010
0000
1000
0000
0000
0100
0000
0000
1000
0000
0010
0000
0000
0100
,
0000
0000
0001
0000
0110
0000
0000
0000
0010
0000
1000
0000
0100
0010
0000
0100
,
0000
0000
1000
0000
0001
0000
0000
0010
0000
0000
0001
0000
0100
0010
0000
1000
,
0000
0000
0100
0000
1000
0000
0000
0001
0000
0000
0010
0000
0001
1000
0000
0100
,
0000
0000
0010
0000
0100
0000
0000
0010
0000
0000
0001
0000
1000
0010
0000
1000
,
0000
0000
0001
0000
1100
0000
0000
1000
0001
0000
0010
0000
0100
0000
0000
1000
,
0000
0000
0010
0000
1000
0000
0000
0001
0000
0000
0010
0000
0001
0100
0000
0100
,
0000
0000
0010
0000
1000
0000
0000
0010
1000
0000
0100
0000
0010
0000
0000
0001
,
0100
0000
0001
0000
1000
0000
0000
0001
1000
0000
0100
0000
0010
0000
0000
0001
,
0010
0100
2100
0000
0002
0000
0000
0000
,
0000
0000
0000
0000
,
0000
0000
0000
0000
,
0000
0000
0000
0000
3003
0000
0000
0000
1001
0000
0000
1000
0000
0000
0010
0000
,
0100
0000
0000
0001
0000
0000
0010
0000
0001
0000
0000
1000
0000
0000
0100
0000
,
1000
0000
0000
0010
0000
0000
0100
0000
0001
0000
0000
0010
0000
0000
0001
0000
,
0010
0000
0000
0100
0000
0000
1000
0000
0001
0000
0000
0100
0000
0000
1000
0000
,
0010
0000
0000
1000
0000
0000
0001
0000
0110
0000
0000
0010
1000
0000
0001
0000
,
0010
0000
0000
0001
0000
0000
0100
0000
0010
0000
0000
1000
0100
0000
0010
0000
,
0100
0000
0000
1000
0000
0000
0001
0000
1000
0000
0000
0010
1000
0000
0100
0000
,
0010
0000
0000
0001
0000
0000
0001
0000
0100
0000
0000
0010
0000
0000
1000
0000
,
0100
0000
0000
0010
0000
0000
0001
0000
1001
0000
0000
0100
1000
0000
0001
0000
,
0010
0000
0000
0001
1000
0000
0001
0000
0100
0000
0000
0010
1000
0000
0100
0000
,
1000
0001
0000
0010
0000
0000
0100
0000
0010
0000
0000
0001
1000
0000
0001
0000
,
0100
0010
0000
1000
0000
0000
0100
0000
1000
0000
0000
0001
0000
0000
0010
0000
,
0001
0000
0000
0100
0000
0000
1000
0000
0110
0000
0000
0001
0010
0000
0100
0000
,
1000
0000
0000
0010
1000
0000
0001
0000
0100
0000
0000
0010
0100
0000
0001
0000
,
0010
0000
0000
0100
1000
0000
0010
0000
1000
0000
0000
0001
1000
0000
0100
0000
,
1000
0000
0000
0010
0100
0000
0001
0000
0010
0000
0000
0001
1000
0000
0010
0000
,
1000
0000
0000
0100
0010
0000
0001
0000
2002
0000
0000
0000
0000
0000
0000
0000
,
0000
0000
3003
0000
;

//---------------dance-single - ----------------
#NOTES:
     dance-single:
     :
     Hard:
     14:
     :
0000
0000
0000
0000
,
0000
0000
0000
0000
,
0000
0000
0000
0000
,
0000
0000
0000
0000
,
2002
0000
0000
0000
,
3003
0000
0000
0000
1000
0100
0000
0000
0000
0010
0000
0000
0000
0000
0010
0000
,
0000
0000
0000
0000
0001
1000
0000
0000
0000
0100
0000
0000
0000
0000
0100
0000
,
0000
0000
0000
0000
1000
0001
0000
0000
0000
0010
0000
0000
0000
0000
0001
0000
,
1001
0000
1000
0010
1000
0001
0010
1000
,
0010
0100
0010
0001
0100
0010
0100
1000
,
0100
0001
0010
0001
1000
0010
1000
0001
,
0010
1000
0010
0100
0010
0001
0100
0010
,
1001
0000
1000
0010
1000
0001
0010
0100
,
1000
0010
1000
0001
0010
0100
1000
0002
,
0200
0000
0000
0000
,
0303
0000
0000
0000
0110
0000
0000
0010
1000
0000
0100
0000
1000
0001
0000
1000
,
0001
0000
0100
0000
0010
0000
0000
1000
0001
0000
0010
0000
0100
1000
0000
0100
,
1000
0000
0001
0000
0100
0000
0000
0001
1000
0000
0100
0000
0010
0001
0000
0010
,
0001
0000
1000
0000
0001
0000
0000
1000
0001
0000
0100
0000
0010
1000
0000
0010
,
1000
0000
0100
0000
0110
0000
0000
0010
0001
0000
1000
0000
0010
0100
0000
0010
,
0100
0000
0001
0000
1000
0000
0000
0100
1000
0000
0010
0000
0100
0001
0000
0100
,
0001
0000
1000
0000
0100
0000
0000
0010
0100
0000
1000
0000
0001
0010
0000
0001
,
0010
0000
0100
0000
0010
0000
0000
0001
1000
0000
0001
0000
1000
0100
0000
1000
,
0100
0000
0010
0000
0110
0000
0000
0001
0100
0000
0010
0000
1000
0100
1000
0100
,
0000
0010
0001
0000
0100
0000
0000
0001
1000
0000
0010
0000
1000
0100
1000
0100
,
0000
0010
0001
0000
0100
0000
0000
0001
1000
0000
0100
0000
1000
0010
1000
0010
,
0000
0100
0001
0000
1000
0000
0000
0001
1000
0000
0010
0000
0100
0001
0100
0001
,
0000
0010
0100
0000
1100
0000
0000
0001
1000
0001
0100
0000
0010
1000
0010
1000
,
0000
0100
0010
0000
0001
0000
0000
1000
0100
1000
0010
0000
0100
0001
0100
0001
,
0000
1000
0010
0000
1000
0000
0000
0100
0010
0100
0010
0000
0001
0100
0001
1000
,
0000
0001
1000
0000
0010
0000
0000
1000
0001
0000
0010
0000
0001
0100
0000
0010
,
0000
1000
0001
0000
2100
0000
0000
0000
0002
0000
0000
0000
0000
0000
0000
0000
,
0000
0000
0000
0000
,
0000
0000
0000
0000
,
0000
0000
0000
0000
3003
0000
0000
0000
1001
0000
0000
0010
1000
0000
0001
0000
,
0010
0001
0010
0001
0000
1000
0100
0000
0010
0000
0000
0001
1000
0001
0100
0000
,
0010
1000
0010
0100
0000
0100
0001
0000
1000
0000
0000
0100
1000
0000
0001
0000
,
0010
0100
0010
0100
0000
1000
0001
0000
0010
0000
0000
0001
1000
0001
0010
0000
,
0001
0100
0010
1000
0000
1000
0100
0000
1000
0010
1000
0010
0000
1000
0001
0000
,
0010
0100
0010
0001
0000
0100
0001
0000
1000
0010
0000
1000
0010
0100
0001
0000
,
0010
0001
0000
0100
0001
1000
0100
0000
0010
0000
0001
0100
0000
0001
1000
0000
,
0010
0100
0010
1000
0000
0001
1000
0000
0100
0000
0010
0001
0000
0010
0001
0000
,
1000
0100
1000
0001
0000
1000
0010
0000
0110
0000
0000
0010
0100
0000
0001
0000
,
0010
0100
1000
0010
0000
1000
0001
0000
0010
0001
0000
0001
1000
0000
1010
0000
,
1000
0100
0000
0100
0010
0000
0011
0000
1000
0001
0000
0001
0100
0000
0101
0000
,
0100
0010
0000
0010
1000
0000
1100
0000
1000
0010
0000
0100
0001
0000
1001
0000
,
0010
0001
0000
1000
0100
0000
0110
0000
0001
0000
0100
0010
0000
0010
1000
0000
,
0100
1000
0001
1000
0000
0010
0100
0000
0001
0000
0000
0010
0001
0000
1000
0000
,
0100
0010
0100
1000
0000
0001
0010
0000
0100
0000
1000
0010
0000
1000
0001
0000
,
0100
0001
0100
0001
0000
0010
0100
0000
1000
0010
0000
1000
0001
0010
0100
0000
,
0010
0001
0000
1000
0001
0100
0010
0000
2002
0000
0000
0000
0000
0000
0000
0000
,
0000
0000
3003
0000
;
