#TITLE:Omame no aika;
#ARTIST:kuromur & Yodogawa Djorkaeff;
#BANNER:Omame no aika-bn.png;
#BACKGROUND:Omame no aika-bg.png;
#JACKET:Omame no aika-jacket.png;
#MUSIC:Omame no aika.ogg;
#SAMPLESTART:29.833;
#SAMPLELENGTH:20;
#DISPLAYBPM:145;
#BPMS:0=145;
#BGCHANGES:;

//---------------dance-single - ----------------
#NOTES:
     dance-single:
     :
     Beginner:
     3:
     :
0000
0000
0000
0000
,
0000
0000
0000
0000
,
0000
0000
0000
0000
,
0000
0000
0000
0000
,
0000
0000
0000
0000
,
0000
0000
0000
0000
,
0000
0000
0000
0000
,
0000
0000
0000
0000
,
0000
0000
0000
0000
,
0000
0000
0000
0000
,
1001
0000
0000
0000
,
0001
0000
0000
0000
,
1000
0000
0000
0000
,
0010
0000
0000
0000
,
0110
0000
0000
0000
,
0100
0000
0000
0000
,
0001
0000
0000
0000
,
1000
0000
0000
0000
,
0010
0010
0000
0000
,
1000
1000
0000
0000
,
0001
0001
0000
0000
,
0100
0000
0010
0000
,
0100
0100
0000
0000
,
0001
0001
0000
0000
,
0010
0010
0000
0000
,
0001
0000
1000
0000
,
0010
0010
0000
0000
,
0100
0100
0000
0000
,
0220
0000
0330
0000
,
2002
0000
3003
0000
,
1000
1000
0000
0000
,
0001
0001
0000
0000
,
0010
0010
0000
0000
,
0001
0000
0100
0000
,
0001
0001
0000
0000
,
1000
1000
0000
0000
,
2002
0000
3003
0000
,
0220
0000
0330
0000
,
0010
0010
0000
0000
,
1000
1000
0000
0000
,
0001
0001
0000
0000
,
0100
0000
0110
0000
,
1001
0000
0000
0000
,
1000
0000
0001
0000
,
0200
0000
0300
0000
,
0020
0000
0000
0000
,
0030
0000
1000
1000
,
2000
0000
3000
0000
,
0001
0000
0010
0000
,
0002
0000
0003
0000
,
0010
0000
0100
0000
,
2000
0000
0000
0000
,
0000
0000
3000
0000
,
0001
0001
0000
0000
,
0100
0000
0010
0000
,
0100
0100
0000
0000
,
0010
0010
0000
0000
,
2002
0000
3003
0000
,
0110
0000
0001
0001
,
0002
0000
0003
0000
,
1000
0000
0001
0000
,
0020
0000
0030
0000
,
0200
0000
0300
0000
,
0010
0000
0000
0001
,
0001
0000
0100
0000
,
0220
0000
0330
0000
,
1000
0000
0001
0000
,
1001
0000
0100
0000
,
0010
0000
1000
1000
,
1000
0000
0001
0000
,
0010
0000
0001
0000
,
0100
0100
0100
0000
,
0001
0001
0001
0000
,
1000
1000
1000
0000
,
0010
0000
0010
0010
;

//---------------dance-single - ----------------
#NOTES:
     dance-single:
     :
     Easy:
     7:
     :
0000
0000
0000
0000
,
0000
0000
0000
0000
,
0000
0000
0000
0000
,
0000
0000
0000
0000
,
0000
0000
0000
0000
,
0000
0000
0000
0000
,
0000
0000
0000
0000
,
0000
0000
0000
0000
,
0000
0000
0000
0000
,
0000
0000
0000
0000
,
1002
0000
0000
0103
0000
0000
0000
0000
,
0102
0000
0000
1003
0000
0000
0000
0000
,
2100
0000
0000
3001
0000
0000
0000
0000
,
1000
0100
1000
0001
,
0210
0000
0000
0310
0000
0000
0000
0000
,
2010
0000
0000
3001
0000
0000
0000
0000
,
0021
0000
0000
0130
0000
0000
0000
0000
,
1000
0010
1000
0001
,
1001
0100
0000
0010
,
1000
0000
0100
0000
0000
1000
0001
0000
,
0110
0000
0010
0000
0000
1000
0001
0000
,
0020
0031
0200
0301
,
0011
0000
1000
0001
0000
0000
0100
0000
,
0010
0000
1000
0000
0000
0001
0100
0000
,
0101
0000
0010
0000
0000
1000
0001
0000
,
2000
3010
0200
0301
,
1010
0000
0100
0000
0000
1000
0001
0000
,
1100
0010
2000
3002
,
0203
0010
0000
0310
,
0002
0103
0001
1000
,
1100
0000
0001
0000
0000
1000
0010
0000
,
1010
0001
0200
0320
,
2030
0000
0001
0000
0000
0000
3100
1000
,
0001
0010
0002
1003
,
1001
0000
0010
0100
0000
0000
0001
0000
,
0101
0000
0010
0000
0000
1000
0001
0000
,
0011
0000
0010
0000
0000
0001
1000
0000
,
0020
0130
0210
0301
,
0011
1000
0020
0230
,
0320
0000
1030
0000
0000
0001
0100
0000
,
1010
0000
0001
0000
0000
1000
0100
0000
,
0020
0001
1030
0010
,
1002
0203
0302
2003
,
3200
0320
0032
2003
,
3200
0000
0000
0001
0000
0000
0310
0000
,
0120
1000
0000
0001
,
0000
0000
0130
0000
1000
0001
1000
0001
,
2000
0000
0000
3000
,
0002
0000
0000
2003
0000
0000
3010
0100
,
0002
0000
0000
0003
,
0020
0032
2003
3020
,
0230
0000
0000
0301
,
0101
0000
1000
0000
0000
0100
0010
0000
,
0002
0100
0000
1003
,
0010
1000
1100
0001
,
0011
0100
2000
3010
,
0100
0000
0010
0000
0000
1000
0001
0000
,
0110
0000
1000
0001
0000
0000
0010
0000
,
1100
0001
2000
3001
,
1020
0100
0001
0130
,
2000
0000
0000
3002
0000
0000
0013
0100
,
0020
0001
1000
0031
,
2002
3000
0010
0013
,
0202
0000
0300
2003
,
3020
0000
0000
2030
0000
0000
3002
0000
,
0203
0010
0000
0310
,
2000
0000
0000
3200
0000
0000
2300
0000
,
3001
0001
1000
0010
,
1000
0001
0110
1001
,
1010
1000
0100
0010
,
0011
0000
1000
0001
0000
1000
0001
0000
,
0101
0010
1000
0100
,
1100
0001
1000
0010
,
0101
1010
1100
0011
,
0110
0000
0000
1001
0000
0100
0010
0000
;

//---------------dance-single - ----------------
#NOTES:
     dance-single:
     :
     Medium:
     10:
     :
0000
0000
0000
0000
,
0000
0000
0000
0000
,
0000
0000
0000
0000
,
0000
0000
0000
0000
,
0000
0000
0000
0000
,
0000
0000
0000
0000
,
0000
0000
0000
0000
,
0000
0000
0000
0000
,
0000
0000
0000
0000
,
0000
0000
0000
0000
,
2002
0000
3000
1003
0000
0000
0100
0010
,
0022
0000
0003
0031
0000
0000
0100
0010
,
2020
0000
0030
3010
0000
0000
1000
0001
,
0100
0010
0100
0010
0000
0000
1000
0100
,
2200
0000
0300
3100
0000
0000
0010
0001
,
0202
0000
0003
0301
0000
0000
1000
0010
,
0220
0000
0030
0310
0000
0000
1000
0001
,
0010
0100
0010
0100
0000
0000
0001
1000
,
1020
0000
1030
0001
0000
0010
0100
0000
,
1000
0010
1000
0001
0000
0100
0010
0100
,
0102
0000
1003
0001
0000
0010
0100
0000
,
2000
0000
3010
0100
0002
0000
0013
0100
,
1000
0000
1000
0001
0000
0000
0010
0001
,
0100
0010
0100
0001
0000
1000
0100
1000
,
0010
0100
0010
0100
0000
0001
1000
0000
,
0020
0000
1030
0001
0200
0000
0301
1000
,
1002
0000
0103
0010
0000
1000
0001
0000
,
0021
0000
0031
0100
0000
0010
1000
0100
,
1200
0000
1300
0010
0000
0100
0001
1000
,
0110
0000
1000
0001
0020
0000
0031
0100
,
0010
1000
0001
1000
0000
0100
0010
0000
,
0001
0100
0001
1000
0000
1000
0100
0010
,
0100
0010
0100
1000
0000
0001
0010
0000
,
0012
0000
1003
0001
0102
0000
0103
0010
,
1000
0100
1000
0001
0000
0001
0100
0000
,
0120
0000
1030
0100
0000
1000
0001
0100
,
0020
0000
1030
0100
0000
1000
0001
0000
,
2010
0000
3001
1000
2100
0000
3010
0100
,
0001
0010
0001
1000
0000
0010
0100
0000
,
1002
0000
0103
0001
0000
1000
0100
0010
,
0001
0100
0001
1000
0000
0010
1000
0000
,
1200
0000
0310
0001
1000
0010
0100
0000
,
1001
0000
0001
0100
0001
0000
1000
0100
,
1000
0000
0001
0010
0001
0000
1000
0010
,
2000
0000
0000
0100
0000
0000
3001
0010
,
0200
0000
0001
0000
0010
0000
1300
0001
,
0100
0000
0010
0000
1000
0001
1000
0100
,
0020
0000
0001
0000
1000
0000
0031
0100
,
0202
0000
0300
2000
0003
0000
3010
0100
,
0002
1000
0100
1003
,
0011
0001
1000
0000
0110
0000
0100
0010
,
2010
0000
0100
0000
0001
0000
3010
1000
,
0100
0010
0001
1000
0000
1000
0001
0100
,
0010
0000
1000
0001
0000
0010
0001
0000
,
0101
0000
1100
0000
0001
0100
0010
1000
,
1010
0000
0100
1000
0000
0001
0010
0001
,
0100
0000
0010
1000
0000
0100
1000
0001
,
0012
0000
0103
0010
0000
1000
0001
0000
,
0020
0000
0031
0100
1000
0100
0001
0000
,
0210
0001
1000
0310
,
2001
0000
3010
0200
0000
0301
1000
0001
,
0020
0000
0031
0100
1000
0000
1010
0000
,
1002
0000
0013
0001
2000
0000
3100
0000
,
0012
0000
1000
0000
0013
0001
0100
0000
,
0102
0000
1003
0200
0000
0310
0001
0000
,
0120
0000
1030
0010
0001
1000
0010
0000
,
2100
0000
3001
0200
0000
0310
1000
0000
,
0110
0000
0001
1000
0001
1000
0010
0100
,
0000
0100
0001
0010
0001
0000
1000
0001
,
0101
0000
0100
0010
1000
0000
0100
2000
,
0000
3001
0100
0002
0000
1003
0010
0000
,
1100
0000
1000
0010
1000
0010
0100
0001
,
0000
0010
0001
0100
0001
0000
1000
0100
,
1001
0000
0010
0001
1000
0001
0100
0020
,
0000
1030
0001
2010
0000
3100
0011
0000
;

//---------------dance-single - ----------------
#NOTES:
     dance-single:
     :
     Hard:
     13:
     :
0000
0000
0000
0000
,
0000
0000
0000
0000
,
0000
0000
0000
0000
,
0000
0000
0000
0000
,
0000
0000
0000
0000
,
0000
0000
0000
0000
,
0000
0000
0000
0000
,
0000
0000
0000
0000
,
0000
0000
0000
0000
,
0000
0000
0000
0000
,
1001
0100
0001
0010
1000
0000
1000
0001
,
0010
0001
0100
0010
1000
0000
1000
0100
,
0010
0001
1000
0001
0100
0000
0100
0010
,
1000
0100
1000
0001
0010
0000
0010
0100
,
0110
0000
0001
0010
0001
0100
0010
1000
,
0100
1000
0001
0010
0001
0000
0001
1000
,
0100
0010
0001
0100
1000
0000
1000
0010
,
0100
0010
1000
0100
0001
0000
0001
0010
,
0011
0000
0100
0010
0000
1000
0001
1000
,
0100
0010
0001
0100
0000
0001
1000
0100
,
0010
0100
0010
0001
0000
1000
0001
0100
,
0010
1000
0010
0100
0010
0001
0010
1000
,
0100
0010
0001
1000
0000
1000
0001
0010
,
0100
0001
0100
1000
0000
1000
0001
0010
,
0001
0100
0010
0001
0000
0010
1000
0100
,
0010
0001
0100
1000
0100
0010
0100
0001
,
0010
1000
0010
0001
0000
0100
0010
0100
,
0001
0010
0001
1000
0020
0100
0230
0000
,
0302
1000
1003
0001
0000
0010
0001
0100
,
0001
0010
1000
0010
0100
0001
0100
1000
,
1010
0000
0100
0010
0000
0010
0001
1000
,
0101
0000
1000
0001
0000
0001
0010
0100
,
1100
0000
0010
1000
0000
0001
1000
0100
,
0010
0001
1000
0001
0100
1000
0100
0010
,
0100
0001
0010
0001
0000
1000
0001
1000
,
0100
0010
0001
0100
0000
0010
1000
0000
,
0002
0010
0013
0001
0000
1000
0001
0100
,
0010
1000
0010
1000
0100
0001
0100
0010
,
0100
1000
0001
1000
0010
0100
0001
0000
,
0011
0100
0001
1000
0000
1000
0010
0100
,
0010
1000
0100
0010
0000
0001
1000
0001
,
0100
0010
0100
0001
0100
1000
0100
0010
,
1001
0000
0001
0001
1000
1000
0100
0100
,
0010
0010
0001
0001
1000
1000
0010
0010
,
0102
0000
1000
1000
0000
0100
0103
0001
,
2010
0000
0100
0100
0000
0001
3001
1000
,
0010
1000
0100
0010
0001
0100
0001
1000
,
1200
0000
0310
0001
1000
0000
1000
0001
,
0120
0000
1030
0002
0000
1000
1003
0100
,
0020
0001
0031
1000
0001
0100
0010
1000
,
0100
0100
0010
0010
0001
0001
1000
1000
,
2100
0000
3001
0100
0001
0000
0010
0100
,
1000
0010
1000
0001
0000
0011
0001
0100
,
0020
1000
1030
0001
0000
0010
0001
0100
,
0010
0001
0010
1000
0010
0001
0010
1000
,
0100
0010
0001
1000
0000
1000
0001
0100
,
0010
1000
0001
0010
0000
0001
1000
0100
,
0120
0000
0001
0031
0000
0100
0010
1000
,
2010
0000
3001
0100
1000
0100
0001
1000
,
0010
1000
0100
0010
0001
0100
0001
0000
,
0020
0000
0031
2000
0000
3100
1000
0001
,
0102
0000
0103
0010
1000
0001
1000
0100
,
2001
0000
3010
0001
0010
1000
0100
0000
,
1020
0000
0100
0130
0000
0001
1000
0100
,
0210
0000
1000
1300
0010
0100
0001
0000
,
0102
0000
1003
0001
2000
0000
3100
0010
,
0011
0000
0000
0000
0100
0000
0010
0000
1000
0000
0001
0000
0010
0000
0001
1000
,
0001
0000
0100
0010
1000
0100
1000
1002
,
0000
0100
0100
0103
0010
0010
1000
0001
,
0010
0001
1000
0001
0010
0100
1000
2100
,
0000
0001
3001
2000
0000
3100
1000
0000
,
1020
0000
0100
0130
0010
1000
1000
0201
,
0000
0001
0301
1000
0010
1000
0100
0010
,
0001
0001
1000
1000
0010
1000
0100
0120
,
0000
0031
0100
1001
0000
1100
0011
0000
;
