#VERSION:0.83;
#TITLE:ONGAKU;
#SUBTITLE:;
#ARTIST:GAKUSHI CANTABILEO;
#TITLETRANSLIT:;
#SUBTITLETRANSLIT:;
#ARTISTTRANSLIT:;
#GENRE:;
#ORIGIN:;
#TAGS:;
#CREDIT:;
#BANNER:ONGAKU-bn.png;
#BACKGROUND:ONGAKU-bg.png;
#PREVIEWVID:;
#JACKET:ONGAKU-jacket.png;
#CDIMAGE:;
#DISCIMAGE:;
#LYRICSPATH:;
#CDTITLE:;
#MUSIC:ONGAKU.ogg;
#OFFSET:0.000000;
#SAMPLESTART:17.271000;
#SAMPLELENGTH:20.000000;
#SELECTABLE:YES;
#DISPLAYBPM:105.000000:180.000000;
#BPMS:0.000000=122.500008,
20.000000=140.000000,
28.000000=122.500008,
32.000000=115.000000,
48.000000=120.000000,
62.000000=124.999992,
64.000000=130.000000,
96.000000=140.000000,
136.000000=135.000000,
144.000000=140.000000,
172.000000=135.000000,
228.000000=120.000000,
232.000000=105.000000,
236.000000=130.000000,
260.000000=140.000000,
268.000000=145.000000,
272.000000=155.000000,
280.000000=165.000000,
283.000000=170.000000,
286.000000=175.000000,
287.500000=180.000000,
296.500000=120.000000;
#STOPS:;
#DELAYS:;
#WARPS:;
#TIMESIGNATURES:0.000000=4=4;
#TICKCOUNTS:0.000000=4;
#COMBOS:0.000000=1;
#SPEEDS:0.000000=1.000000=0.000000=0;
#SCROLLS:0.000000=1.000000;
#FAKES:;
#LABELS:0.000000=Song Start;
#BGCHANGES:;
#KEYSOUNDS:;
#ATTACKS:
;

//---------------dance-single - ----------------
#NOTEDATA:;
#CHARTNAME:;
#CHARTHASH:345137487:
#STEPSTYPE:dance-single;
#BANNER:;
#DESCRIPTION:;
#CHARTSTYLE:;
#DIFFICULTY:Hard;
#METER:13;
#METERF:0.000000;
#RADARVALUES:0.489323,0.614114,0.297261,0.459404,0.172276,507.000000,463.000000,44.000000,68.000000,0.000000,0.000000,0.000000,0.000000,0.000000,0.489323,0.614114,0.297261,0.459404,0.172276,507.000000,463.000000,44.000000,68.000000,0.000000,0.000000,0.000000,0.000000,0.000000;
#CREDIT:;
#DISPLAYBPM:105.000000:180.000000;
#NOTES:
0000
0000
0000
0000
,
0000
0000
0000
0000
,
0000
0000
0000
0000
,
0000
0000
0000
0000
,
0000
0000
0000
0000
,
1000
0010
0001
0100
0001
1000
0010
0100
,
0010
1000
0001
0100
0010
0001
1000
0100
,
0010
2200
0000
0300
,
0002
0000
0000
3003
,
0001
0100
2000
0000
3010
0100
0002
0000
,
1003
0100
0020
0000
0031
0100
0001
1000
,
0020
0000
0230
0000
0301
0010
0100
1000
,
0010
1000
0002
0000
0013
0001
0200
0000
,
0301
0010
2000
0000
3100
0010
0001
1000
,
0200
0000
2300
0000
3010
0100
0001
1000
,
0020
1000
2030
0000
3200
0010
0320
0000
,
0031
0000
1001
0000
0000
0000
1000
0010
1000
0000
0100
0000
0100
0000
0010
0000
,
0001
0000
0101
0000
0000
0000
0010
1000
0010
0000
0100
0000
0100
0000
0001
0000
,
0010
0001
0100
0010
0001
0010
1000
0001
,
1020
0000
1030
0001
0010
0100
1000
0001
,
0110
0000
0110
0000
0000
0000
0001
1000
0001
0000
0011
0000
0000
0000
1000
0100
,
1000
0000
1100
0000
0000
0000
0010
0100
0010
0000
1010
0000
0000
0000
0001
0000
,
1001
0000
1001
0000
0000
0000
0010
1000
0010
0000
0100
0000
0100
0000
0001
0000
,
1000
0000
0000
0000
0010
0000
0000
0000
1000
0000
0000
0000
0010
0000
0000
0000
0100
0000
0000
0000
0010
0000
0000
0000
0100
0000
0000
0000
0001
0000
0000
0000
0100
0000
0000
0000
0001
0000
0000
1000
0000
0000
0001
0000
0000
1000
0000
0000
,
0001
0000
0000
0010
0100
0000
0000
0100
1000
0000
0000
1000
0010
0000
0100
0000
,
0001
0000
0000
1000
0100
0000
0000
0100
0010
0000
0000
0010
0001
0000
1000
0000
,
0020
0000
0000
0000
0130
0000
0001
0000
1000
0000
0000
0001
0010
0000
0100
0000
,
2000
0000
0000
0000
3010
0000
0100
0000
0001
0000
0000
1000
0001
0000
0010
0000
,
0001
2001
0000
3010
1000
1200
0000
0310
,
0001
0201
0000
0310
0100
0120
0000
1030
,
0001
0012
0000
1003
0010
0010
0100
0100
,
0210
0000
0301
0010
0001
1000
1000
0010
,
1010
0000
0000
1000
0001
0000
0000
0001
0010
0000
0000
0010
0100
0000
1000
0000
,
0010
0000
0000
0010
0100
0000
0000
0100
0001
0000
0000
1000
0001
0000
0100
0000
,
0020
0000
1030
0001
2000
0000
3200
0000
,
0320
0000
0000
0000
0031
0000
0100
0000
0010
1000
0010
1000
0010
1000
0010
1000
,
0020
0000
0000
0000
0130
0000
0001
0000
1000
0000
0000
1000
0200
0000
0000
0000
,
2300
0000
0000
0000
3010
0000
1000
0000
0001
0000
0000
0001
0200
0000
0000
0000
,
0320
0000
1030
0001
0010
0100
1000
0001
,
2000
0000
3100
0000
1002
0000
0103
0010
,
1020
0000
0130
0001
2000
0010
0010
0100
,
3100
0000
0000
1000
0010
0000
0100
0000
0102
0000
0000
0000
1003
0000
0001
0000
,
0011
0000
0000
0010
0200
0000
0000
0000
2300
0000
0000
0000
3001
0000
0000
0000
,
1100
0000
0000
1000
0001
0000
0000
0001
,
0010
0000
0000
0010
0100
0000
0000
0100
,
0010
0000
0000
0010
0100
0000
0000
0100
,
1000
0000
0000
0000
1000
0000
0001
0000
0010
0000
0001
0100
0001
0000
1000
0000
,
0101
0000
0100
0010
1001
0000
1000
0001
,
0011
0110
1100
1001
,
1010
0001
1000
0001
0010
0100
1000
0010
,
0001
0010
0100
0010
1000
0001
1000
0100
,
0020
0000
0031
0100
2000
0000
3010
0100
,
1001
1100
0101
0011
,
1000
1000
0010
0010
0100
0100
0001
0001
,
0010
0100
1000
0001
1000
0010
0100
0001
,
0010
0001
0100
0010
1000
0001
1000
0100
,
0010
0001
0010
0001
0100
0001
1000
0010
1000
0100
1000
0100
,
0010
0000
0000
0000
0000
0000
0022
0000
0000
0000
0000
0000
0030
0000
0000
1000
0000
0000
1003
0000
0100
0000
0010
0000
,
0002
0203
0310
1010
,
0001
0010
1000
0010
0100
0010
0001
0100
,
0010
1000
0001
0000
0001
0010
0100
1000
,
0010
0100
0001
0000
1000
0001
1000
0010
,
2000
0100
3200
0000
0320
0001
0032
0000
,
0203
0000
0310
1000
0002
0000
0203
0000
,
0302
1000
1003
0010
2000
0000
3200
0000
,
0320
0000
0031
1200
0000
1300
0010
0100
,
0102
0000
0013
0100
1000
0002
0100
0103
,
2010
0000
3001
0101
0000
0000
0021
0000
,
0130
1100
0000
0000
1000
0100
0010
0001
,
0100
0010
1000
0001
1000
0100
0010
0001
,
0100
0000
0010
1000
0010
0000
0200
0000
0001
0000
0301
0000
0020
0000
0100
0000
,
0130
0000
1000
0000
0001
0000
0010
0000
0001
0000
1000
0100
1000
0000
0010
0000
,
0100
0000
0001
0000
1000
0000
0010
0100
0010
0000
1000
0000
0001
0000
0100
0000
,
0010
0000
0000
0000
0000
0000
0000
0101
0000
0000
0000
0000
0000
0000
2200
0000
,
0000
0000
0000
0000
,
0000
0000
0000
3300
;

//---------------dance-single - ----------------
#NOTEDATA:;
#CHARTNAME:;
#CHARTHASH:1520520935:
#STEPSTYPE:dance-single;
#BANNER:;
#DESCRIPTION:;
#CHARTSTYLE:;
#DIFFICULTY:Challenge;
#METER:17;
#METERF:0.000000;
#RADARVALUES:0.719990,0.844407,0.905295,0.445892,0.469537,746.000000,612.000000,134.000000,66.000000,0.000000,0.000000,0.000000,0.000000,0.000000,0.719990,0.844407,0.905295,0.445892,0.469537,746.000000,612.000000,134.000000,66.000000,0.000000,0.000000,0.000000,0.000000,0.000000;
#CREDIT:;
#DISPLAYBPM:105.000000:180.000000;
#NOTES:
0000
0000
0000
0000
,
0000
0000
0000
0000
,
0000
0000
0000
0000
,
0000
0000
0000
0000
,
0000
0000
0000
0000
,
1000
0010
0001
0100
0001
0010
1000
0001
0100
0001
1000
0010
0100
0010
0100
1000
,
0010
0001
0100
0010
1000
0100
1000
0001
0010
0100
0001
0100
1000
0001
1000
0010
,
0100
2020
0000
0030
,
0002
0000
0000
3003
,
1010
0001
0011
0000
0110
0100
1100
0000
,
1001
0010
0201
0000
0310
1010
1010
1100
,
1001
0100
0110
0010
1010
1001
0011
0110
,
1100
0001
0101
0000
0110
0010
1001
0000
,
1100
0001
0021
0000
0130
1100
1100
0110
,
0011
1000
1200
0000
0310
0110
0110
0011
,
0101
1000
1100
0010
0110
0100
1010
0001
,
1001
0000
0110
0000
0010
0000
1000
0100
0010
0000
0001
0100
0010
0000
1000
0000
,
1100
0000
0011
0000
0100
0000
0001
0010
0100
0000
1000
0001
0100
0000
0010
0000
,
1000
1100
0010
0011
0100
1010
0001
1001
,
1000
0100
0010
0100
1000
0000
0001
0000
0010
0000
0100
0000
1000
0000
0001
0000
,
0020
0000
0230
0000
1300
0000
0001
0100
0020
0000
2030
0000
3100
0000
0010
0001
,
2000
0000
3002
0000
0103
0000
0010
1000
0002
0000
0023
0000
0130
0000
1000
0001
,
0100
0000
0000
0110
0000
0000
1000
0000
0000
0001
0100
0001
0100
0000
0000
1001
0000
0000
1010
0000
0000
1100
0000
0000
,
1000
0000
0000
0000
0100
0000
0000
0000
0001
0000
0000
0000
1000
0000
0000
0000
0010
0000
0000
0000
0001
0000
0000
0000
1000
0000
0000
0000
0100
0000
0000
0000
0001
0000
0000
0000
1000
0000
0000
0010
0000
0000
0100
0000
0000
0001
0000
0000
,
0010
0000
1000
0100
1000
0000
1000
0100
1000
0000
1000
0100
0010
0000
0001
0000
,
0100
0000
0001
0010
0001
0000
0001
0010
0001
0000
0001
0010
0100
1000
0001
1000
,
0100
0000
0010
0001
1000
0001
0010
0000
0100
0000
1000
0010
1000
0000
0001
0000
,
0010
0000
0001
0100
0001
0000
1000
0000
0100
0000
0010
0001
0010
0100
1000
0001
,
1000
2100
0010
3100
0001
0012
1000
0013
,
0100
1002
0010
1003
0001
2010
0100
3001
,
0010
1020
0001
0130
0110
1010
1100
1001
,
0011
0000
0100
1000
0002
0000
0103
0000
1001
0000
1001
0000
0110
0000
0110
0000
,
1001
0000
1000
0100
0010
0000
0001
0100
0010
0000
1000
0001
0010
0100
1000
0000
,
1100
0000
0001
0100
0010
0000
1000
0001
0100
0000
0010
1000
0100
0010
0001
0100
,
0002
0000
0000
0000
0013
0000
0100
0000
2000
0000
0000
0010
3020
0000
0000
0000
,
0230
0000
0000
0000
0000
0000
0000
0000
0000
0000
0000
0000
0301
0000
0000
0000
0000
0000
1000
0000
0000
0000
0000
0000
0001
0000
0010
0000
0001
0000
0010
0000
0001
0000
0010
0000
0001
0000
0000
1000
0000
0000
0010
0000
0000
0100
0000
0000
,
0001
0000
0000
0000
0011
0000
1100
0000
0102
0000
0000
1000
2003
0000
0000
0000
,
3010
0000
0000
0000
0110
0000
1001
0000
1010
0000
0000
0001
1000
0001
0000
0100
,
0020
0000
0230
0302
2003
3200
0320
0032
,
0203
0000
0000
0000
0310
1000
0010
1000
0001
0000
0000
0000
1001
0000
1010
0000
,
0101
0000
0000
0000
0000
0000
0000
0000
0000
0000
0000
0000
0011
0000
0000
0000
0000
0000
0110
0000
0000
0000
0000
0000
1100
0000
0000
0000
0000
0000
0001
0000
1000
0000
0001
0000
1000
0000
0000
0000
0000
0000
0010
0000
0000
0100
0000
0000
,
0010
0000
1000
0100
0010
0001
0010
0100
1000
0000
0000
0000
1010
0000
1100
0000
,
0120
0000
0000
0001
0032
0000
0000
1003
1001
0000
0000
0100
0101
0000
0000
0001
,
0011
0100
1000
0001
0010
0001
0100
1000
,
0010
0100
0010
1000
0100
0010
0001
0100
,
0001
0010
0100
1000
0010
1000
0001
1000
,
0100
0000
0000
0000
0100
0000
0010
0000
0001
0000
1000
0001
1000
0010
1000
0100
,
1000
0000
0001
0010
0001
0000
0110
0000
1001
0000
0100
0010
0100
0000
0001
0000
,
0011
1010
1100
0101
,
1000
0100
1000
0100
0010
0001
0010
0001
1000
0010
1000
0010
0100
0001
0100
0001
,
0010
0100
0010
0100
1000
0001
1000
0001
1000
0100
0010
0001
1000
0010
0100
0001
,
0010
0000
0001
0100
0001
0000
1001
0000
0110
0000
1000
0100
1000
0000
0010
0000
,
1010
1100
0101
0011
,
2000
3002
0023
0230
0320
0230
2300
3002
,
0203
0000
0320
0000
1030
0000
0100
0010
0001
0000
0100
0000
0010
0000
1000
0001
,
1000
0000
0100
0000
0010
0000
0001
0100
1000
0000
0010
0000
0100
0000
0001
0010
,
0001
0100
1000
0001
0010
1000
0001
0100
1000
0001
0010
1000
,
1100
0000
0000
0000
0000
0000
0202
0000
0000
0000
0000
0000
0300
0000
0000
0100
0000
0000
0100
0000
0100
0000
0103
0000
,
0110
1001
0110
1001
,
1000
0100
0010
0100
2000
0000
0000
0000
3001
0010
0100
0010
0002
0000
0000
0000
,
1003
0001
0100
0001
2000
0000
0000
0000
3010
0000
0100
0000
0010
0000
1000
0000
,
0001
0000
0100
0001
0020
0000
0000
0000
0130
0000
1000
0000
0001
0000
0100
0000
,
0020
2030
3002
0203
,
0302
0100
0103
1000
1100
0010
0101
0000
,
0020
0100
0130
1000
1010
0001
0101
0000
,
2010
0001
3001
0012
0100
0103
0010
1000
,
1100
0001
1000
0010
0100
1001
0010
0100
,
2010
0001
3100
0120
1000
0031
0201
1000
,
0310
2010
0100
3001
1100
1100
1100
0110
,
0110
0110
0011
0011
0011
1001
1001
1001
,
0010
1000
0100
0010
0001
0000
0101
0000
0101
0000
0101
0000
0010
0001
0100
0001
,
1000
0000
1010
0000
1010
0000
1010
0000
1000
0100
0010
0100
1000
0000
0001
0010
,
0100
0010
0001
0000
1000
0001
0100
0001
1000
0000
1010
0000
1001
0000
0011
0000
,
0110
0000
0000
0000
0000
0000
0000
1100
0000
0000
0000
0000
0000
0000
0202
0000
,
0000
0000
0000
0000
,
0000
0000
0000
0303
;

//---------------dance-single - ----------------
#NOTEDATA:;
#CHARTNAME:;
#CHARTHASH:0:
#STEPSTYPE:dance-single;
#BANNER:;
#DESCRIPTION:;
#CHARTSTYLE:;
#DIFFICULTY:Medium;
#METER:10;
#METERF:0.000000;
#RADARVALUES:0.341657,0.383822,0.121607,0.581010,0.020268,354.000000,336.000000,18.000000,86.000000,0.000000,0.000000,0.000000,0.000000,0.000000,0.341657,0.383822,0.121607,0.581010,0.020268,354.000000,336.000000,18.000000,86.000000,0.000000,0.000000,0.000000,0.000000,0.000000;
#CREDIT:;
#DISPLAYBPM:105.000000:180.000000;
#NOTES:
0000
0000
0000
0000
,
0000
0000
0000
0000
,
0000
0000
0000
0000
,
0000
0000
0000
0000
,
0000
0000
0000
0000
,
1000
0000
0000
0100
0000
0000
0010
0000
0000
0001
0000
0000
0100
0000
0000
0010
,
0000
0000
1000
0000
0000
0001
0000
0000
0010
0000
0000
0100
0000
0000
1000
0000
,
0001
0022
0000
0030
,
2000
0000
0000
3003
,
0020
0032
2003
3020
,
2030
0000
3200
0000
0300
1000
0001
1000
,
0020
0000
0230
0000
0301
0010
0100
1000
,
0002
0203
0320
2030
,
3002
0000
2003
0000
3000
0010
1000
0001
,
0200
0000
0320
0000
0030
0100
0001
1000
,
0002
0023
0230
2300
,
3010
0020
0000
0000
0000
1030
0001
0010
,
0100
0200
0000
0000
0000
0310
0001
1000
,
0010
0100
0010
0000
1000
0001
1000
0000
,
1020
0000
0130
0001
0010
0000
0100
1000
,
0001
0002
0000
0103
0010
0020
0000
1030
,
0100
0200
0000
0310
1000
2000
0000
3000
,
0002
2000
0000
0000
3003
0010
0100
0001
,
1000
0001
1000
0001
0010
0100
0010
0100
,
1000
0000
1000
0000
1000
0000
1000
0100
,
0001
0000
0001
0000
0001
0000
0001
0100
,
0020
0000
0000
1000
1030
0000
0001
0010
,
0002
0000
0000
0100
0103
0000
0010
1000
,
0001
0002
0000
0000
1003
2000
0000
0000
,
3010
0020
0000
0000
0130
0200
0000
0000
,
0310
0020
0000
0000
1030
0001
1000
0100
,
2000
0000
3010
0100
0001
0000
0010
0100
,
1000
0000
1000
0000
1000
0000
1000
0010
,
0001
0000
0001
0000
0001
0000
0001
0010
,
0100
0100
1000
1000
,
0001
0000
1000
0000
0001
0010
0100
1000
,
0002
0000
0103
0010
1000
0000
1100
0000
,
0200
0000
0310
0001
1000
0000
0101
0000
,
0020
0000
1030
0100
0010
0001
0100
0000
,
0110
0000
1001
0000
0020
0000
1030
0001
,
2000
0000
3100
0010
0002
0000
0100
0000
,
0103
0000
0001
1000
0010
0000
1000
0001
,
1000
1100
0101
1010
,
0011
0000
0000
0001
0010
0000
0000
0100
,
1000
0000
0000
1000
0010
0000
0000
0100
,
0001
0000
0000
1000
0001
0000
0000
0100
,
0020
0230
0302
2003
,
3200
0000
0000
1300
0002
0000
0000
0103
,
0002
0023
0230
2300
,
3001
1000
0000
0010
0000
1000
0000
0100
,
0000
0010
0000
0001
1000
0001
0010
0100
,
0020
0000
0000
0031
2000
0000
0000
3100
,
2000
3002
0203
0320
,
1030
0010
1000
0010
0100
0001
0100
0001
,
0010
0100
0000
0100
1000
0000
0000
0001
,
1000
0000
0000
0010
0100
0000
0000
0001
,
0100
0010
0100
0010
1000
0001
1000
0001
,
0010
0000
0220
0000
0300
0031
0100
1000
,
0020
0230
0301
1001
,
0020
2030
3200
0320
,
0032
0000
2003
0000
3010
0100
0010
0100
,
0002
0000
0023
0000
0031
0100
0010
1000
,
0200
0320
0230
2300
,
3002
0000
0000
0103
0020
0000
1030
0000
,
0200
0000
0000
1300
0002
0000
0013
0000
,
1001
0000
0000
0110
0000
0100
0010
1000
,
0001
0000
0010
0100
1000
0001
0000
0100
,
0020
0000
1030
0001
0000
0000
0200
0000
,
0310
1000
0000
0000
0001
0000
0000
0101
,
0000
0000
1000
0000
0000
1100
0000
0000
,
0010
1000
0001
1000
0000
0000
0010
0100
,
0001
0100
0000
0000
0001
0010
0100
1000
,
0000
0000
0001
1000
0001
0010
0100
1000
,
0001
0000
0000
0000
0000
0000
0000
0011
0000
0000
0000
0000
0000
0000
2020
0000
,
0000
0000
0000
0000
,
0000
0000
0000
3030
;

//---------------dance-single - ----------------
#NOTEDATA:;
#CHARTNAME:;
#CHARTHASH:0:
#STEPSTYPE:dance-single;
#BANNER:;
#DESCRIPTION:;
#CHARTSTYLE:;
#DIFFICULTY:Easy;
#METER:7;
#METERF:0.000000;
#RADARVALUES:0.241283,0.307057,0.202678,0.358065,0.003378,250.000000,220.000000,30.000000,53.000000,0.000000,0.000000,0.000000,0.000000,0.000000,0.241283,0.307057,0.202678,0.358065,0.003378,250.000000,220.000000,30.000000,53.000000,0.000000,0.000000,0.000000,0.000000,0.000000;
#CREDIT:;
#DISPLAYBPM:105.000000:180.000000;
#NOTES:
0000
0000
0000
0000
,
0000
0000
0000
0000
,
0000
0000
0000
0000
,
0000
0000
0000
0000
,
0000
0000
0000
0000
,
1000
0100
0010
0001
,
0100
0010
1000
0001
,
0010
0220
0000
0000
,
0000
0000
0000
0330
,
1000
1000
0001
0010
,
0100
0010
0000
0001
,
0100
0100
0010
1000
,
0001
0001
0010
0100
,
1000
0010
0000
0100
,
0001
1000
0000
0100
,
1000
1000
0001
0001
,
0022
0033
1000
0010
,
2020
3030
0100
0001
,
0010
0001
1000
0010
,
1000
0100
0010
0001
,
2002
3003
0220
0330
,
0202
0303
2200
3300
,
0022
0033
0100
0010
,
1000
1000
0001
0001
,
1001
0010
1000
0010
,
0100
0001
0100
0001
,
0020
0000
0031
1000
,
0020
0000
0200
0330
,
2020
3030
2002
3003
,
0022
0033
0220
0330
,
2200
3300
0001
0100
,
0110
0010
1000
0001
,
0011
0100
1000
0010
,
1010
1000
0001
0100
,
0002
0100
1003
0000
,
0010
0100
0001
1000
,
1100
0001
1000
1000
,
0101
1000
0001
0001
,
1001
0100
0010
0010
,
1000
0001
0010
0010
,
0100
0100
0020
1000
,
0001
0130
0110
0001
,
0100
0100
0010
1000
,
1100
0000
0010
0000
,
0100
0000
0001
0000
,
1000
0000
0100
0000
,
1000
0010
0001
0100
,
0220
0330
2002
3003
,
0001
0010
0100
1000
,
0010
0010
0100
0100
,
1000
0001
1000
0001
,
2200
3300
0022
0033
,
1000
0001
0100
0010
,
1000
0100
0010
0001
,
0020
0000
0032
0000
,
2003
0000
3200
0000
,
1300
1000
0001
0001
,
1100
0022
0033
0100
,
0010
1000
0010
1000
,
0001
0001
1000
0010
,
1000
0100
0000
0010
,
0100
1000
0000
0001
,
1000
0010
0010
0100
,
0002
0000
1000
0103
,
2000
0000
0010
3100
,
0020
0000
0000
0230
0000
0000
0300
0000
,
0001
0000
0000
1000
0000
0010
0000
0000
,
2000
0000
0000
3001
0000
0000
0020
0000
,
0000
0130
0000
0000
0001
0000
0000
0010
,
0000
0000
0100
0000
0000
1000
0000
0000
,
0010
0000
0000
0010
0000
0000
0100
0000
,
0000
0100
0000
0000
0001
0000
0000
0001
,
0000
0000
1000
0000
0000
1000
0000
0000
,
0010
0000
0000
0000
0000
0000
0000
1001
0000
0000
0000
0000
0000
0000
0220
0000
,
0000
0000
0000
0000
,
0000
0000
0000
0330
;

//---------------dance-single - ----------------
#NOTEDATA:;
#CHARTNAME:;
#CHARTHASH:0:
#STEPSTYPE:dance-single;
#BANNER:;
#DESCRIPTION:;
#CHARTSTYLE:;
#DIFFICULTY:Beginner;
#METER:5;
#METERF:0.000000;
#RADARVALUES:0.145735,0.204705,0.067559,0.101339,0.000000,151.000000,141.000000,10.000000,15.000000,0.000000,0.000000,0.000000,0.000000,0.000000,0.145735,0.204705,0.067559,0.101339,0.000000,151.000000,141.000000,10.000000,15.000000,0.000000,0.000000,0.000000,0.000000,0.000000;
#CREDIT:;
#DISPLAYBPM:105.000000:180.000000;
#NOTES:
// measure 0
0000
0000
0000
0000
,  // measure 1
0000
0000
0000
0000
,  // measure 2
0000
0000
0000
0000
,  // measure 3
0000
0000
0000
0000
,  // measure 4
0000
0000
0000
0000
,  // measure 5
1000
0000
0010
0000
,  // measure 6
0100
0000
0001
0000
,  // measure 7
0000
2002
0000
0000
,  // measure 8
3003
0000
0000
0000
,  // measure 9
0010
0000
1000
0000
,  // measure 10
0001
0001
0000
0000
,  // measure 11
0100
0000
0010
0000
,  // measure 12
1000
0000
0100
0000
,  // measure 13
0010
0010
0000
0000
,  // measure 14
0100
0100
0000
0000
,  // measure 15
1000
1000
1000
0000
,  // measure 16
1001
0000
0000
0010
,  // measure 17
0010
0000
0000
1000
,  // measure 18
1000
0000
0001
0000
,  // measure 19
0010
0000
0001
0000
,  // measure 20
0100
0000
0100
0000
,  // measure 21
0010
0000
0010
0000
,  // measure 22
1000
0000
0000
0000
,  // measure 23
0001
0001
0001
0000
,  // measure 24
0010
0010
0010
0000
,  // measure 25
0100
0100
0100
0000
,  // measure 26
1000
0000
0000
0001
,  // measure 27
0001
0000
1000
0000
,  // measure 28
0100
0000
0100
0000
,  // measure 29
0010
0000
0010
0000
,  // measure 30
0100
0000
1000
1000
,  // measure 31
1000
0000
0001
0000
,  // measure 32
1000
1000
1000
0000
,  // measure 33
0001
0001
0001
0000
,  // measure 34
0100
0000
0010
0000
,  // measure 35
1000
0000
0100
0100
,  // measure 36
0100
0000
0010
0010
,  // measure 37
0010
0000
0001
0001
,  // measure 38
0001
0000
1000
0000
,  // measure 39
0010
0010
0010
0000
,  // measure 40
0100
0000
0220
0000
,  // measure 41
0330
0000
0001
0001
,  // measure 42
0001
0000
1000
1000
,  // measure 43
1000
0000
0000
0000
,  // measure 44
0010
0000
0000
0000
,  // measure 45
0100
0000
0001
0000
,  // measure 46
1000
1000
1000
0000
,  // measure 47
1001
0000
0110
0000
,  // measure 48
0001
0001
0001
0000
,  // measure 49
0010
0000
0100
0000
,  // measure 50
1000
0000
0001
0000
,  // measure 51
0110
0000
1001
0000
,  // measure 52
0100
0100
0100
0000
,  // measure 53
0001
0000
1000
0000
,  // measure 54
0020
0000
0030
0000
,  // measure 55
0200
0000
0300
0000
,  // measure 56
0001
0000
1000
0000
,  // measure 57
0010
0010
0000
0000
,  // measure 58
1000
0000
0110
0000
,  // measure 59
0001
0000
0100
0000
,  // measure 60
1000
1000
0000
0000
,  // measure 61
0010
0010
0000
0000
,  // measure 62
1000
0001
1000
0000
,  // measure 63
0010
0000
0100
0000
,  // measure 64
0010
0000
0100
0000
,  // measure 65
0002
0000
0003
0000
,  // measure 66
2000
0000
3000
0000
,  // measure 67
2002
0000
0000
3003
0000
0000
0220
0000
,  // measure 68
0000
0330
0000
0000
2000
0000
0000
3000
,  // measure 69
0000
0000
0002
0000
0000
0003
0000
0000
,  // measure 70
0010
0000
0000
0010
,  // measure 71
0000
0000
0100
0000
,  // measure 72
0000
0000
0100
0000
0000
1000
0000
0000
,  // measure 73
0001
0000
0000
0000
0000
0000
0000
0020
,  // measure 74
0000
0000
0000
0000
,  // measure 75
0000
0000
0000
0030
;
