#VERSION:0.83;
#TITLE:Northern Cross;
#SUBTITLE:;
#ARTIST:BlackY;
#TITLETRANSLIT:;
#SUBTITLETRANSLIT:;
#ARTISTTRANSLIT:;
#GENRE:;
#ORIGIN:;
#TAGS:;
#CREDIT:;
#BANNER:Northern Cross-bn.png;
#BACKGROUND:Northern Cross-bg.png;
#PREVIEWVID:;
#JACKET:Northern Cross-jacket.png;
#CDIMAGE:;
#DISCIMAGE:;
#LYRICSPATH:;
#CDTITLE:;
#MUSIC:Northern Cross.ogg;
#OFFSET:-0.748000;
#SAMPLESTART:81.253998;
#SAMPLELENGTH:20.000000;
#SELECTABLE:YES;
#DISPLAYBPM:155.000000;
#BPMS:0.000000=155.000000;
#STOPS:;
#DELAYS:;
#WARPS:;
#TIMESIGNATURES:0.000000=4=4;
#TICKCOUNTS:0.000000=4;
#COMBOS:0.000000=1;
#SPEEDS:0.000000=1.000000=0.000000=0;
#SCROLLS:0.000000=1.000000;
#FAKES:;
#LABELS:0.000000=Song Start;
#BGCHANGES:;
#KEYSOUNDS:;
#ATTACKS:
;

//---------------dance-single - ----------------
#NOTEDATA:;
#CHARTNAME:;
#CHARTHASH:1333879765:
#STEPSTYPE:dance-single;
#BANNER:;
#DESCRIPTION:;
#CHARTSTYLE:;
#DIFFICULTY:Hard;
#METER:13;
#METERF:0.000000;
#RADARVALUES:0.637147,0.745874,0.400362,0.272246,0.480434,557.000000,507.000000,50.000000,34.000000,0.000000,0.000000,0.000000,0.000000,0.000000,0.637147,0.745874,0.400362,0.272246,0.480434,557.000000,507.000000,50.000000,34.000000,0.000000,0.000000,0.000000,0.000000,0.000000;
#CREDIT:;
#DISPLAYBPM:155.000000;
#NOTES:
0000
0000
0000
0000
,
0000
0000
0000
0000
,
0000
0000
0000
0000
,
0000
0000
0000
0000
,
0000
0000
0000
0000
,
0001
0000
0000
0010
0000
0000
0100
0000
1000
0000
0000
0000
1000
0000
0001
0000
,
0100
1000
0001
1000
0010
0001
0100
0010
,
1000
0000
0000
0100
0000
0000
0010
0000
0001
0000
0000
0000
0100
0000
0010
0000
,
0110
0000
0000
0001
1000
0010
1000
0100
,
1000
0000
0000
0001
0000
0000
0010
0000
0100
0000
0000
0000
1000
0000
0010
0000
,
0100
1000
0001
0010
0100
0001
0010
1000
,
0001
0000
0000
0010
0000
0000
0100
0000
1000
0000
0000
0000
0010
0000
1000
0000
,
0100
0000
0010
0000
0001
0000
0100
0000
0001
1000
0000
0001
0000
1000
0000
0010
,
0100
0000
0000
0001
0000
0000
1000
0000
0010
0000
0000
0000
1000
0000
0100
0000
,
0010
0000
0001
0000
0100
0000
0010
0000
0100
0000
0001
1000
0000
0001
1000
0000
,
0010
0000
0000
1000
0000
0000
0001
0000
0100
0000
0000
0000
0001
0000
1000
0000
,
1100
0000
0000
0101
0000
0000
0001
1000
0001
1000
0000
0000
1010
0000
0000
1001
,
0000
0000
0000
1001
0000
0000
0000
0000
0000
1000
0000
0000
0001
0000
0000
0000
1000
0000
0000
0000
0001
0000
0000
0000
0000
0000
0000
0000
0000
0000
0110
0000
0000
0000
0000
0000
0000
0000
0000
0000
0000
0000
0000
0000
0000
0000
0000
0000
,
1001
0000
0010
0000
1000
0001
0000
0001
0010
0000
0100
0000
1000
0100
0000
0000
,
0010
0001
0000
0001
0000
1000
0000
1000
0000
0000
0020
0000
0000
0230
0000
0000
,
0301
0000
0010
0000
0100
0000
1000
0001
1000
0000
0000
0010
0000
0000
0100
0000
,
0001
1000
0000
1000
0100
0000
0010
0000
0002
0000
0000
0000
2003
0000
0000
0000
,
3010
0000
0000
0000
1000
0000
0001
0000
0010
0000
0100
0000
1000
0001
0000
0000
,
0010
0100
0000
0100
0000
0001
0000
1000
0000
0000
0200
0000
0000
0320
0000
0000
,
0032
0000
0000
0203
0000
0000
0302
0000
0000
2003
0000
0000
3010
0100
0010
0100
,
0010
1000
0001
1000
0100
0000
0011
0000
,
1100
0000
0000
0001
0000
0000
1000
0010
1000
0000
0100
0000
0010
0000
0001
0000
,
0000
0000
0000
0101
0000
0000
0001
0010
0001
0000
0100
0000
0010
0000
1000
0000
,
0000
0000
0000
1010
0000
0000
0100
0010
0100
0000
0001
0000
1000
0000
0010
0000
,
0110
1001
0110
1001
,
2010
0000
3010
0101
0000
0001
1000
0200
,
0000
0310
0001
0100
1000
0100
0001
0010
,
0100
1000
0010
0001
0010
1000
0100
0010
,
0011
1100
0101
1010
,
0011
0000
0000
0011
0000
0000
0011
0000
1000
0000
0001
0000
0100
0000
1010
0000
,
0000
1010
0000
0000
1010
0000
0001
0000
1000
0000
0100
0000
0010
0000
0001
0000
,
0000
0000
0100
0010
0100
0000
0000
0001
1000
0000
0010
0000
1000
0000
0001
0000
,
0100
0000
0000
0100
0010
0000
0000
0010
1000
0000
0000
1000
0001
0000
0000
0001
,
0010
0000
0001
0100
0001
0000
0010
0000
1000
0000
0010
0000
0100
0000
1000
0000
,
0010
0100
0001
0010
1000
0010
0001
0100
,
1000
0100
0010
1000
0001
0010
0001
0100
,
1000
0000
0000
0000
0100
0000
0000
0000
0010
0000
0000
0000
0001
0000
0000
1000
,
0002
0000
0000
0000
0000
0000
0020
0000
0000
0000
0000
0000
0033
0000
0100
1000
,
0200
0320
0230
2300
,
3010
0000
0000
1000
0000
0000
0001
0000
0000
0000
1010
0000
0000
0000
0100
0000
,
2000
0000
3002
0000
0203
0000
0310
0100
,
0002
0000
0000
1003
0000
0000
0011
0000
0000
0000
1000
0000
0000
0000
0001
0000
,
0100
0000
0000
0010
0000
0000
0100
0000
0001
0000
0000
0010
0000
0000
1000
0000
,
0001
0000
0000
1000
0000
0000
0100
0000
0000
0000
0101
0000
0000
0000
0010
0001
,
0010
1000
0010
0001
0100
0010
1000
0001
,
0010
1000
0010
0100
0010
0001
0100
0110
,
0000
0000
2000
3000
,
0001
0000
0000
1000
0000
0000
0001
0000
0200
0000
0000
0000
0310
0000
1000
0000
,
0100
0010
0000
0200
0000
0000
1000
0000
1300
0000
0001
0000
0100
0000
0010
0000
,
1000
0000
0000
0100
0000
0000
1000
0000
0001
0000
0000
0010
0000
0001
1000
0000
,
0010
1000
0100
0010
1000
0010
0001
0100
,
0010
0000
0000
1000
0000
0000
0001
0000
1000
0000
0000
0100
0000
0000
0010
0000
,
0002
0000
0000
0000
0103
0000
1000
0001
1000
0000
0010
0100
0000
0010
0100
0000
,
0001
0000
0000
0010
0000
0000
0100
0000
1000
0000
0000
0000
0010
0000
1000
0000
,
0100
0010
0001
1000
0010
0100
0001
1000
,
1100
0000
0000
0101
0000
0000
1100
0000
1100
0000
0000
0010
0000
0000
0100
0000
,
0001
0010
1000
0100
0010
0001
1000
0010
,
1010
0000
0000
0011
0000
0000
1010
0000
1010
0000
0000
0000
0100
0000
0001
0000
,
1000
0100
0001
0100
0010
1000
0010
0001
,
0100
0010
0000
0100
0000
0000
0001
0000
1000
0000
0010
0000
1000
0000
0001
0000
,
0010
0100
0000
1000
0000
0000
0001
0010
0001
0000
0100
0000
0010
0000
1000
0000
,
0100
0010
1000
0010
0100
0010
0001
0100
,
0010
0000
1000
0010
1000
0000
0010
1000
0010
0000
0000
0000
2001
0000
0000
0000
,
3100
0000
0000
0010
0000
0000
0001
0000
0201
0000
0000
0010
0300
0000
0100
0000
,
1000
0100
0001
0010
0100
0001
0100
0010
,
0001
0000
1000
0010
0000
1000
0010
0000
0100
0000
0000
0000
0001
1000
0001
1000
,
0002
0000
0000
0000
0003
0000
0100
0010
0100
0000
0001
1000
0000
0001
0000
1000
,
0000
1100
0010
1000
0001
1000
0100
0010
,
0001
0100
0000
0001
0100
0000
0001
0100
0000
0010
1000
0000
0100
0000
0010
0000
,
0002
0000
0000
0023
0000
0000
2030
0000
0000
0000
3100
0010
0000
0001
1000
0000
,
1010
0000
0000
0000
0000
0000
0000
0000
0000
0101
0000
0000
0000
0000
0000
0000
0000
0000
0001
0000
0000
1000
0000
0000
0000
0000
0000
1010
0000
0000
0000
0000
0000
0000
0000
0000
1000
0000
0000
0000
0100
0000
0000
0000
0010
0000
0000
0000
,
0000
0000
0000
0000
0000
0000
0011
0000
0000
0000
0000
0000
0000
0000
0000
1001
0000
0000
0000
0000
0000
1001
0000
0000
0000
0000
0000
1001
0000
0000
0000
0000
0000
0001
0000
0000
0000
0010
0000
0000
0000
0100
0000
0000
0000
1000
0000
0000
,
0000
0000
0000
0000
0000
0000
0000
0000
0000
0000
0000
0000
0000
0000
0000
0000
0000
0000
0000
0010
0000
0000
1000
0000
0000
0020
0000
0000
0200
0000
0000
0000
0000
0000
0000
0000
0000
0000
0000
0000
0000
0000
0000
0000
0000
0000
0000
0000
,
0000
0000
0000
0000
,
0000
0000
0000
0000
,
0000
0000
0000
0000
,
0330
0000
0000
0000
;

//---------------dance-single - ----------------
#NOTEDATA:;
#CHARTNAME:;
#CHARTHASH:0:
#STEPSTYPE:dance-single;
#BANNER:;
#DESCRIPTION:;
#CHARTSTYLE:;
#DIFFICULTY:Medium;
#METER:11;
#METERF:0.000000;
#RADARVALUES:0.506744,0.681016,0.400362,0.352318,0.196177,443.000000,393.000000,50.000000,44.000000,0.000000,0.000000,0.000000,0.000000,0.000000,0.506744,0.681016,0.400362,0.352318,0.196177,443.000000,393.000000,50.000000,44.000000,0.000000,0.000000,0.000000,0.000000,0.000000;
#CREDIT:;
#DISPLAYBPM:155.000000;
#NOTES:
0000
0000
0000
0000
,
0000
0000
0000
0000
,
0000
0000
0000
0000
,
0000
0000
0000
0000
,
0000
0000
0000
0000
,
0001
0000
0000
0010
0000
0000
0100
0000
1000
0000
0000
0000
0020
0000
0000
0000
,
2030
3200
0320
0032
,
1003
0000
0000
0001
0000
0000
0100
0000
0010
0000
0000
0000
0000
0000
0100
0000
,
0110
0000
0000
0001
1000
0010
1000
0100
,
1000
0000
0000
0010
0000
0000
0100
0000
0001
0000
0000
0000
0000
0000
1100
0000
,
0000
0001
1000
0020
0000
0130
0000
0010
,
0100
0000
0000
0001
0000
0000
1000
0000
0010
0000
0000
0000
1000
0000
0100
0000
,
0020
0000
0000
0000
0032
0000
0000
0000
1003
0000
0000
0110
0000
0110
0000
0000
,
0001
0000
0000
1000
0000
0000
0010
0000
0100
0000
0000
0000
0000
0000
0001
0000
,
2000
0000
3010
0100
0002
0000
0013
0100
,
1000
0000
0000
0100
0000
0000
0010
0000
0001
0000
0000
0000
0000
0000
0100
0000
,
0101
0000
0000
0101
0000
0000
1010
0000
0000
1010
0000
0000
1100
0000
0000
1100
,
0000
0001
1000
0010
0000
0110
0000
0000
,
1001
0000
0010
1000
0001
1000
0100
0000
,
0001
1000
0010
1000
0100
0010
0001
0000
,
0100
0000
0010
1000
0001
0010
0100
0000
,
1000
0001
1000
0010
0100
0001
0010
0000
,
0100
0000
1000
0001
1000
0010
0100
0000
,
0010
1000
0001
0010
0001
0100
1000
0000
,
0020
0000
0000
2030
0000
0000
3002
0000
0000
0203
0000
0000
0310
0000
0000
0000
,
1000
0100
0001
0100
1000
0000
0101
0000
,
1100
0000
0000
0000
0000
0000
0001
1000
0001
0000
0010
0000
0100
0000
1000
0000
,
0000
0000
0000
0000
0000
0000
0010
1000
0010
0000
0100
0000
0001
0000
1000
0000
,
0000
0000
0000
0000
0000
0000
0100
1000
0100
0000
0010
0000
0001
0000
1000
0000
,
0020
2030
3200
0302
,
0013
0000
0000
1010
0000
1100
0000
0011
,
0000
0001
0010
1000
0001
0100
1000
0000
,
0010
1000
0100
0010
0002
0000
0003
1000
,
0002
0203
0320
1030
,
1001
0000
0000
1001
0000
0000
1001
0000
0000
0000
0000
0000
0000
0000
0110
0000
,
0000
0110
0000
0000
0110
0000
0000
0000
0001
0000
0010
0000
0100
0000
1000
0000
,
0000
0000
0101
0010
1000
0001
1000
0100
,
0020
0032
2003
3020
,
0130
0001
0010
0000
0001
0100
1000
0000
,
0100
1000
0010
0000
1000
0001
0010
0000
,
0100
0000
0000
0000
1000
0000
0001
0000
1000
0000
0000
0010
0000
0000
0100
0000
,
0001
0010
0100
1000
,
0020
0000
0000
0200
0000
0000
0330
0000
,
0002
0203
0320
2030
,
3100
0000
0000
1000
0000
0000
0001
0000
0000
0000
0011
0000
0000
0000
0010
0000
,
0200
2300
3002
2003
,
3010
0000
0000
0100
0000
0000
0001
0000
0000
0000
1100
0000
0000
0000
1000
0000
,
0001
0011
1000
1010
,
0100
0000
0000
0010
0000
0000
0001
0000
0000
0000
0110
0000
0000
0000
1000
0000
,
0001
0010
0100
1000
0100
0010
0001
0000
,
1000
0000
0010
0100
0001
0000
0010
0100
,
1000
0000
0011
0000
,
0001
0000
0000
0010
0000
0000
0100
0000
2000
0000
0000
0000
3000
0000
0000
0000
,
0010
1000
0001
0000
0010
0100
1000
0000
,
0010
0000
0000
1000
0000
0000
0001
0000
0200
0000
0000
0000
0300
0000
0000
0000
,
0001
1000
0100
0000
0010
0001
1000
0000
,
0100
0000
0000
0010
0000
0000
0100
0000
1000
0000
0000
0001
0000
0000
1000
0000
,
0020
0000
0030
1000
0002
0000
0013
0100
,
0010
0000
0000
0001
0000
0000
0100
0000
1000
0000
0000
0000
0000
0000
0010
0000
,
1000
0001
1000
0010
1000
0100
1000
0000
,
1100
0000
0000
0101
0000
0000
1100
0000
1100
0000
0000
0000
0001
0000
0010
0000
,
0001
1000
0010
0000
1000
0100
0001
0000
,
1010
0000
0000
0011
0000
0000
1010
0000
1010
0000
0000
0000
0100
0000
0010
0000
,
0001
0100
0001
0000
0010
1000
0100
0000
,
1000
0000
0000
0010
0000
0000
0100
0000
0001
0000
0000
0010
0000
0000
1000
0000
,
0100
0000
0010
0001
1000
0000
0010
0100
,
0010
0000
0000
1000
0000
0000
0100
0000
0001
0000
0000
0000
0010
0000
0100
0000
,
1000
0010
0001
0010
1000
0000
1002
0000
,
0013
0000
0000
0001
0000
0000
0100
0000
1000
0000
0000
0000
0010
0000
0100
0000
,
0001
0000
0010
0100
1000
0001
0100
0000
,
0001
0000
0000
1000
0000
0000
0100
0000
0010
0000
0000
0000
0001
0000
1000
0000
,
0002
0000
0000
0000
0003
0000
1000
0100
1000
0000
0000
0010
0000
0000
0100
0000
,
0001
0000
1000
0001
0010
0000
0001
0100
,
1000
0000
1010
0000
0101
0000
1000
0100
,
0001
0000
0000
0010
0000
0000
0100
0000
0000
0000
0110
0000
0000
0000
0001
0000
,
0011
0000
0000
0011
0000
0000
1100
0000
0000
1100
0000
0000
1010
0000
0000
1010
,
0000
0000
0101
0000
0000
0101
0000
1000
0000
0100
0000
0010
0000
0001
0000
0100
,
0000
0000
0000
0000
0000
0000
0000
0000
0000
0000
0000
0000
0000
0000
0000
0000
0000
0000
0000
0000
0000
0000
0001
0000
0000
2000
0000
0000
0002
0000
0000
0000
0000
0000
0000
0000
0000
0000
0000
0000
0000
0000
0000
0000
0000
0000
0000
0000
,
0000
0000
0000
0000
,
0000
0000
0000
0000
,
0000
0000
0000
0000
,
3003
0000
0000
0000
;

//---------------dance-single - ----------------
#NOTEDATA:;
#CHARTNAME:;
#CHARTHASH:0:
#STEPSTYPE:dance-single;
#BANNER:;
#DESCRIPTION:;
#CHARTSTYLE:;
#DIFFICULTY:Easy;
#METER:7;
#METERF:0.000000;
#RADARVALUES:0.347743,0.434860,0.288261,0.112101,0.016014,304.000000,268.000000,36.000000,14.000000,0.000000,0.000000,0.000000,0.000000,0.000000,0.347743,0.434860,0.288261,0.112101,0.016014,304.000000,268.000000,36.000000,14.000000,0.000000,0.000000,0.000000,0.000000,0.000000;
#CREDIT:;
#DISPLAYBPM:155.000000;
#NOTES:
// measure 0
0000
0000
0000
0000
,  // measure 1
0000
0000
0000
0000
,  // measure 2
0000
0000
0000
0000
,  // measure 3
0000
0000
0000
0000
,  // measure 4
0000
0000
0000
0000
,  // measure 5
0001
0100
1000
0010
,  // measure 6
1000
0001
1000
0100
,  // measure 7
0010
0001
0100
0000
,  // measure 8
0110
0000
2000
3002
,  // measure 9
0013
0001
0100
1000
,  // measure 10
0010
0100
0010
1000
,  // measure 11
0100
0001
0010
0100
,  // measure 12
0010
0001
0100
0010
,  // measure 13
1000
0001
1000
0100
,  // measure 14
0010
0001
0100
1000
,  // measure 15
0010
0100
0001
1000
,  // measure 16
1010
0000
0000
0101
0000
0000
1100
0000
,  // measure 17
0000
0000
0011
0000
0000
0110
0000
0000
,  // measure 18
1001
0100
0001
0010
,  // measure 19
0001
0100
1000
0010
,  // measure 20
1001
0010
1000
0100
,  // measure 21
0010
0001
0200
0320
,  // measure 22
1030
0010
0001
0100
,  // measure 23
0010
0100
0001
0010
,  // measure 24
0001
0100
1000
0010
,  // measure 25
1000
0100
0001
0011
,  // measure 26
2100
0000
0001
3100
,  // measure 27
0020
0000
1000
0031
,  // measure 28
0200
0000
0010
1300
,  // measure 29
0001
0010
0100
1000
,  // measure 30
0002
0000
0010
0103
,  // measure 31
1000
0001
1000
0100
,  // measure 32
0010
0001
0100
0000
,  // measure 33
1010
0001
1000
0100
,  // measure 34
0201
0000
1000
0301
,  // measure 35
0020
0000
1030
1001
,  // measure 36
0100
2010
0001
3010
,  // measure 37
1000
0001
1000
0100
,  // measure 38
0010
0001
0100
1000
,  // measure 39
0100
0010
0100
1000
,  // measure 40
0010
1000
0001
0010
,  // measure 41
0001
0010
0100
1000
,  // measure 42
0002
0000
0000
1003
0000
0000
0000
0000
,  // measure 43
0010
0100
0010
1000
,  // measure 44
0100
0010
0001
0000
,  // measure 45
1000
0001
0010
0001
,  // measure 46
0100
0010
1000
0100
,  // measure 47
1000
0010
0001
0010
,  // measure 48
0100
0010
0001
1000
,  // measure 49
0010
0100
0001
1000
,  // measure 50
0100
0010
0100
0010
,  // measure 51
0002
0000
2000
3003
,  // measure 52
0010
1000
1100
0000
,  // measure 53
0001
0010
0001
0100
,  // measure 54
1000
0001
0011
0100
,  // measure 55
0010
1000
0001
0010
,  // measure 56
0001
0101
0100
0010
,  // measure 57
0110
0000
1000
0100
,  // measure 58
0001
1000
1001
0000
,  // measure 59
0010
0100
0001
1000
,  // measure 60
1100
0101
1100
0001
,  // measure 61
1000
0001
0010
0100
,  // measure 62
1010
0011
1010
1000
,  // measure 63
0100
0001
0010
0100
,  // measure 64
1001
0110
0001
0100
,  // measure 65
0110
1001
1000
0001
,  // measure 66
0011
1000
0001
0100
,  // measure 67
0010
0010
0010
0101
,  // measure 68
1000
0001
1000
0010
,  // measure 69
0100
0010
1000
0100
,  // measure 70
0010
0001
0100
0010
,  // measure 71
0100
0001
0010
1000
,  // measure 72
0100
0010
0001
0010
,  // measure 73
1000
0100
1000
0010
,  // measure 74
1000
0001
0100
0010
,  // measure 75
1010
0000
0000
0101
0000
0000
0011
0000
,  // measure 76
0000
0000
1100
0000
0000
0000
0000
1000
0000
0000
0000
0001
0000
0000
0000
0100
,  // measure 77
0000
0000
0000
0000
0000
0000
0000
0110
0000
0000
0000
0000
;

//---------------dance-single - ----------------
#NOTEDATA:;
#CHARTNAME:;
#CHARTHASH:0:
#STEPSTYPE:dance-single;
#BANNER:;
#DESCRIPTION:;
#CHARTSTYLE:;
#DIFFICULTY:Beginner;
#METER:5;
#METERF:0.000000;
#RADARVALUES:0.223059,0.310614,0.160145,0.016014,0.016014,195.000000,175.000000,20.000000,2.000000,0.000000,0.000000,0.000000,0.000000,0.000000,0.223059,0.310614,0.160145,0.016014,0.016014,195.000000,175.000000,20.000000,2.000000,0.000000,0.000000,0.000000,0.000000,0.000000;
#CREDIT:;
#DISPLAYBPM:155.000000;
#NOTES:
0000
0000
0000
0000
,
0000
0000
0000
0000
,
0000
0000
0000
0000
,
0000
0000
0000
0000
,
0000
0000
0000
0000
,
0001
0001
0001
0000
,
1000
0000
0001
0000
,
0100
0100
0100
0000
,
0110
0000
1001
0000
,
1000
1000
1000
0000
,
0010
0000
0100
0000
,
0010
0010
0010
0000
,
1000
0000
0001
0000
,
0100
0100
0100
0000
,
0001
0000
0010
0000
,
1000
1000
1000
0000
,
0110
0000
0000
1001
,
0000
0000
0110
0000
,
1001
0000
1000
0000
,
0001
0001
0001
0000
,
0010
0000
0001
0000
,
0100
0100
0100
0100
,
0000
0110
0000
0000
,
1000
1000
1000
0000
,
0001
0001
0001
0000
,
0010
0010
0010
0000
,
1001
0000
0001
0001
,
0000
0000
1000
1000
,
0000
0000
0010
0010
,
0010
0000
1000
0000
,
0100
0000
1000
0000
,
1000
0000
0001
0000
,
0100
0000
0010
0000
,
1000
1000
1000
0000
,
1001
1001
0000
0000
,
0110
0110
0000
1001
,
0000
0110
0000
0000
,
0100
0100
0100
0000
,
0010
0000
1000
0000
,
0100
0000
0001
0000
,
0010
0000
0001
0000
,
0100
0000
1000
0000
,
0020
0000
0030
0000
,
0001
0000
0001
0000
,
2000
0000
3000
0000
,
0100
0000
0010
0000
,
0110
0000
0001
0000
,
0010
0010
0010
0000
,
0001
0001
0001
0000
,
0100
0000
1000
0000
,
0010
0000
0100
0000
,
0010
0000
1001
0000
,
1000
1000
1000
0000
,
0001
0000
0010
0000
,
0100
0100
0100
0000
,
1000
0000
0010
0000
,
1000
0000
0001
0000
,
0010
0000
0001
0000
,
0100
0100
0100
0000
,
0010
0000
1000
0000
,
0001
0001
0001
0000
,
0010
0000
0010
0000
,
0100
0100
0100
0000
,
1000
1000
1000
0000
,
0001
0000
1000
0000
,
0010
0010
0010
0000
,
0001
0000
0100
0000
,
0100
0100
0100
0000
,
0001
0001
0001
0000
,
0010
0010
0010
0000
,
1000
1000
1000
0000
,
0100
0100
0100
0000
,
1000
1000
1000
0000
,
0010
0010
0010
0000
,
0100
0100
0100
0000
,
0110
0000
0000
1001
,
0000
0000
0110
0000
0000
0000
0000
1000
0000
0000
0000
1000
0000
0000
0000
1000
,
0000
0000
0000
0000
0000
0000
0000
1001
0000
0000
0000
0000
;
