#TITLE:New York EVOLVED (Type C);
#ARTIST:NC underground;
#BANNER:New York EVOLVED (Type C)-bn.png;
#BACKGROUND:New York EVOLVED (Type C)-bg.png;
#JACKET:New York EVOLVED (Type C)-jacket.png;
#MUSIC:New York EVOLVED (Type C).ogg;
#SAMPLESTART:17.72;
#SAMPLELENGTH:20;
#DISPLAYBPM:48:190;
#BPMS:0=190,117=95,125=190,204=95,236=47.5,243.5=95,258.5=190;
#STOPS:39=0.316,42=0.316,53=0.316,140=0.316,204=1.284,243.5=0.632,258.5=0.632;
#BGCHANGES:;

//---------------dance-single - ----------------
#NOTES:
     dance-single:
     :
     Beginner:
     4:
     :
0000
0000
0000
0000
,
0000
0000
0000
0000
,
0000
0000
0000
0000
,
0000
0000
0000
0000
,
0000
0000
0000
0000
,
0001
0000
0000
0000
,
1000
0000
0000
0000
,
0001
0000
0000
0000
,
1000
0000
0001
0000
,
1001
0000
0000
0000
,
0000
0110
0000
0000
,
0000
1000
0000
0000
,
0001
0000
0100
0000
,
0100
0000
0000
0001
,
0000
0000
0000
1000
,
0000
0000
0000
0001
,
0000
0010
0010
0010
,
0000
0000
0000
0001
,
0000
0000
0000
1000
,
0000
0000
0000
0001
,
0000
0010
0000
0000
,
0000
1000
0000
1000
,
0000
1000
0000
1000
,
0000
0001
0000
0001
,
0000
0100
0000
0100
,
0000
1000
0000
1000
,
0000
1000
0000
1000
,
0000
0001
0000
0001
,
0000
0100
0000
0010
,
0000
0020
0000
0000
,
0000
0000
0000
0000
,
0030
0110
0000
0000
,
0000
1001
0000
0000
,
0000
0000
1000
0000
,
0001
0000
1000
0000
,
0000
0000
0010
0000
,
1000
0000
1000
0000
,
1000
0000
0010
0000
,
0002
0000
0003
0000
,
1000
0000
0010
0000
,
0001
0000
0001
0000
,
0001
0000
0010
0000
,
0020
0000
0030
0000
,
1000
0000
0010
0000
,
1000
0000
1000
0000
,
1000
0000
0010
0000
,
0002
0000
0003
0000
,
1000
0000
0010
0000
,
0001
0000
0001
0000
,
0001
0000
0010
0000
,
0020
0000
0030
0000
,
0001
0000
1000
0001
,
0000
0000
0010
0010
,
0000
0000
1000
0001
,
0000
0000
0100
0100
,
0000
0000
1000
0001
,
0000
0000
0010
0010
,
0000
0000
1000
0001
,
0000
0000
0100
0100
,
0010
0000
0000
1000
,
0000
0100
0000
0001
,
0000
0000
0000
1000
0000
0010
0000
0000
,
0000
0100
0000
0001
0000
0001
0000
0000
,
0000
0010
0000
0001
0000
0010
0000
0000
,
0000
0100
0000
1000
0000
1000
0000
0000
,
0000
0001
0000
0000
0000
0010
0000
0010
,
0000
0010
0000
0000
0000
0000
0000
0000
,
0000
1000
0000
0000
0000
0001
0000
0001
,
0000
0001
0000
0000
0000
0000
0000
0000
,
0000
0001
0000
0000
0000
0100
0000
0100
,
0000
0100
0000
0000
0000
0000
0000
1000
,
0000
0001
0000
1000
0000
0001
0000
1000
,
0000
0001
0000
0000
0000
1001
0000
0000
,
0000
0000
0000
0000
;

//---------------dance-single - ----------------
#NOTES:
     dance-single:
     :
     Easy:
     9:
     :
0000
0000
0000
0000
,
0000
0000
0000
0000
,
0000
0000
0000
0000
,
0000
0000
0000
0000
,
0000
0000
0000
0000
,
1000
1000
0001
0001
,
0010
0010
0100
0000
,
1000
1000
0001
0001
,
1000
0010
0100
0000
,
0000
1001
0000
0000
1001
0000
0000
0000
,
0000
0000
0110
0000
0000
0000
0000
1000
,
0000
0000
0001
0000
0000
1000
0000
0000
,
0001
0100
0100
0220
,
0000
0330
1000
0100
,
0010
0100
0010
0001
,
0100
0000
0001
0100
,
0010
0100
0010
0010
,
0010
0000
1000
0100
,
0010
0100
0010
0001
,
0100
0000
0001
0100
,
0010
1010
0000
0011
,
0000
1000
0010
0001
,
0010
0001
0100
0001
,
0000
0001
0010
1000
,
0010
0001
0100
1000
,
0000
0001
0010
1000
,
0010
1000
0100
1000
,
0000
1000
0010
0001
,
0010
1000
0100
0001
,
0010
0200
0000
0010
,
0000
1000
0000
0001
,
0300
0110
0000
0000
,
0000
1001
0000
0000
,
0000
0000
0101
0000
,
1100
0000
1001
2002
,
3003
0100
0010
1000
,
0100
1000
0001
0010
,
0000
0100
0010
1000
,
0100
0010
0012
0013
,
0000
0100
0010
1000
,
0100
1000
0001
0010
,
0000
0100
0010
1000
,
0100
0010
0100
1100
,
0000
0100
0010
0001
,
0100
0001
1000
0010
,
0000
0100
0010
0001
,
0100
0010
2010
3010
,
0000
0100
0010
0001
,
0100
0001
1000
0010
,
0000
0100
0010
0001
,
0100
0010
0100
0101
,
0010
0000
1000
0000
0100
0100
0110
0000
,
0001
0000
1001
0000
0010
1000
1010
0000
,
0100
0000
0001
0000
0100
0100
0110
0000
,
1000
0000
1001
0000
0010
0001
0011
0000
,
0100
0000
1000
0000
0100
0010
0110
0000
,
0001
0000
1001
0000
0010
1000
1010
0000
,
0100
0000
0001
0000
0100
0010
0110
0000
,
1000
0000
1001
0000
0010
0001
0011
0000
,
1000
0000
0000
0001
0000
0000
0010
0000
,
0000
0100
0000
0000
0010
0000
0000
0000
0000
0001
0000
0000
1000
0000
0000
0000
,
0000
0010
0000
1000
0010
0100
0000
0001
,
0000
0010
0000
0001
0001
0011
0000
1000
,
0000
0010
0000
0001
0010
0100
0000
1000
,
0000
0010
0000
1000
1000
1010
0000
0000
,
0000
0001
0000
0010
0000
0001
0000
1000
,
0000
0100
0000
1100
0000
0000
0000
0010
,
0000
0100
0000
0001
0000
0010
0000
1000
,
0000
0010
0000
0011
0000
0000
0000
1000
,
0000
0010
0000
1000
0000
0001
0000
0100
,
0000
0101
0000
0000
0000
0001
0000
0100
,
0000
1000
0000
0010
0000
0001
1000
0001
,
1000
0001
1000
0001
0000
1001
0000
0000
,
0000
0000
0000
0000
;

//---------------dance-single - ----------------
#NOTES:
     dance-single:
     :
     Medium:
     13:
     :
0000
0000
0000
0000
,
0000
0000
0000
0000
,
0000
0000
0000
0000
,
0000
0000
0000
0000
,
0000
0000
0000
0000
,
1000
0010
0100
0001
,
0010
0000
0010
0000
0100
0010
0100
0000
,
0001
0010
0100
1000
,
1100
0000
0000
0011
0000
0000
1010
0000
,
0001
1000
0000
0000
1200
0000
0300
0010
,
0000
0000
0201
0000
0300
0000
0000
1000
,
0100
0000
0001
0010
0000
1000
0010
0000
,
0100
0000
0010
0000
0100
0000
0010
0000
1000
0000
0001
0000
1000
0000
0001
1000
,
0020
0000
0130
0000
0001
0000
0100
0010
,
1000
0010
0100
0000
0010
0000
1000
0100
,
0001
0100
1000
0000
1000
0000
0100
0010
,
0001
0010
0100
1000
0000
0010
0000
1001
,
0000
1001
0000
0000
0001
0000
0100
0010
,
1000
0010
0100
0000
0010
0000
1000
0100
,
0001
0100
1000
0000
1000
0000
0100
0010
,
0001
0010
0100
1000
0010
0000
0110
0000
,
0000
0000
0001
0010
0001
0100
0010
0100
,
0001
0010
0001
0100
0010
1000
0100
0001
,
1000
0000
1000
0010
1000
0100
0010
0100
,
1000
0010
0100
0001
0100
1000
0001
0010
,
1000
0000
0001
0010
0001
0100
0010
0100
,
0001
0010
0001
0100
0010
1000
0100
0001
,
1000
0000
1000
0010
1000
0100
0010
0100
,
1000
0010
0100
0001
0101
0000
0010
1000
,
0100
0010
0002
0000
0000
0000
0200
0000
,
0300
2003
0000
0020
,
3030
1001
0000
0000
,
0000
0110
0000
0000
,
0000
0000
0000
0000
0011
0011
0000
0000
,
1100
1100
0000
0000
1001
0000
0110
0000
,
1001
0000
0100
0000
0010
1000
0010
1000
,
0100
0000
0100
0000
0001
0010
1000
0010
,
0000
0000
0100
0000
0010
0001
0010
0001
,
0100
0000
0100
0010
1000
0000
0001
1000
,
0100
0000
0100
0000
0010
1000
0010
1000
,
0100
0000
0100
0000
0001
0010
1000
0010
,
1000
0000
0100
0000
0010
0001
0010
0001
,
0100
0000
0100
0010
0100
0000
1000
0100
,
0000
0000
0100
0000
0010
0001
0010
0001
,
0100
0000
0100
0000
1000
0010
0001
0010
,
0000
0000
0100
0000
0010
1000
0010
1000
,
0100
0000
0100
0010
0001
0000
1000
0001
,
0100
0000
0100
0000
0010
0001
0010
0001
,
0100
0000
0100
0000
1000
0010
0001
0010
,
0011
0000
0100
0000
0010
1000
0010
1000
,
0100
0000
0010
0000
1001
0000
0000
0000
1000
0000
0001
0000
0010
0000
0100
0010
,
0100
0000
1000
0000
0010
0001
0101
0000
,
0010
0000
0000
0000
1000
0000
0000
0000
0110
0000
0000
0000
0010
0001
0010
0100
,
1000
0000
0001
0000
0010
1000
1100
0000
,
0010
0000
0000
0000
0001
0000
0000
0000
0110
0000
0000
0000
0010
1000
0010
0100
,
0010
0100
1000
0000
0010
0001
0101
0000
,
0010
0000
0100
0000
1000
0000
0000
0000
0110
0000
0000
0000
0010
0001
0010
0100
,
1000
0100
0001
0000
0010
1000
1100
0000
,
0010
0000
0100
0000
0001
0000
0000
0000
0110
0000
0000
0000
0010
1000
0010
0100
,
0010
0000
0000
1000
0000
0000
0100
0000
0000
0010
0000
0000
0001
0000
0000
0100
,
0000
0000
0001
0000
0000
0001
0000
0000
0010
0000
0000
0010
0000
0000
0010
0000
0000
0000
0100
0000
0000
0100
0000
0000
1000
0000
0000
0001
0000
0000
0000
0000
,
1000
0000
1100
0000
0000
0000
0010
0000
0001
0000
0100
0010
0100
0000
0010
0000
,
0001
0000
0101
0000
0000
0000
1000
0000
0100
0000
0010
0100
0010
0100
0010
0000
,
1000
0000
1100
0000
0000
0000
0010
0000
0001
0000
0100
0010
0100
0000
0010
0000
,
0001
0101
0000
1000
0100
0010
0000
0100
,
0000
0010
0001
0011
0000
0100
1000
0010
,
1000
0100
0010
0110
0000
0001
0010
0100
,
1000
0010
1000
1010
0000
0100
0000
0010
,
0001
0100
1000
0001
0010
1010
0000
0100
,
0001
0010
0001
0011
0000
0100
1000
0010
,
1000
0100
0010
0110
0000
0001
0100
1000
,
0100
0001
0010
1000
0010
0100
0001
0100
,
0010
0000
0001
0100
0010
0100
0010
0000
1000
0000
1001
0000
0000
0000
0000
0000
,
0000
0000
0000
0000
;

//---------------dance-single - ----------------
#NOTES:
     dance-single:
     :
     Hard:
     16:
     :
0000
0000
0000
0000
,
0000
0000
0000
0000
,
0000
0000
0000
0000
,
0000
0000
0000
0000
,
0000
0000
0000
0000
,
0010
0001
1000
0010
,
0200
0000
0010
0301
,
0010
1000
0001
0010
,
0110
0000
0000
0101
0000
0000
1010
0000
,
0001
0101
0000
0000
0021
0000
0130
1100
,
0000
0000
0210
0000
1300
0000
0000
0001
,
0110
0000
1000
0110
0000
0001
0110
0000
,
1000
0000
0010
0000
0001
0000
0010
0000
1000
0000
0010
0100
0001
1000
0100
0000
,
0020
0000
0130
1000
0100
0010
0100
0010
,
0100
0000
0010
1000
0001
0100
0010
0001
,
0100
0000
0100
0010
0001
1000
0100
0001
,
0100
0000
1000
0100
0010
0001
0000
0110
,
0000
0110
0000
0001
0100
0010
0100
0010
,
0100
0000
0010
0001
1000
0100
0010
1000
,
0100
0000
0100
0010
1000
0001
0100
1000
,
0100
0000
0000
0000
0001
0000
0100
0000
0010
0000
1000
0000
0001
0100
0000
1000
,
0100
0000
0000
0000
0010
0000
0001
0000
0100
0000
0001
0000
0010
0001
0010
0001
,
0100
0010
1000
0100
0010
0001
0100
1000
,
0100
0010
0100
0000
0010
0000
1000
0000
0100
0000
1000
0000
0010
1000
0010
1000
,
0100
0000
0010
0000
0001
0000
0010
0000
0100
0000
1000
0000
0001
0100
0001
0100
,
0010
1000
0010
1000
0010
0000
1000
0000
0100
0000
1000
0000
0010
1000
0010
1000
,
0100
0010
0001
0100
0010
1000
0100
0001
,
0100
0010
0100
0000
0010
0000
0001
0000
0100
0000
0001
0000
0010
0001
0010
0001
,
0100
0000
0010
0000
1000
0000
0000
0001
0100
0000
0001
1000
0100
0010
0100
0010
,
0001
0000
1000
0100
0020
0000
0000
0000
0000
0000
0000
0000
0032
0000
0000
0000
,
0100
2003
0010
3200
,
0301
0011
0000
0000
,
0000
1010
0000
0000
,
0000
0000
0000
0000
1100
1100
1001
0000
,
0101
0101
0110
0000
1001
0000
0110
0000
,
1001
0000
0100
0010
0000
1000
0100
0001
,
0000
1000
0020
0001
0130
0010
0100
0010
,
0000
1000
0100
0010
0000
0001
0100
1000
,
0000
0001
0020
1000
0230
0000
0010
0310
,
1010
1000
0100
0010
0000
0001
0100
1000
,
0100
0001
0020
1000
0130
0010
0100
0010
,
0000
0001
0100
0010
1010
1000
0100
0001
,
1001
0000
1000
0000
0010
0000
0000
0000
1000
0000
0001
0100
0010
0000
0100
0000
,
0000
0001
0100
0010
0001
1000
0100
0001
,
0100
1000
0020
0001
0130
0010
0100
0010
,
0000
1000
0100
0010
1000
0001
0100
1000
,
0100
0001
0020
1000
0230
0000
0010
0310
,
1010
1000
0100
0010
0100
0001
0100
1000
,
0100
0001
0020
1000
0130
0010
0100
0010
,
0000
0001
0100
0010
1010
1000
0100
0001
,
0100
0000
0001
0000
0010
0100
1000
0000
0001
0100
0001
0100
0010
0100
0010
0100
,
0001
0000
0100
0000
1000
0100
1001
0010
,
0100
0000
0000
0000
0001
0000
0000
0000
1010
0000
0000
0000
0000
0000
0100
0000
0000
0000
0100
0000
0000
0000
0100
0000
0010
0000
1000
0000
0010
0100
0010
0100
,
0010
0000
0100
0000
0001
0100
1001
0010
,
0100
0000
0000
0000
1000
0000
0000
0000
0011
0000
0000
0000
0000
0000
0100
0000
0000
0000
0100
0000
0000
0000
0100
0000
0010
0000
0001
0000
0010
0100
0010
0100
,
0010
0100
1001
0010
0100
1001
0011
1100
,
0010
0000
0000
0000
0001
0000
0000
0000
1100
0000
0000
0000
0000
0000
0001
0000
0000
0000
0001
0000
0000
0000
0001
0000
0100
0000
0010
0000
0100
0001
0100
0001
,
0100
0010
1001
0100
0010
1001
0101
1010
,
0100
0000
0000
0000
0001
0000
0000
0000
1010
0000
0000
0000
0000
0000
0001
0000
0000
0000
0001
0000
0000
0000
0001
0000
0010
0000
0100
0000
0010
1000
0010
1000
,
0010
0000
0000
1000
0000
0000
0001
0000
0000
1000
0000
0000
0100
0000
0000
0001
0000
0000
1000
0000
0000
0100
0000
0000
0001
0000
0000
1000
0000
0000
0010
0000
,
0000
0000
0001
0000
0000
0001
0000
0000
0100
0000
0000
0100
0000
0000
0100
0000
0000
0000
1000
0000
0000
1000
0000
0000
0001
0000
0000
0001
0000
0000
0000
0000
,
1000
0000
1010
0000
0000
0000
1000
0010
0100
0100
0001
0100
1100
0000
1000
0000
,
0100
0000
0000
0000
0110
0000
0000
0000
0000
0000
0001
0000
0000
0000
0001
0000
0000
0000
0001
0000
1000
0000
0100
0000
1000
0001
1000
0001
1000
0000
0000
0000
,
0001
0000
0011
0000
0000
0000
0001
0010
0100
0100
1000
0100
0101
0000
0001
0000
,
0100
0000
0110
0000
0000
1000
0000
1000
0000
1000
0001
0000
0000
0000
1000
0000
,
0001
1000
0100
0000
1000
0010
0100
0000
0001
0100
1000
0000
0100
0000
0110
0000
,
0000
0000
0001
0100
0001
0100
0010
0000
0000
0000
1000
0000
0100
0000
0001
0000
,
1000
0001
0100
0000
0001
0010
0100
0000
1000
0100
0001
0000
0100
0000
0110
0000
,
1000
0000
1000
0000
0100
0010
0001
0010
0100
1000
0001
0000
0100
0000
1000
0000
,
0001
1000
0100
0000
1000
0010
0100
0000
0001
0100
1000
0000
0100
0000
0110
0000
,
0000
0000
0001
0100
0001
0100
0010
0000
0000
0000
1000
0000
0001
0000
0101
0000
,
1000
1010
0001
0011
1000
0000
0100
0100
,
0100
0000
1000
0100
0001
0100
1000
0000
0010
0100
0001
0000
0000
0000
0000
0000
,
0000
0000
0000
0000
;

//---------------dance-single - ----------------
#NOTES:
     dance-single:
     :
     Challenge:
     18:
     :
0000
0000
0000
0000
,
0000
0000
0000
0000
,
0000
0000
0000
0000
,
0000
0000
0000
0000
,
0000
0000
0000
0000
,
0001
0010
0100
1000
0010
1000
0001
0010
,
0001
0100
0010
1000
0001
1000
0100
0010
,
0001
0100
0010
0100
0001
0010
0100
1000
,
0010
1000
0100
0001
1000
0100
0010
0001
1000
0100
0001
0010
0100
0010
0001
1000
,
0000
0000
0000
0000
1010
0000
0000
0000
0101
0000
0000
0000
1001
0000
0000
0000
0011
0000
0000
0000
0110
0000
0000
0000
2200
3300
0000
0000
1010
0000
0000
0000
,
1001
0000
0000
0000
0011
0000
0000
0000
0110
0000
0000
0000
1100
0000
0000
0000
0202
0303
1000
0000
0002
0000
0000
0000
0000
0000
0000
0000
0013
0000
0100
0000
,
2000
0000
0000
0000
3010
1000
0002
0000
0000
0000
1003
0100
0020
0000
0000
0000
,
0031
0100
0001
0000
1000
0100
1000
0000
0001
1000
0010
0100
1000
0100
0001
0010
,
1000
0010
0100
0001
0200
1300
0010
1000
0001
0010
0100
0000
1000
0010
1000
0000
,
0001
0100
0001
0000
0010
0001
0100
0000
0001
0010
0100
0000
1000
0010
1000
0001
,
0010
0100
1000
0000
0010
1000
0001
1000
0100
0010
0001
0000
0100
0010
1000
0000
,
0001
1000
0100
0000
0010
0001
0010
0001
0010
0001
0010
0001
1000
0100
0001
0010
,
0100
1000
0010
0100
0001
0000
0010
0001
1000
0010
0100
0000
0010
1000
0001
0000
,
1000
0100
0010
0000
0100
1000
0010
0000
0100
0001
0100
0000
0001
0010
0100
0010
,
0100
0010
0001
0000
1000
0100
0010
0001
0100
0010
1000
0000
0001
0010
0100
0000
,
1000
0010
0100
0000
0001
1000
0010
0100
1000
0100
0010
0001
0010
0001
0100
0001
,
1000
0100
1000
0010
0100
0001
0010
0001
1000
0010
1000
0100
0000
0100
0010
0000
,
0001
0100
0010
0000
1000
0100
1000
0100
0001
0100
0001
0100
1000
0100
0001
0100
,
1000
0100
0001
0100
1000
0010
0100
0010
1000
0001
0010
0100
0000
0100
1000
0000
,
0010
1000
0001
0000
0100
1000
0100
1000
0100
0001
0100
0001
0100
1000
0100
0001
,
0100
1000
0100
0001
0010
0100
1000
0001
1000
0010
1000
0100
0000
0010
0001
0000
,
1000
0001
0100
0000
0010
0001
0010
0001
0010
1000
0010
1000
0010
0001
0010
1000
,
0010
0001
0010
1000
0100
0010
0100
0010
0001
0100
1000
0010
0000
1000
0001
0000
,
1000
0100
0010
0000
0001
0010
0001
0010
1000
0010
1000
0010
0001
0010
1000
0010
,
0001
0000
0010
0000
1000
0000
0010
0000
0001
0100
0010
0100
0001
0000
1000
0100
0000
1000
0010
0000
1010
0000
0000
0000
0100
0001
1000
0001
0100
0000
0010
1000
,
0000
0010
0100
0000
0101
0000
0000
0000
0001
1000
0100
1000
0001
0000
0100
0010
0000
0010
1000
0000
1100
0000
0000
0000
0010
0001
0100
0001
1000
0000
0001
1000
,
0000
0100
0010
0000
0011
0000
0000
0000
1001
0000
0000
0000
0010
0000
0000
0000
0100
0000
0000
0000
0010
0000
0000
0000
1000
0000
0000
0000
0010
0000
0000
0000
,
0100
0010
1001
0010
0100
0010
0001
0010
,
0100
0000
0010
0000
1000
0100
1000
0100
0010
0001
0010
0000
0001
0100
0001
0100
,
0010
1000
0010
0000
1000
0001
0100
0010
0100
0010
0001
1000
0100
1000
0010
0001
,
0200
0300
0002
0000
0023
0000
0230
0000
1300
0000
0020
0000
2030
0000
3002
0000
,
0013
0000
0100
0000
1000
0010
1000
0000
0001
0010
0001
0000
0100
0010
0100
0000
,
0001
2000
3200
0320
0031
2000
3002
0023
,
0130
0000
1000
0000
0010
0100
0010
0100
0001
0010
0001
0010
0100
1000
0001
0100
,
0010
2000
3002
0023
0031
0200
0320
2030
,
3100
0000
0010
0000
0100
1000
0100
0000
0001
1000
0001
0000
0010
1000
0010
0000
,
0100
0002
0023
0230
1300
0002
0023
2030
,
3100
0010
0100
0010
0001
0100
0001
0100
0010
1000
0001
1000
0010
1000
0001
1000
,
0100
0020
0032
2003
3100
2000
3020
0230
,
0310
0000
1000
0000
0001
0100
0001
0000
0010
0100
0010
0000
1000
0100
1000
0000
,
0010
0000
0002
0000
0203
0000
2300
0000
3100
0000
0020
0000
0032
0003
0200
0000
,
0310
0000
1000
0000
0100
0010
0001
0100
0001
0010
0100
1000
0001
1000
0100
1000
,
0010
2000
3200
0320
0031
2000
3002
0203
,
0310
0000
0100
0000
1000
0001
1000
0000
0100
0001
0100
0000
0010
0001
0010
0000
,
0100
0020
0032
0203
1300
0002
2003
3200
,
0310
0001
1000
0001
0100
1000
0001
0100
0010
0100
0010
1000
0001
1000
0100
0020
,
0002
0033
0001
0000
0100
0000
0010
0000
1000
0000
0001
0000
1000
0000
0100
0000
0110
0000
0000
0000
0001
1000
0001
1000
0001
0000
0000
0000
1010
0000
0000
0000
,
0100
0000
0001
0000
0010
0000
0001
0000
1000
0000
0100
0000
1000
0000
0010
0000
0100
0000
0101
0000
0001
0000
0101
0000
0010
0000
0101
0000
1000
0010
0100
0001
,
0010
0000
0100
0000
1000
0000
0010
0000
1000
0000
0001
0000
0010
0000
0100
0000
1100
0000
0000
0000
0010
1000
0010
1000
0010
0000
0000
0000
0101
0000
0000
0000
,
0001
0000
0010
0000
1000
0000
0100
0000
0010
0000
0100
0000
1000
0000
0001
0000
1000
0100
1000
0000
0001
0100
0001
0000
1000
0100
0010
0001
1000
0100
0010
0001
,
0100
0000
0010
0000
1000
0000
0001
0000
0010
0000
1000
0000
0100
0000
0010
0000
0011
0000
0000
0000
1000
0010
0100
0010
1000
0000
0000
0000
0001
0010
0100
0010
,
0001
0000
1000
0000
0100
0000
0001
0000
1000
0000
0010
0000
1000
0000
0100
0000
1000
0000
1001
0000
0001
0000
1001
0000
0100
0000
1001
0000
0010
1000
0001
0100
,
0010
0000
1000
0000
0001
0000
0010
0000
0001
0000
0100
0000
1000
0000
0010
0000
0110
0000
0000
0000
0001
1000
0100
1000
0001
0000
0000
0000
0010
0100
1000
0100
,
0010
0000
0001
0000
1000
0000
0001
0000
0100
0000
0010
0000
1000
0000
0001
0000
1000
0100
1000
0000
0001
0100
0001
0000
0010
1000
0100
0001
1000
0100
0010
0001
,
0100
0001
1000
0001
0010
0100
1000
0010
1000
0100
0010
0001
0100
0010
1000
0001
1000
0100
0010
0001
0100
0001
0010
0100
1000
0001
1000
0010
1000
0100
0010
0001
,
0100
0001
0010
0100
1000
0010
1000
0100
1000
0001
0010
0001
1000
0001
0100
0010
1000
0001
1000
0100
0010
0001
0100
0001
0010
0100
1000
0001
0100
0000
0010
0000
,
1000
0000
0001
0000
1000
0000
0100
0000
0010
0000
0001
0000
0000
0000
0100
0000
0010
0000
1000
0100
1000
0000
0001
0100
0001
0000
0010
0100
1000
0000
0001
0000
,
1000
0000
0010
0000
0100
0000
0001
0000
0010
0000
0100
0000
0000
0000
1000
0000
0010
0100
0010
0100
0001
1000
0001
1000
0001
0010
0100
1000
0010
0000
0100
0000
,
0010
0000
1000
0000
0100
0000
0010
0000
0001
0000
0100
0000
0000
0000
0001
0000
0010
0100
1000
0000
0001
1000
0010
0000
1000
0100
0001
0000
0010
0000
0100
0000
,
1000
0000
0010
0000
1000
0000
0001
0000
1000
0000
0100
0000
0010
0001
0010
0001
1000
0100
1000
0200
0020
0330
0000
0000
0001
0000
0100
0000
0010
0000
1000
0000
,
0001
0000
1000
0100
1000
0000
0001
0010
0001
0000
0100
0000
0010
0000
1000
0100
,
1000
0000
0001
0010
0100
0000
1000
0001
1000
0010
0100
0000
0001
0010
0100
0010
,
0001
0000
1000
0100
0010
0000
0001
1000
0010
0000
0100
0000
0001
0010
0100
1000
,
0010
1000
0001
0100
0010
1000
0100
0010
0001
0100
1000
0000
0010
1000
0001
0010
,
0100
0000
1000
0010
0100
0000
0001
1000
0001
0000
0010
0000
0100
0000
1000
0010
,
0100
0000
0001
0010
1000
0000
0100
0010
0001
0000
0100
0000
0010
0001
0100
0010
,
1000
0000
0100
1000
0001
0010
0100
1000
0001
0000
1000
0010
0001
0100
0010
1000
,
0100
0010
0001
1000
0001
1000
0100
0001
0100
0020
2000
0000
0000
0000
0000
0000
,
0000
0000
0000
0000
,
0000
0000
0000
0000
,
0000
0000
0000
0000
0000
3030
0000
0000
;

//---------------dance-double - ----------------
#NOTES:
     dance-double:
     :
     Easy:
     8:
     :
00000000
00000000
00000000
00000000
,
00000000
00000000
00000000
00000000
,
00000000
00000000
00000000
00000000
,
00000000
00000000
00000000
00000000
,
00000000
00000000
00000000
00000000
,
00000010
00000000
00000100
00000000
,
00000001
00000000
00001000
00000000
,
00010000
00000000
00001000
00000000
,
00100000
00000000
01000000
00000000
,
10010000
00000000
10010000
00000000
,
00000000
00000000
01100000
00000000
00000000
00000000
00000000
00010000
,
00000000
00000000
00001000
00000000
00000000
00010000
00000000
00000000
,
00001000
00010000
00022000
00000000
,
00000000
00033000
00010000
00001000
,
00000100
00000010
00000100
00000001
,
00001000
00000000
00000001
00000100
,
00000010
00001000
00000100
00000000
,
00000100
00000000
00010000
00001000
,
01000000
00010000
01000000
10000000
,
01000000
00000000
00010000
10000000
,
01000000
00100000
00000000
00110000
,
00000000
00100000
00100000
00100000
,
00001000
00001000
00001000
00010000
,
00010000
00000100
00000100
00000100
,
00000010
00000010
00000010
00000001
,
00000001
00001000
00001000
00001000
,
00000100
00000100
00000100
00010000
,
00010000
00100000
00100000
00100000
,
10000000
10000000
10000000
01000000
,
01000000
00200000
00000000
01000000
,
00000000
00010000
00000000
00001000
,
00300000
00011000
00000000
00000000
,
00000000
00010010
00000000
00000000
,
00000000
00002000
00003100
00000000
,
00000110
00000000
00001001
00002002
,
00003003
00000010
00000100
00000010
,
00000100
00001000
00010000
00001000
,
00000100
00000010
00000100
00000010
,
00000100
00001000
00020000
00030000
,
01000000
00100000
01000000
00100000
,
01000000
00010000
00001000
00010000
,
01000000
00100000
01000000
00100000
,
01000000
00010000
00001000
00011000
,
00010000
00001000
00000100
00000010
,
00000100
00000001
00001000
00000100
,
00000010
00000001
00000100
00000010
,
00000100
00001000
00020000
00031000
,
00001000
00010000
01000000
00100000
,
01000000
10000000
00010000
01000000
,
00100000
10000000
01000000
00100000
,
01000000
00010000
00002000
00013000
,
00011000
00000000
00001000
00000000
00000100
00000100
00000100
00000000
,
00000001
00000000
00001000
00000000
00000010
00000010
00000010
00000000
,
00000100
00000000
00010000
00000000
00001000
00001000
00001000
00000000
,
00100000
00000000
00010000
00000000
10000000
10000000
10000000
00000000
,
02000000
00000000
03200000
00000000
01300000
10000000
01000000
00000000
,
00200000
00000000
00302000
00000000
00013000
00001000
00010000
00000000
,
00020000
00000000
00030200
00000000
00001300
00000010
00001000
00000000
,
00000002
00000000
00000203
00000000
00000301
00001000
00000001
00000000
,
00000001
00000000
00000000
00000100
00000000
00000000
00001000
00000000
,
00000000
00010000
00000000
00000000
00100000
00000000
00000000
00000000
00000000
10000000
00000000
00000000
01000000
00000000
00000000
00000000
,
00000000
00100000
00000000
01000000
01000000
01100000
00000000
10000000
,
00000000
00010000
00000000
00100000
00100000
00110000
00000000
00001000
,
00000000
00010000
00000000
00001000
00001000
00011000
00000000
00000100
,
00000000
00000010
00000000
00000001
00000001
00000011
00000000
00000001
,
00000000
00001000
00000000
00000010
00000000
00001000
00000000
00000001
,
00000000
00000100
00000000
00000101
00000000
00000000
00000000
00000010
,
00000000
00000100
00000000
00001000
00000000
00010000
00000000
00001000
,
00000000
00100000
00000000
00101000
00000000
00000000
00000000
00010000
,
00000000
10000000
00000000
00010000
00000000
00100000
00000000
01000000
,
00000000
01100000
00000000
00000000
00000000
10000000
00000000
01000000
,
00000000
00100000
00000000
00001000
00000000
00010000
00001000
00010000
,
00001000
00010000
00001000
00010000
00000000
00011000
00000000
00000000
,
00000000
00000000
00000000
00000000
;

//---------------dance-double - ----------------
#NOTES:
     dance-double:
     :
     Medium:
     13:
     :
00000000
00000000
00000000
00000000
,
00000000
00000000
00000000
00000000
,
00000000
00000000
00000000
00000000
,
00000000
00000000
00000000
00000000
,
00000000
00000000
00000000
00000000
,
10000000
01000000
10000000
10000000
,
00100000
01000000
00010000
00010000
,
00100000
00001000
00010000
00010000
,
00010100
00000000
00000000
00000011
00000000
00000000
00001100
00000000
,
00000001
00000100
00000000
00000000
00000120
00000000
00000030
00001000
,
00000000
00000000
00010200
00000000
00000300
00000000
00000000
00001000
,
00000000
00000000
00100000
00000000
00000000
00010000
00000000
00000000
,
01010000
00000000
10100000
00000000
10000000
01000000
00010000
00001000
,
00020000
00000000
00031000
00000000
00010000
00000000
00000100
00010000
,
00001000
00000000
00000010
00000000
00000100
00000000
00001000
00000001
,
00001000
00000000
00000001
00000100
00000010
00000000
00001000
00000000
,
00000001
00000000
00000100
00001000
00000000
00010000
00000000
00011000
,
00000000
00011000
00000000
00000000
00010000
00000000
00001000
00100000
,
00010000
00000000
10000000
00000000
00010000
00000000
10000000
01000000
,
10000000
00000000
00100000
00010000
01000000
00000000
00010000
00000000
,
10000000
00000000
00100000
00010000
00001000
00000000
00101000
00000000
,
00010000
00000000
00001000
00001000
00010000
00000000
00000100
00000100
,
00000010
00000000
00000001
00000001
00001000
00000001
00000100
00000100
,
00000010
00000000
00010000
00010000
00001000
00000000
00100000
00100000
,
01000000
00000000
10000000
10000000
01000000
00100000
00010000
00010000
,
10000000
00000000
00100000
00100000
01000000
00000000
00001000
00001000
,
00010000
00000000
00000100
00000100
00000010
00000001
00001000
00001000
,
00000100
00000000
00000010
00000010
00000001
00000000
00000100
00000100
,
00001000
00000000
00010000
00010000
00000100
00010000
00001000
00100000
,
00100000
01200000
00000000
00002000
,
00003000
00320000
00000000
02000000
,
03030000
10010000
00000000
00000000
,
00000000
01100000
00000000
00000000
,
00000000
00000000
00000000
00000000
00011000
00011000
00000000
00000000
,
00010100
00010100
00000000
00000000
00001100
00000000
00000011
00000000
,
00001001
00000000
00000100
00000000
00001000
00000001
00001000
00000100
,
00000000
00000000
00000010
00000000
00000001
00000100
00000010
00001000
,
00000000
00000000
00000100
00000000
00010000
00001000
00100000
00010000
,
00000000
00000000
01000000
00000000
00100000
10000000
00010000
01000000
,
00000000
00000000
00010000
00000000
10000000
01000000
00100000
00010000
,
00000000
00000000
00100000
00000000
00001000
00010000
00000100
00001000
,
00000000
00000000
00000001
00000000
00000100
00000001
00001000
00000010
,
00000000
00000000
00000100
00000000
00000010
00001000
00000100
00010000
,
00000000
00010000
00001000
00000000
00100000
00010000
01000000
00100000
,
00000000
00100000
10000000
00000000
01000000
00100000
00010000
10000000
,
00000000
10000000
01000000
00000000
00100000
00001000
00010000
00000010
,
00000000
00000010
00000100
00000000
00000001
00000010
00000100
00001000
,
00000000
00001000
00000001
00000000
00000100
00000001
00000100
00000010
,
00000000
00000010
00001000
00000000
00000100
00010000
00001000
00100000
,
00000000
00100000
00010000
00000000
10000000
00010000
01000000
00100000
,
00000000
00100000
01000000
00000000
00010000
00100000
00001000
00010000
,
00001000
00000000
00100000
00000000
00001000
00010000
00011000
00000000
,
00000010
00000000
00000000
00000000
00001000
00000000
00000000
00000000
00001100
00000000
00000000
00000000
00010000
00001000
00000100
00000010
,
00000001
00000000
00000010
00000000
00001000
00000100
00001100
00000000
,
00010000
00000000
00000000
00000000
00001000
00000000
00000000
00000000
00011000
00000000
00000000
00000000
00001000
00010000
00100000
01000000
,
10000000
10000000
01000000
00000000
00100000
10000000
10010000
00000000
,
01000000
00000000
01000000
00000000
00010000
00000000
00000000
00000000
00101000
00000000
00000000
00000000
00010000
00000100
00001000
00000010
,
00000100
00000100
00000010
00000000
00000010
00001000
00000101
00000000
,
00000010
00000000
00000100
00000000
00001000
00000000
00000000
00000000
00010100
00000000
00000000
00000000
00001000
00100000
00010000
01000000
,
00100000
00000000
00000000
10010000
00000000
00000000
01000000
00000000
00000000
00110000
00000000
00000000
00001000
00000000
00000000
00000110
,
00000000
00000000
00000001
00000000
00000000
00000001
00000000
00000000
00000100
00000000
00000000
00000010
00000000
00000000
00000100
00000000
00000000
00000000
00001000
00000000
00000000
00001000
00000000
00000000
00010000
00000000
00000000
00001000
00000000
00000000
00000000
00000000
,
00010000
00000000
00011000
00000000
00000000
00000000
01000000
00000000
00010000
00000000
10000000
01000000
10000000
00000000
00010000
00000000
,
00100000
00000000
00110000
00000000
00000000
00000000
00001000
00000000
00010000
00000000
00000100
00001000
00000100
00001000
00000100
00000000
,
00000010
00000000
00000110
00000000
00000000
00000000
00000001
00000000
00001000
00000000
00000100
00000010
00000100
00000000
00000001
00000000
,
00000100
00001001
00000000
00000100
00001000
00010000
00001000
00010000
,
00001000
00100000
00010000
00110000
00000000
00010000
01000000
00100000
,
01000000
00010000
10000000
10010000
00000000
00100000
00010000
01000000
,
01000000
00100000
10000000
10100000
00000000
10000000
01000000
00100000
,
00010000
01000000
00010000
00100000
00001000
00011000
00000000
00011000
,
00000000
00010000
00001000
00000100
00000100
00000100
00000010
00001000
,
00000001
00000010
00000100
00000110
00000000
00000001
00000100
00001000
,
00000010
00000001
00000010
00000100
00001000
00010000
00100000
01000000
,
10000000
00000000
01000000
00100000
01000000
00100000
10000000
00000000
00010000
00000000
10010000
00000000
00000000
00000000
00000000
00000000
,
00000000
00000000
00000000
00000000
;

//---------------dance-double - ----------------
#NOTES:
     dance-double:
     :
     Hard:
     16:
     :
00000000
00000000
00000000
00000000
,
00000000
00000000
00000000
00000000
,
00000000
00000000
00000000
00000000
,
00000000
00000000
00000000
00000000
,
00000000
00000000
00000000
00000000
,
00010000
00000010
00000100
00001000
,
00100000
01000000
00010000
00001000
,
00000010
00000001
00000100
00001000
,
00011000
00000000
00000000
01010000
00000000
00000000
10100000
00000000
,
10000000
11000000
00000000
00000000
01200000
00000000
00310000
00101000
,
00000000
00000000
00012000
00000000
00003010
00000000
00000000
00000001
,
00000101
00000000
00001000
00001010
00000000
00000100
00010100
00000000
,
00010000
00000000
00001000
00000000
00000100
00000000
00000010
00000000
00000100
00000000
00001000
00010000
00001000
00010000
00001000
00000000
,
00200000
00000000
00310000
00010000
10000000
01000000
00100000
00010000
,
00100000
01000000
00000000
01000000
10000000
01000000
00010000
00001000
,
00100000
00001000
00000000
00001000
00010000
00000010
00001000
00000001
,
00000100
00000010
00000100
00001000
00000100
00000001
00000000
00000101
,
00000000
00001010
00000000
00010000
00001000
00000100
00001000
00010000
,
00100000
10000000
00000000
10000000
01000000
00010000
00001000
00010000
,
01000000
00000000
01000000
00100000
00100000
01000000
00100000
00001000
,
00010000
00000000
00001000
00000000
00000000
00000000
00010000
00000000
00000100
00000000
00001000
00000000
00000100
00000010
00000000
00000100
,
00000010
00000000
00000000
00000000
00000001
00000000
00000100
00000000
00000010
00000000
00001000
00000000
00000001
00000100
00000001
00000100
,
00000010
00000000
00000100
00000000
00000001
00000000
00001000
00000000
00000100
00000000
00010000
00000000
00000010
00001000
00000010
00001000
,
00000100
00000000
00010000
00000000
00001000
00000000
00100000
00000000
01000000
00000000
10000000
00000000
00010000
01000000
00010000
01000000
,
00100000
00000000
10000000
00000000
01000000
00000000
00100000
00000000
00001000
00000000
01000000
00000000
00010000
00100000
00010000
00100000
,
00001000
00010000
00001000
00010000
00001000
00000000
00100000
00000000
00001000
00000000
00010000
00000000
00000010
00000100
00000010
00000100
,
00000001
00000000
00001000
00000000
00000100
00000000
00000010
00000000
00000001
00000000
00000100
00000000
00000010
00001000
00000010
00001000
,
00000100
00000000
00010000
00000000
00001000
00000000
01000000
00000000
00100000
00000000
10000000
00000000
00010000
10000000
00010000
10000000
,
00100000
00000000
10000000
00000000
01000000
00000000
00000000
00100000
00010000
00000000
00100000
00010000
00100000
00001000
00010000
00001000
,
00010000
00000000
00001000
00010000
00000200
00000000
00000000
00000000
00000000
00000000
00000000
00000000
00000320
00000000
00000000
00000000
,
00000001
00000230
00000001
00002300
,
00013000
00011000
00000000
00000000
,
00000000
10010000
00000000
00000000
,
00000000
00000000
00000000
00000000
00011000
00011000
00010100
00000000
,
00011000
00011000
01001000
00000000
00101000
00000000
00010010
00000000
,
00011000
00001000
00000100
00000010
00000000
00001000
00000100
00000010
,
00000000
00000001
00000010
00001000
00000010
00000001
00000100
00001000
,
00000000
00100000
00010000
01000000
00000000
00100000
10000000
01000000
,
00000000
10000000
00100000
00010000
00100000
10000000
01000000
00010000
,
00000000
00001000
00010000
01000000
00000000
00001000
00010000
00100000
,
00000000
00001000
00010000
00001000
00000010
00000001
00000100
00001000
,
00000000
00010000
00001000
00000100
00000000
00010000
00001000
00000010
,
00000000
00000000
00010000
00000000
00001000
00000000
00010000
00000000
01000000
00000000
00100000
01000000
00100000
00000000
00010000
00000000
,
00000000
00010000
10000000
00010000
01000000
10000000
00010000
10000000
,
01000000
00010000
00100000
00001000
00010000
00000100
00001000
00000001
,
00000000
00001000
00000001
00001000
00000010
00000001
00001000
00000001
,
00000010
00000100
00001000
00010000
00200000
00000000
01300000
00100000
,
10000000
00100000
00100000
01000000
00010000
00100000
00100000
00010000
,
10000000
00100000
00100000
01000000
00010000
00100000
00001000
00010000
,
00000100
00000010
00000010
00000100
00001000
00000001
00000001
00001000
,
00000100
00000000
00000010
00000000
00000001
00000000
00000100
00000000
00000010
00001000
00000010
00001000
00000100
00010000
00000100
00010000
,
00001000
00000000
00000000
00000000
01000000
00000000
00000000
00000000
00010000
00000000
01000000
00000000
10010000
00000000
00100000
00010000
,
00100000
00000000
00001000
00000000
00010000
00000000
00000000
00000000
00011000
00000000
00000000
00000000
00000010
00000000
00000100
00000000
00000000
00000000
00000100
00000000
00000000
00000000
00000100
00000000
00000001
00000000
00000010
00000000
00000100
00001000
00000100
00001000
,
00000100
00000000
00000000
00000000
00000010
00000000
00000000
00000000
00000001
00000000
00000100
00000000
00001001
00000000
00000010
00001000
,
00000010
00000000
00010000
00000000
00001000
00000000
00000000
00000000
00011000
00000000
00000000
00000000
00100000
00000000
01000000
00000000
00000000
00000000
01000000
00000000
00000000
00000000
01000000
00000000
10000000
00000000
00100000
00000000
01000000
00010000
01000000
00010000
,
01000000
00000000
00100000
00000000
10010000
00000000
00100000
00010000
00100000
00000000
00011000
00000000
00010100
00000000
00001100
00000000
,
00000010
00000000
00000000
00000000
00000001
00000000
00000000
00000000
00000101
00000000
00000000
00000000
00000100
00000000
00000010
00000000
00000000
00000000
00000010
00000000
00000000
00000000
00000010
00000000
00001000
00000000
00000001
00000000
00000100
00000010
00000100
00000010
,
00000100
00000000
00001000
00000000
00011000
00000000
00100000
00010000
10000000
00000000
11000000
00000000
00110000
00000000
00101000
00000000
,
00010000
00000000
00000000
00000000
01000000
00000000
00000000
00000000
10100000
00000000
00000000
00000000
01000000
00000000
00010000
00000000
00000000
00000000
00010000
00000000
00000000
00000000
00010000
00000000
10000000
00000000
01000000
00000000
00100000
00010000
00100000
00010000
,
00100000
00000000
00000000
00001000
00000000
00000000
00011000
00000000
00000000
00000100
00000000
00000000
00000110
00000000
00000000
00000001
00000000
00000000
00001100
00000000
00000000
00010000
00000000
00000000
00101000
00000000
00000000
10000000
00000000
00000000
00110000
00000000
,
00000000
00000000
00001000
00000000
00000000
00011000
00000000
00000000
00000010
00000000
00000000
00000001
00000000
00000000
00000101
00000000
00000000
00000000
00010000
00000000
00000000
00011000
00000000
00000000
00100000
00000000
00000000
20000000
30000000
00000000
00000000
00000000
,
10000000
00000000
10010000
00000000
00000000
00000000
00100000
01000000
00100000
00100000
10000000
01000000
11000000
00000000
10000000
00000000
,
00010000
00000000
00000000
00000000
00110000
00000000
00000000
00000000
00000000
00000000
00010000
00000000
00000000
00000000
00010000
00000000
00000000
00000000
00010000
00000000
00001000
00000000
00100000
00000000
00001000
00010000
00001000
00010000
00001000
00000000
00000000
00000000
,
00010000
00000000
00010010
00000000
00000000
00000000
00000100
00000010
00000100
00000100
00000001
00000100
00000101
00000000
00000010
00000000
,
00001000
00000000
00001001
00000000
00000000
00000100
00000000
00000100
00000000
00000100
00001000
00000000
00000000
00000000
00010000
00000000
,
00001000
00010000
00001000
00000000
00100000
00000000
01000000
00000000
10000000
00000000
00010000
00000000
01000000
00000000
01100000
00000000
,
00000000
00000000
10000000
01000000
10000000
01000000
00100000
00000000
00000000
00000000
00010000
00000000
01000000
00000000
00001000
00000000
,
00010000
00001000
00010000
00000000
00000100
00000000
00000010
00000000
00000001
00000000
00000100
00000000
00000010
00000000
00000110
00000000
,
00000000
00000000
00001000
00000000
00000001
00000100
00000010
00000100
00000001
00000100
00000010
00000000
00001000
00000000
00000100
00000000
,
00010000
00001000
00010000
00000000
00001000
00000000
00100000
00000000
00010000
00000000
10000000
00000000
00100000
00000000
10100000
00000000
,
00000000
00000000
00010000
01000000
00010000
01000000
00100000
00000000
00000000
00000000
10000000
00000000
00010000
00000000
01010000
00000000
,
00000000
00000000
00100000
00000000
00001000
00000000
00101000
00000000
00000000
00000000
00010000
00000000
00000100
00001000
00000100
00000000
,
00000001
00000010
00000001
00000010
00000100
00001000
00000100
00000000
00010000
00000100
00001000
00000000
00000000
00000000
00000000
00000000
,
00000000
00000000
00000000
00000000
;
