#TITLE:New York EVOLVED (Type B);
#ARTIST:NC underground;
#BANNER:New York EVOLVED (Type B)-bn.png;
#BACKGROUND:New York EVOLVED (Type B)-bg.png;
#JACKET:New York EVOLVED (Type B)-jacket.png;
#MUSIC:New York EVOLVED (Type B).ogg;
#SAMPLESTART:17.72;
#SAMPLELENGTH:20;
#DISPLAYBPM:48:190;
#BPMS:0=190,117=95,125=190,206=47.6,214=95,250=190;
#STOPS:39=0.316,42=0.316,53=0.316,140=0.316,204=0.655,232=1.263,234=1.263,250=1.27,253=0.309;
#BGCHANGES:;

//---------------dance-single - ----------------
#NOTES:
     dance-single:
     :
     Beginner:
     4:
     :
0000
0000
0000
0000
,
0000
0000
0000
0000
,
0000
0000
0000
0000
,
0000
0000
0000
0000
,
0000
0000
0000
0000
,
0001
0000
0000
0000
,
1000
0000
0000
0000
,
0001
0000
0000
0000
,
1000
0000
0001
0000
,
1001
0000
0000
0000
,
0000
0110
0000
0000
,
0000
1000
0000
0000
,
0001
0000
0100
0000
,
0100
0000
0000
0001
,
0000
0000
0000
1000
,
0000
0000
0000
0001
,
0000
0010
0010
0010
,
0000
0000
0000
0001
,
0000
0000
0000
1000
,
0000
0000
0000
0001
,
0000
0010
0000
0000
,
0000
1000
0000
1000
,
0000
1000
0000
1000
,
0000
0001
0000
0001
,
0000
0100
0000
0100
,
0000
1000
0000
1000
,
0000
1000
0000
1000
,
0000
0001
0000
0001
,
0000
0100
0000
0010
,
0000
0020
0000
0000
,
0000
0000
0000
0000
,
0030
0110
0000
0000
,
0000
1001
0000
0000
,
0000
0000
1000
0000
,
0001
0000
1000
0000
,
0000
0000
0010
0000
,
1000
0000
1000
0000
,
1000
0000
0010
0000
,
0002
0000
0003
0000
,
1000
0000
0010
0000
,
0001
0000
0001
0000
,
0001
0000
0010
0000
,
0020
0000
0030
0000
,
1000
0000
0010
0000
,
1000
0000
1000
0000
,
1000
0000
0010
0000
,
0002
0000
0003
0000
,
1000
0000
0010
0000
,
0001
0000
0001
0000
,
0001
0000
0010
0000
,
0020
0000
0030
0000
,
0002
0003
1000
0000
,
0001
0000
0010
0000
,
0100
0000
2000
0000
,
0000
3000
0020
0000
,
0000
0030
0200
0000
,
0000
0300
0002
0000
,
0000
0003
0000
0100
,
0000
0100
0000
0100
,
0000
0100
0000
0100
,
0000
0100
0000
1001
,
0000
1001
0000
0100
,
0020
0000
0030
0000
,
0000
0000
0000
1000
,
0000
0010
0000
0001
,
0000
1000
0000
1000
,
0000
0001
0000
0010
,
0000
0001
0000
0001
,
0000
0100
0000
0100
,
0000
0010
0000
1000
,
0000
0010
0010
0010
,
0000
1000
0000
1000
,
0000
0001
0001
0001
,
0000
1000
0000
1000
,
0000
0100
0100
0100
,
0000
0001
0000
0001
,
0000
0100
0000
0100
,
0000
0010
0000
1000
,
0000
0010
0010
0010
,
0010
0010
0000
0000
,
0000
0000
0000
0000
;

//---------------dance-single - ----------------
#NOTES:
     dance-single:
     :
     Easy:
     9:
     :
0000
0000
0000
0000
,
0000
0000
0000
0000
,
0000
0000
0000
0000
,
0000
0000
0000
0000
,
0000
0000
0000
0000
,
1000
1000
0001
0001
,
0010
0010
0100
0000
,
1000
1000
0001
0001
,
1000
0010
0100
0000
,
0000
1001
0000
0000
1001
0000
0000
0000
,
0000
0000
0110
0000
0000
0000
0000
1000
,
0000
0000
0001
0000
0000
1000
0000
0000
,
0001
0100
0100
0220
,
0000
0330
1000
0100
,
0010
0100
0010
0001
,
0100
0000
0001
0100
,
0010
0100
0010
0010
,
0010
0000
1000
0100
,
0010
0100
0010
0001
,
0100
0000
0001
0100
,
0010
1010
0000
0011
,
0000
1000
0010
0001
,
0010
0001
0100
0001
,
0000
0001
0010
1000
,
0010
0001
0100
1000
,
0000
0001
0010
1000
,
0010
1000
0100
1000
,
0000
1000
0010
0001
,
0010
1000
0100
0001
,
0010
0200
0000
0010
,
0000
1000
0000
0001
,
0300
0110
0000
0000
,
0000
1001
0000
0000
,
0000
0000
0101
0000
,
1100
0000
1001
2002
,
3003
0100
0010
1000
,
0100
1000
0001
0010
,
0000
0100
0010
1000
,
0100
0010
0012
0013
,
0000
0100
0010
1000
,
0100
1000
0001
0010
,
0000
0100
0010
1000
,
0100
0010
0100
1100
,
0000
0100
0010
0001
,
0100
0001
1000
0010
,
0000
0100
0010
0001
,
0100
0010
2010
3010
,
0000
0100
0010
0001
,
0100
0001
1000
0010
,
0000
0100
0010
0001
,
0100
0010
0100
0101
,
0020
0030
1000
0010
,
0100
0001
0010
0100
,
1000
0001
0200
0000
,
0002
0300
0020
0003
,
2000
3030
0010
0100
,
1000
1000
0010
0100
,
0001
1000
0010
0100
0010
0000
1000
0000
,
1010
0010
0011
0100
,
1010
0100
0011
0100
,
1010
0100
0011
0101
,
1010
0000
1100
0000
0010
0001
0010
0001
,
1000
0010
1000
0010
0100
0000
0000
0010
,
0000
1001
0000
0010
,
0001
0000
0010
0000
0001
0000
0100
0010
,
0100
0002
0013
2000
,
3100
0000
0010
0000
1000
0000
0001
1000
,
0001
0100
0100
0010
,
1000
1000
0100
0010
,
0000
1001
0000
0110
,
0000
0000
1000
0000
0001
0000
1000
0001
,
1000
0001
0200
0000
0000
0000
0310
0000
,
1000
0000
0010
0000
1000
0000
0100
0010
,
0100
2000
3010
0002
,
0103
0000
0010
0000
0001
0000
1000
0001
,
1000
0100
0100
0010
,
0001
0001
0100
0010
,
0000
1001
0000
0110
,
0000
0000
0001
0000
1000
0000
0001
1000
,
0001
1000
0001
0000
0000
0000
0000
0000
,
0000
0000
0000
0000
;

//---------------dance-single - ----------------
#NOTES:
     dance-single:
     :
     Medium:
     13:
     :
0000
0000
0000
0000
,
0000
0000
0000
0000
,
0000
0000
0000
0000
,
0000
0000
0000
0000
,
0000
0000
0000
0000
,
1000
0010
0100
0001
,
0010
0000
0010
0000
0100
0010
0100
0000
,
0001
0010
0100
1000
,
1100
0000
0000
0011
0000
0000
1010
0000
,
0001
1000
0000
0000
1200
0000
0300
0010
,
0000
0000
0201
0000
0300
0000
0000
1000
,
0100
0000
0001
0010
0000
1000
0010
0000
,
0100
0000
0010
0000
0100
0000
0010
0000
1000
0000
0001
0000
1000
0000
0001
1000
,
0020
0000
0130
0000
0001
0000
0100
0010
,
1000
0010
0100
0000
0010
0000
1000
0100
,
0001
0100
1000
0000
1000
0000
0100
0010
,
0001
0010
0100
1000
0000
0010
0000
1001
,
0000
1001
0000
0000
0001
0000
0100
0010
,
1000
0010
0100
0000
0010
0000
1000
0100
,
0001
0100
1000
0000
1000
0000
0100
0010
,
0001
0010
0100
1000
0010
0000
0110
0000
,
0000
0000
0001
0010
0001
0100
0010
0100
,
0001
0010
0001
0100
0010
1000
0100
0001
,
1000
0000
1000
0010
1000
0100
0010
0100
,
1000
0010
0100
0001
0100
1000
0001
0010
,
1000
0000
0001
0010
0001
0100
0010
0100
,
0001
0010
0001
0100
0010
1000
0100
0001
,
1000
0000
1000
0010
1000
0100
0010
0100
,
1000
0010
0100
0001
0101
0000
0010
1000
,
0100
0010
0002
0000
0000
0000
0200
0000
,
0300
2003
0000
0020
,
3030
1001
0000
0000
,
0000
0110
0000
0000
,
0000
0000
0000
0000
0011
0011
0000
0000
,
1100
1100
0000
0000
1001
0000
0110
0000
,
1001
0000
0100
0000
0010
1000
0010
1000
,
0100
0000
0100
0000
0001
0010
1000
0010
,
0000
0000
0100
0000
0010
0001
0010
0001
,
0100
0000
0100
0010
1000
0000
0001
1000
,
0100
0000
0100
0000
0010
1000
0010
1000
,
0100
0000
0100
0000
0001
0010
0001
0010
,
1000
0000
0100
0000
0010
0001
0010
0001
,
0100
0000
0100
0010
0100
0000
1000
0100
,
0000
0000
0100
0000
0010
0001
0010
0001
,
0100
0000
0100
0000
1000
0010
0001
0010
,
0000
0000
0100
0000
0010
1000
0010
1000
,
0100
0000
0100
0010
0001
0000
1000
0001
,
0100
0000
0100
0000
0010
0001
0010
0001
,
0100
0000
0100
0000
1000
0010
0001
0010
,
0011
0000
0100
0000
0010
1000
0010
1000
,
0100
0000
0010
0000
1001
0000
0000
0000
1000
0000
0001
0000
0010
0000
0100
0010
,
0200
0300
1000
0010
,
0001
0100
0001
0010
,
0001
0100
0010
1000
0200
0000
0010
0000
,
1000
0001
0320
0001
,
0100
0000
1000
0000
0031
0100
0001
0010
,
0010
1000
0100
1000
0010
0100
0001
1000
,
0010
0100
0010
0000
0100
0001
1000
0000
0002
0000
0000
0000
0013
0000
0100
0010
,
0000
0000
0000
0000
0010
0000
0100
0010
0000
0000
0000
0000
0010
0000
0100
0010
,
2000
0000
0000
0000
3010
0000
0100
0010
0002
0000
0000
0000
0013
0000
0100
0010
,
2000
0000
0000
0000
3010
0000
0100
0010
0001
0000
0000
0100
1000
0000
0000
0100
,
0001
0000
0000
0100
1000
0000
0000
0100
0001
0000
0010
0000
1000
0000
0100
0000
,
0010
0100
0010
0100
0010
0100
0010
0100
0010
0000
0000
0000
0000
0000
0110
0000
,
0000
0000
1001
0000
0100
0000
0010
0001
,
0100
0000
1010
0000
1100
0000
0010
0100
,
0001
0000
1000
0100
0002
0000
1003
0010
,
0002
0000
1003
0010
0001
1000
0100
0001
,
1000
0000
0101
0000
1000
0100
0001
0100
,
1000
0000
0101
0000
1000
0010
0001
0010
,
1000
0000
0011
0000
0010
1000
1010
0000
,
0101
0000
1000
0100
0010
0100
0001
0100
,
1000
0000
0010
0100
0001
0000
0000
0000
1100
0000
0000
0000
0010
0000
1000
0000
,
0100
0000
0011
0000
0101
0000
0010
0100
,
1100
0000
0001
0100
2000
0001
3001
0010
,
2000
0001
3001
0010
1000
0001
0100
1000
,
0001
0000
1100
0000
0001
0100
1000
0010
,
0001
0000
1100
0000
0001
0010
1000
0100
,
0001
0000
1010
0000
0010
0001
0011
0000
,
1100
0000
0001
0100
0010
0100
1000
0100
,
0001
0000
0010
0100
1000
0000
0000
0000
0000
0000
0000
0000
0000
0000
0000
0000
,
0000
0000
0000
0000
;

//---------------dance-single - ----------------
#NOTES:
     dance-single:
     :
     Hard:
     16:
     :
0000
0000
0000
0000
,
0000
0000
0000
0000
,
0000
0000
0000
0000
,
0000
0000
0000
0000
,
0000
0000
0000
0000
,
0010
0001
1000
0010
,
0200
0000
0010
0301
,
0010
1000
0001
0010
,
0110
0000
0000
0101
0000
0000
1010
0000
,
0001
0101
0000
0000
0021
0000
0130
1100
,
0000
0000
0210
0000
1300
0000
0000
0001
,
0110
0000
1000
0110
0000
0001
0110
0000
,
1000
0000
0010
0000
0001
0000
0010
0000
1000
0000
0010
0100
0001
1000
0100
0000
,
0020
0000
0130
1000
0100
0010
0100
0010
,
0100
0000
0010
1000
0001
0100
0010
0001
,
0100
0000
0100
0010
0001
1000
0100
0001
,
0100
0000
1000
0100
0010
0001
0000
0110
,
0000
0110
0000
0001
0100
0010
0100
0010
,
0100
0000
0010
0001
1000
0100
0010
1000
,
0100
0000
0100
0010
1000
0001
0100
1000
,
0100
0000
0000
0000
0001
0000
0100
0000
0010
0000
1000
0000
0001
0100
0000
1000
,
0100
0000
0000
0000
0010
0000
0001
0000
0100
0000
0001
0000
0010
0001
0010
0001
,
0100
0010
1000
0100
0010
0001
0100
1000
,
0100
0010
0100
0000
0010
0000
1000
0000
0100
0000
1000
0000
0010
1000
0010
1000
,
0100
0000
0010
0000
0001
0000
0010
0000
0100
0000
1000
0000
0001
0100
0001
0100
,
0010
1000
0010
1000
0010
0000
1000
0000
0100
0000
1000
0000
0010
1000
0010
1000
,
0100
0010
0001
0100
0010
1000
0100
0001
,
0100
0010
0100
0000
0010
0000
0001
0000
0100
0000
0001
0000
0010
0001
0010
0001
,
0100
0000
0010
0000
1000
0000
0000
0001
0100
0000
0001
1000
0100
0010
0100
0010
,
0001
0000
1000
0100
0020
0000
0000
0000
0000
0000
0000
0000
0032
0000
0000
0000
,
0100
2003
0010
3200
,
0301
0011
0000
0000
,
0000
1010
0000
0000
,
0000
0000
0000
0000
1100
1100
1001
0000
,
0101
0101
0110
0000
1001
0000
0110
0000
,
1001
0000
0100
0010
0000
1000
0100
0001
,
0000
1000
0020
0001
0130
0010
0100
0010
,
0000
1000
0100
0010
0000
0001
0100
1000
,
0000
0001
0020
1000
0230
0000
0010
0310
,
1010
1000
0100
0010
0000
0001
0100
1000
,
0100
0001
0020
1000
0130
0010
0100
0010
,
0000
0001
0100
0010
1010
1000
0100
0001
,
1001
0000
1000
0000
0010
0000
0000
0000
1000
0000
0001
0100
0010
0000
0100
0000
,
0000
0001
0100
0010
0001
1000
0100
0001
,
0100
1000
0020
0001
0130
0010
0100
0010
,
0000
1000
0100
0010
1000
0001
0100
1000
,
0100
0001
0020
1000
0230
0000
0010
0310
,
1010
1000
0100
0010
0100
0001
0100
1000
,
0100
0001
0020
1000
0130
0010
0100
0010
,
0000
0001
0100
0010
1010
1000
0100
0001
,
0100
0000
0001
0000
0010
0100
1000
0000
0001
0100
0001
0100
0010
0100
0010
0100
,
0002
0003
0010
0001
,
0100
0000
1000
0000
0010
1000
0001
0010
,
1000
0100
0010
0001
1000
0010
0100
0001
2000
0000
0000
0000
0010
0000
0000
0000
,
0100
0000
0001
0001
3020
0000
0100
0000
,
0001
0000
1000
1000
0130
0001
0010
0100
,
1000
0000
0001
0000
0100
0000
1000
0000
0010
0000
0001
0000
1000
0000
0100
0100
,
0001
0010
0001
1000
0010
1000
0100
0000
1001
0100
1000
0000
0010
0000
0100
0020
,
0000
0030
0000
0000
0100
0000
0000
0000
0001
0000
0000
0000
0000
0000
0000
0000
0010
0000
0000
0000
0000
0000
0000
0000
0100
0000
0000
0000
0020
0000
0000
0000
0000
0030
0000
0000
0100
0000
0000
0000
1000
0000
0000
0000
0000
0000
0000
0000
0010
0000
0000
0000
0000
0000
0000
0000
0100
0000
0000
0000
0010
0000
0000
0000
,
0011
0100
0001
0000
0010
0000
0100
0010
1010
0100
1000
0000
0010
0000
0100
0010
,
0011
0100
0001
0000
0010
0000
0100
0010
1010
0000
0000
0100
0101
0000
0000
1000
,
1100
0000
0000
0001
0011
0000
0000
0100
0010
0100
0010
0100
0001
1000
0001
1000
,
0100
0010
0001
0100
0010
1000
0100
0010
0001
0000
0000
0000
0000
0000
0110
0000
,
0000
0000
1001
0000
0100
0001
1000
0100
,
0001
0100
1000
0000
0010
0001
0010
0000
1000
0000
0001
0100
0010
0000
0100
0000
,
1001
0000
0000
0000
1000
0000
0001
0000
0100
0000
0010
0000
1000
0100
0020
0000
,
1000
0000
0000
0000
0130
0000
0001
0000
0001
0000
0100
0000
0001
0010
0100
1000
,
0001
0000
0000
0000
0110
0000
0010
0000
0001
0000
1000
0000
0010
0100
0001
0100
,
0010
0000
0000
0000
1001
0000
1000
0000
0100
0000
0001
0000
1000
0001
0010
0001
,
0100
0000
1100
0000
0010
0001
0101
0000
,
1010
0000
0000
0000
1000
0000
0010
0000
0100
0000
0001
0010
0000
0001
0100
0010
,
1000
0100
0010
0100
0010
0000
0001
0000
0100
0000
1000
0000
0001
0000
0100
0000
,
1000
0100
0001
0000
0010
1000
0010
0000
0001
0000
1000
0100
0010
0000
0100
0000
,
1001
0000
0000
0000
0001
0000
1000
0000
0100
0000
0010
0000
0001
0100
0020
0000
,
0001
0000
0000
0000
0130
0000
1000
0000
1000
0000
0100
0000
1000
0010
0100
0001
,
1000
0000
0000
0000
0110
0000
0010
0000
1000
0000
0001
0000
0010
0100
1000
0100
,
0010
0000
0000
0000
1001
0000
0001
0000
0100
0000
1000
0000
0001
1000
0010
1000
,
0100
0001
1100
0000
0010
0001
0101
0000
,
1010
0000
0100
0000
0001
0000
0010
0000
0100
0000
1000
0010
0100
0001
1000
0100
,
0010
0000
0001
0100
1000
0000
0000
0000
0000
0000
0000
0000
0000
0000
0000
0000
,
0000
0000
0000
0000
;

//---------------dance-single - ----------------
#NOTES:
     dance-single:
     :
     Challenge:
     18:
     :
0000
0000
0000
0000
,
0000
0000
0000
0000
,
0000
0000
0000
0000
,
0000
0000
0000
0000
,
0000
0000
0000
0000
,
0001
0010
0100
1000
0000
1100
0000
0101
,
0000
1000
0010
1000
0001
1000
0100
0010
,
0001
0100
0010
1000
0000
1010
0000
0011
,
1000
0010
0100
0010
1000
0000
0001
0010
0100
0010
0001
0000
0100
0010
1000
0000
,
0001
0000
0011
0000
0110
0000
0100
0000
1100
0000
1001
0000
0020
0030
1010
0000
,
1100
0000
0010
0000
0011
0000
1001
0000
0200
0300
0101
0000
0000
0000
1100
0000
,
0101
0000
0011
0110
0000
1100
1001
0000
,
1010
0000
0001
0000
1000
0000
0100
0000
0010
0000
0010
0000
0010
0001
1000
0001
,
0200
0000
0000
0000
0020
0330
1001
0000
0010
1000
0100
0000
1000
0000
0010
0000
,
0100
0000
0001
0000
0010
0000
0100
0000
1000
0010
1000
0000
0001
0010
0001
0000
,
0100
0010
0100
0000
1000
0000
0001
0000
0010
0001
1000
0000
0010
0000
0100
0000
,
0010
0000
1000
0000
0000
0000
0110
0000
0010
0001
1000
0001
0010
0100
1000
0100
,
0010
0001
0100
0010
1000
0000
0001
0000
0010
0001
0100
0000
0010
0000
1000
0000
,
0100
0000
0010
0000
0001
0000
0100
0000
0010
1000
0010
0000
0001
1000
0001
0000
,
0100
1000
0100
0000
0010
1000
0010
0100
0010
0001
0010
0000
0100
0001
0100
0010
,
0100
1000
0100
0000
0001
0010
0100
1000
0100
0010
0001
0000
1000
0010
0100
0001
,
1000
0100
0010
0001
0100
0001
1000
0000
0100
0000
1000
0010
0000
0010
0100
0000
,
0001
0010
0100
0000
1000
0100
0010
0100
0001
0100
0001
0010
1000
0010
1000
0001
,
0010
1000
0001
0100
1000
0010
0100
0000
0001
0000
0010
0001
0000
0001
1000
0000
,
0010
1000
0100
0000
0010
0100
1000
0001
0100
0001
0100
1000
0010
1000
0010
0001
,
1000
0001
0010
0100
1000
0001
0010
0000
0100
0000
0010
0001
0000
1000
0001
0000
,
1000
0010
0100
0000
0001
1000
0100
0010
1000
0010
0100
0001
1000
0001
0010
0100
,
0010
1000
0100
0001
0010
0001
0100
0000
0010
0000
1000
0100
0000
1000
0001
0000
,
1000
0100
0010
0000
0100
1000
0001
0010
1000
0001
0010
0100
0010
0001
1000
0100
,
1000
0000
0100
0000
0001
0000
0010
0000
1000
0001
1000
0000
0100
0000
0010
0001
0000
0010
0100
0000
1100
0000
0000
0000
0010
1000
0001
0000
0010
0000
0001
0100
,
0000
1000
0100
0000
0101
0000
0000
0000
0010
0001
0100
0000
0010
0000
1000
0100
0000
1000
0001
0000
0011
0000
0000
0000
0100
0010
0100
0000
0001
0000
1000
0001
,
0000
1000
0010
0000
1010
0000
0000
0000
1001
0000
0000
0000
0100
0000
0000
0000
0010
0000
0000
0000
0100
0000
0000
0000
0000
0000
0000
0000
0100
0000
0000
0000
,
0010
0100
1001
0100
0010
0100
0000
0100
,
0010
0100
0010
1000
1100
1100
0010
0001
,
0101
0000
0101
0000
1000
0100
0001
0000
1000
0100
0001
0000
1000
0100
0001
0000
,
0020
0032
2003
3020
0130
0002
0023
0230
,
1300
0000
0010
0000
1000
0100
1000
0000
0001
0100
0001
0000
0010
0100
0010
0000
,
0001
0200
0320
2030
3100
0020
0032
2003
,
3010
0000
0200
0000
0302
0000
2003
0000
3010
0001
0010
1000
0100
0010
0001
0000
,
0100
0020
2030
3200
0310
0002
2003
3020
,
1030
0000
0100
0000
0010
0001
0010
0000
1000
0001
1000
0000
0100
0001
0100
0000
,
0001
2000
3200
0320
0130
2000
3002
0203
,
0310
0000
1000
0000
0100
0010
0001
0000
0100
0010
1000
0001
1000
0100
0010
0001
,
0100
0020
2030
3200
0310
0002
2003
3020
,
1030
0000
0100
0000
1000
0010
1000
0000
0100
0010
0100
0000
0001
0010
0001
0000
,
0100
0020
2030
3200
0310
0002
2003
3002
,
0103
0000
0010
0000
1000
0100
1000
0000
0010
1000
0001
1000
0100
0010
0001
0000
,
0100
0020
0230
0302
0013
2000
3200
0320
,
0031
0000
0100
0000
0001
1000
0001
0000
0010
1000
0010
0000
0100
1000
0100
0000
,
0010
0002
0203
0320
1030
0002
2003
3200
,
0310
0001
1000
0100
0001
1000
0100
0001
0100
1000
0001
0010
0100
0010
1000
0010
,
0200
0000
0000
0000
0000
0000
0000
0000
0320
0000
0000
0000
0000
0000
0000
0000
0031
0100
0010
0100
0001
0010
0100
0010
0001
0100
0010
1000
0100
0010
0001
0000
,
1000
0100
0010
0100
1000
0010
0100
0010
1000
0100
0010
0001
0100
0010
1000
0000
0100
0010
0001
1000
0001
0010
0001
0100
0010
1000
0001
1000
0010
0100
0010
0000
,
1000
0100
1000
0001
0100
0001
1000
0100
1000
0001
0100
0001
0010
0100
1000
0010
0100
0000
0001
0000
0010
0000
0001
0000
1000
0000
0010
0000
1000
0000
0100
0000
,
0020
0001
0031
2000
0010
3010
0200
0001
0301
1000
0010
1000
0100
0010
0001
0100
,
0020
1000
1030
0200
1000
1300
0002
0010
0013
0001
1000
0001
0100
0010
1000
0100
,
2000
0001
3001
0020
0100
0130
2000
0010
3010
1000
0001
1000
0100
0010
0001
0100
,
0010
1000
0010
1000
0001
0100
0001
0100
0001
0010
0001
0010
0100
1000
0100
1000
0010
0000
0100
0000
0001
0000
0010
0000
0002
0000
0100
0000
0103
0000
2010
0000
,
0200
3300
0100
0000
1000
0000
0010
0000
2000
0000
0001
0000
3001
0000
0021
0000
0200
0330
1000
0000
0010
0000
1000
0000
0001
0000
0100
0000
0010
0000
1000
0000
,
0100
0010
0100
0010
0001
0100
0010
1000
0001
0010
0001
0100
0001
0010
0100
1000
,
0010
1000
0100
0010
0001
0100
0001
1000
1010
0010
0100
0001
0011
0010
0100
1000
,
1100
0001
1000
0010
0101
0010
1000
0100
0110
0010
1001
0001
0110
0100
1001
1000
,
0001
0010
0100
1000
0100
0010
0001
1000
0001
0010
1000
0100
0010
0001
0100
1000
0001
0000
1000
0000
0001
0000
0000
0000
0010
0000
0000
0000
0100
0000
1000
0000
,
0001
0000
0100
0000
0020
0030
0100
0000
0001
0000
0010
0000
0001
0100
0001
0000
,
1000
0000
0010
0000
1000
0100
0001
0000
0010
0000
0100
1000
0010
0000
0100
0000
,
0001
0010
1000
0000
0100
0000
0010
0000
0001
0000
0100
0000
0010
1000
0010
0000
,
0100
0000
0001
0000
0010
0001
0100
0000
0010
0000
1000
0001
0010
0000
0001
0000
,
0100
0010
1000
0000
0100
0000
1000
0000
0001
0000
0010
0000
0100
1000
0100
0000
,
1000
0000
0001
0000
0010
0001
0100
0000
1000
0000
0010
1000
0001
0000
0010
0000
,
0001
0100
0010
0000
1000
0001
0010
0000
0100
0000
1000
0010
0100
0000
0001
0000
,
0010
0100
1000
0000
0010
0000
0100
0001
0010
0000
0100
0000
1000
0010
1000
0001
,
0010
0100
1000
0010
0100
0000
1000
0000
0010
0000
0100
0000
0001
0010
0001
0000
,
1000
0100
0010
0000
0001
0100
1000
0100
0001
0000
1000
0100
0001
0100
1000
0000
,
0001
0100
1000
0100
0001
0000
0010
0000
0100
0000
1000
0000
0010
1000
0001
0000
,
0010
0100
0010
0000
0001
0010
1000
0010
0001
0000
1000
0010
0001
0010
1000
0000
,
0001
0010
1000
0010
0001
0000
0100
0000
0010
0000
1000
0000
0100
0010
0001
0010
,
0001
1000
0100
0000
1000
0010
0001
0010
1000
0000
0001
0010
1000
0010
0001
0000
,
1000
0010
0001
0010
1000
0100
0001
0100
1000
0000
0001
0100
1000
0100
0001
0000
,
1000
0100
0001
0100
1000
0001
0100
0010
0001
0100
0010
0001
1000
0100
1000
0010
,
0001
0100
0010
2000
0002
0000
0000
0000
0000
0000
0000
0000
0000
0000
0000
0000
,
0000
0000
0000
0000
,
0000
0000
0000
0000
,
0000
3003
0000
0000
;

//---------------dance-double - ----------------
#NOTES:
     dance-double:
     :
     Easy:
     8:
     :
00000000
00000000
00000000
00000000
,
00000000
00000000
00000000
00000000
,
00000000
00000000
00000000
00000000
,
00000000
00000000
00000000
00000000
,
00000000
00000000
00000000
00000000
,
00000010
00000000
00000100
00000000
,
00000001
00000000
00001000
00000000
,
00010000
00000000
00001000
00000000
,
00100000
00000000
01000000
00000000
,
10010000
00000000
10010000
00000000
,
00000000
00000000
01100000
00000000
00000000
00000000
00000000
00010000
,
00000000
00000000
00001000
00000000
00000000
00010000
00000000
00000000
,
00001000
00010000
00022000
00000000
,
00000000
00033000
00010000
00001000
,
00000100
00000010
00000100
00000001
,
00001000
00000000
00000001
00000100
,
00000010
00001000
00000100
00000000
,
00000100
00000000
00010000
00001000
,
01000000
00010000
01000000
10000000
,
01000000
00000000
00010000
10000000
,
01000000
00100000
00000000
00110000
,
00000000
00100000
00100000
00100000
,
00001000
00001000
00001000
00010000
,
00010000
00000100
00000100
00000100
,
00000010
00000010
00000010
00000001
,
00000001
00001000
00001000
00001000
,
00000100
00000100
00000100
00010000
,
00010000
00100000
00100000
00100000
,
10000000
10000000
10000000
01000000
,
01000000
00200000
00000000
01000000
,
00000000
00010000
00000000
00001000
,
00300000
00011000
00000000
00000000
,
00000000
00010010
00000000
00000000
,
00000000
00002000
00003100
00000000
,
00000110
00000000
00001001
00002002
,
00003003
00000010
00000100
00000010
,
00000100
00001000
00010000
00001000
,
00000100
00000010
00000100
00000010
,
00000100
00001000
00020000
00030000
,
01000000
00100000
01000000
00100000
,
01000000
00010000
00001000
00010000
,
01000000
00100000
01000000
00100000
,
01000000
00010000
00001000
00011000
,
00010000
00001000
00000100
00000010
,
00000100
00000001
00001000
00000100
,
00000010
00000001
00000100
00000010
,
00000100
00001000
00020000
00031000
,
00001000
00010000
01000000
00100000
,
01000000
10000000
00010000
01000000
,
00100000
10000000
01000000
00100000
,
01000000
00010000
00002000
00013000
,
00022000
00033000
00000100
00000000
,
00000001
00000000
00001000
00000000
,
00010000
00000000
02000000
00000000
,
20000000
03000000
00200000
30000000
,
00020000
00300000
00002000
00030000
,
00000200
00003000
00000002
00000300
,
00000020
00000003
00000130
00001001
,
00000110
00001000
00011000
00100000
,
10010000
01000000
01100000
10000000
,
10010000
01000000
01100000
00010000
,
00011000
00000000
00000100
00000000
00000001
00000001
00000010
00000010
,
00000100
00000100
00001000
00001000
00001001
00000000
00000000
00000000
,
00000000
00001001
00000100
00000010
,
00000100
00001000
00010000
00001000
,
00100000
00001000
00010000
01000000
,
10000000
00100000
10000000
00100000
,
01000000
10000000
01000000
00010000
,
00100000
00001000
00010000
00000100
,
00001000
00000010
00000100
00000010
,
00001000
00000001
00000100
00000001
,
00001001
00000200
00000000
00000310
,
00001000
00000000
00000100
00000000
00010000
00000000
00001000
00010000
,
00001000
00200000
00000000
00310000
,
10000000
00000000
00010000
00000000
01000000
00000000
00100000
01000000
,
00100000
20000000
00000000
31000000
,
00100000
00010000
01000000
00001000
,
00010000
00001000
00001000
00010000
,
00010000
00000100
00001000
00000010
,
00000100
00001001
00000000
00000000
,
00000000
00000000
00000000
00000000
;

//---------------dance-double - ----------------
#NOTES:
     dance-double:
     :
     Medium:
     13:
     :
00000000
00000000
00000000
00000000
,
00000000
00000000
00000000
00000000
,
00000000
00000000
00000000
00000000
,
00000000
00000000
00000000
00000000
,
00000000
00000000
00000000
00000000
,
10000000
01000000
10000000
10000000
,
00100000
01000000
00010000
00010000
,
00100000
00001000
00010000
00010000
,
00010100
00000000
00000000
00000011
00000000
00000000
00001100
00000000
,
00000001
00000100
00000000
00000000
00000120
00000000
00000030
00001000
,
00000000
00000000
00010200
00000000
00000300
00000000
00000000
00001000
,
00000000
00000000
00100000
00000000
00000000
00010000
00000000
00000000
,
01010000
00000000
10100000
00000000
10000000
01000000
00010000
00001000
,
00020000
00000000
00031000
00000000
00010000
00000000
00000100
00010000
,
00001000
00000000
00000010
00000000
00000100
00000000
00001000
00000001
,
00001000
00000000
00000001
00000100
00000010
00000000
00001000
00000000
,
00000001
00000000
00000100
00001000
00000000
00010000
00000000
00011000
,
00000000
00011000
00000000
00000000
00010000
00000000
00001000
00100000
,
00010000
00000000
10000000
00000000
00010000
00000000
10000000
01000000
,
10000000
00000000
00100000
00010000
01000000
00000000
00010000
00000000
,
10000000
00000000
00100000
00010000
00001000
00000000
00101000
00000000
,
00010000
00000000
00001000
00001000
00010000
00000000
00000100
00000100
,
00000010
00000000
00000001
00000001
00001000
00000001
00000100
00000100
,
00000010
00000000
00010000
00010000
00001000
00000000
00100000
00100000
,
01000000
00000000
10000000
10000000
01000000
00100000
00010000
00010000
,
10000000
00000000
00100000
00100000
01000000
00000000
00001000
00001000
,
00010000
00000000
00000100
00000100
00000010
00000001
00001000
00001000
,
00000100
00000000
00000010
00000010
00000001
00000000
00000100
00000100
,
00001000
00000000
00010000
00010000
00000100
00010000
00001000
00100000
,
00100000
01200000
00000000
00002000
,
00003000
00320000
00000000
02000000
,
03030000
10010000
00000000
00000000
,
00000000
01100000
00000000
00000000
,
00000000
00000000
00000000
00000000
00011000
00011000
00000000
00000000
,
00010100
00010100
00000000
00000000
00001100
00000000
00000011
00000000
,
00001001
00000000
00000100
00000000
00001000
00000001
00001000
00000100
,
00000000
00000000
00000010
00000000
00000001
00000100
00000010
00001000
,
00000000
00000000
00000100
00000000
00010000
00001000
00100000
00010000
,
00000000
00000000
01000000
00000000
00100000
10000000
00010000
01000000
,
00000000
00000000
00010000
00000000
10000000
01000000
00100000
00010000
,
00000000
00000000
00100000
00000000
00001000
00010000
00000100
00001000
,
00000000
00000000
00000001
00000000
00000100
00000001
00001000
00000010
,
00000000
00000000
00000100
00000000
00000010
00001000
00000100
00010000
,
00000000
00010000
00001000
00000000
00100000
00010000
01000000
00100000
,
00000000
00100000
10000000
00000000
01000000
00100000
00010000
10000000
,
00000000
10000000
01000000
00000000
00100000
00001000
00010000
00000010
,
00000000
00000010
00000100
00000000
00000001
00000010
00000100
00001000
,
00000000
00001000
00000001
00000000
00000100
00000001
00000100
00000010
,
00000000
00000010
00001000
00000000
00000100
00010000
00001000
00100000
,
00000000
00100000
00010000
00000000
10000000
00010000
01000000
00100000
,
00000000
00100000
01000000
00000000
00010000
00100000
00001000
00010000
,
00002000
00003000
00000100
00000001
,
00000010
00000100
00010000
00001000
,
00100000
00010000
01000000
00100000
20000000
00000000
01000000
00000000
,
00010000
00100000
30020000
01000000
,
10000000
00100000
00032000
00000100
,
00000001
00000010
00003002
00000100
,
00001000
00000000
00000000
00000000
00000010
00000000
00000010
00000000
00000203
00000000
00000000
00000000
00000310
00000000
00000100
00000010
,
00000000
00000000
00000000
00000000
00001000
00000000
00010000
00001000
00000000
00000000
00000000
00000000
00100000
00000000
01000000
00100000
,
20000000
00000000
00000000
00000000
30100000
00000000
01000000
00100000
00020000
00000000
00000000
00000000
00031000
00000000
00010000
00001000
,
00020000
00000000
00000000
00000000
00030010
00000000
00000100
00000010
00001000
00000000
00000000
00000010
00000001
00000000
00000000
00000100
,
00001000
00000000
00000000
00000100
00000001
00000000
00000000
00000100
00001000
00000000
00010000
00000000
00100000
00000000
01000000
00000000
,
00010000
10000000
00010000
10000000
00010000
10000000
00010000
10000000
00010000
00000000
00000000
00000000
00000000
00000000
00100000
00000000
,
00000000
00000000
10010000
00000000
01000000
00000000
00100000
00010000
,
01000000
00010000
00100000
00000000
00110000
00000000
00100000
00001000
,
00010000
00000000
00010000
00001000
00000100
00000000
00010000
00001000
,
00000100
00000010
00000100
00000000
00000101
00000000
00000010
00001000
,
00000001
00000000
00000010
00000001
00000100
00000001
00000010
00000000
,
00001001
00000000
00000010
00000001
00000100
00000000
00000100
00001000
,
00010000
00000000
00010000
00000100
00001000
00000010
00000100
00001000
,
00010000
00000000
00001000
00100000
00010000
10000000
00010000
01000000
,
00100000
00000000
10100000
00000000
10010000
00000000
00100000
10000000
,
01000000
00000000
00110000
00000000
00100000
00010000
00100000
00001000
,
00010000
00001000
00011000
00000000
00010100
00000000
00010000
00000100
,
00001000
00000000
00001100
00000000
00001000
00000001
00000100
00000001
,
00000010
00000001
00000011
00000000
00001100
00000000
00000010
00000001
,
00000100
00000000
00000110
00000000
00000010
00001000
00000010
00010000
,
00001000
00010000
00011000
00000000
00110000
00000000
10000000
00010000
,
10010000
00000000
00010000
10000000
01000000
00010000
00001000
00000100
,
00000010
00001001
00000000
00000000
,
00000000
00000000
00000000
00000000
;

//---------------dance-double - ----------------
#NOTES:
     dance-double:
     :
     Hard:
     16:
     :
00000000
00000000
00000000
00000000
,
00000000
00000000
00000000
00000000
,
00000000
00000000
00000000
00000000
,
00000000
00000000
00000000
00000000
,
00000000
00000000
00000000
00000000
,
00010000
00000010
00000100
00001000
,
00100000
01000000
00010000
00001000
,
00000010
00000001
00000100
00001000
,
00011000
00000000
00000000
01010000
00000000
00000000
10100000
00000000
,
10000000
11000000
00000000
00000000
01200000
00000000
00310000
00101000
,
00000000
00000000
00012000
00000000
00003010
00000000
00000000
00000001
,
00000101
00000000
00001000
00001010
00000000
00000100
00010100
00000000
,
00010000
00000000
00001000
00000000
00000100
00000000
00000010
00000000
00000100
00000000
00001000
00010000
00001000
00010000
00001000
00000000
,
00200000
00000000
00310000
00010000
10000000
01000000
00100000
00010000
,
00100000
01000000
00000000
01000000
10000000
01000000
00010000
00001000
,
00100000
00001000
00000000
00001000
00010000
00000010
00001000
00000001
,
00000100
00000010
00000100
00001000
00000100
00000001
00000000
00000101
,
00000000
00001010
00000000
00010000
00001000
00000100
00001000
00010000
,
00100000
10000000
00000000
10000000
01000000
00010000
00001000
00010000
,
01000000
00000000
01000000
00100000
00100000
01000000
00100000
00001000
,
00010000
00000000
00001000
00000000
00000000
00000000
00010000
00000000
00000100
00000000
00001000
00000000
00000100
00000010
00000000
00000100
,
00000010
00000000
00000000
00000000
00000001
00000000
00000100
00000000
00000010
00000000
00001000
00000000
00000001
00000100
00000001
00000100
,
00000010
00000000
00000100
00000000
00000001
00000000
00001000
00000000
00000100
00000000
00010000
00000000
00000010
00001000
00000010
00001000
,
00000100
00000000
00010000
00000000
00001000
00000000
00100000
00000000
01000000
00000000
10000000
00000000
00010000
01000000
00010000
01000000
,
00100000
00000000
10000000
00000000
01000000
00000000
00100000
00000000
00001000
00000000
01000000
00000000
00010000
00100000
00010000
00100000
,
00001000
00010000
00001000
00010000
00001000
00000000
00100000
00000000
00001000
00000000
00010000
00000000
00000010
00000100
00000010
00000100
,
00000001
00000000
00001000
00000000
00000100
00000000
00000010
00000000
00000001
00000000
00000100
00000000
00000010
00001000
00000010
00001000
,
00000100
00000000
00010000
00000000
00001000
00000000
01000000
00000000
00100000
00000000
10000000
00000000
00010000
10000000
00010000
10000000
,
00100000
00000000
10000000
00000000
01000000
00000000
00000000
00100000
00010000
00000000
00100000
00010000
00100000
00001000
00010000
00001000
,
00010000
00000000
00001000
00010000
00000200
00000000
00000000
00000000
00000000
00000000
00000000
00000000
00000320
00000000
00000000
00000000
,
00000001
00000230
00000001
00002300
,
00013000
00011000
00000000
00000000
,
00000000
10010000
00000000
00000000
,
00000000
00000000
00000000
00000000
00011000
00011000
00010100
00000000
,
00011000
00011000
01001000
00000000
00101000
00000000
00010010
00000000
,
00011000
00001000
00000100
00000010
00000000
00001000
00000100
00000010
,
00000000
00000001
00000010
00001000
00000010
00000001
00000100
00001000
,
00000000
00100000
00010000
01000000
00000000
00100000
10000000
01000000
,
00000000
10000000
00100000
00010000
00100000
10000000
01000000
00010000
,
00000000
00001000
00010000
01000000
00000000
00001000
00010000
00100000
,
00000000
00001000
00010000
00001000
00000010
00000001
00000100
00001000
,
00000000
00010000
00001000
00000100
00000000
00010000
00001000
00000010
,
00000000
00000000
00010000
00000000
00001000
00000000
00010000
00000000
01000000
00000000
00100000
01000000
00100000
00000000
00010000
00000000
,
00000000
00010000
10000000
00010000
01000000
10000000
00010000
10000000
,
01000000
00010000
00100000
00001000
00010000
00000100
00001000
00000001
,
00000000
00001000
00000001
00001000
00000010
00000001
00001000
00000001
,
00000010
00000100
00001000
00010000
00200000
00000000
01300000
00100000
,
10000000
00100000
00100000
01000000
00010000
00100000
00100000
00010000
,
10000000
00100000
00100000
01000000
00010000
00100000
00001000
00010000
,
00000100
00000010
00000010
00000100
00001000
00000001
00000001
00001000
,
00000100
00000000
00000010
00000000
00000001
00000000
00000100
00000000
00000010
00001000
00000010
00001000
00000100
00010000
00000100
00010000
,
00002000
00003000
00100000
00010000
,
01000000
00000000
10000000
00000000
00100000
00010000
00001000
00000100
,
00000001
00000010
00000100
00001000
00000010
00000100
00001000
00010000
00002000
00000000
00000000
00000000
00000000
00000000
00000000
00000000
,
00000000
00000000
00023000
00000000
,
00000000
00000000
00031000
00011000
,
00010000
01000000
10000000
00000000
10000000
01000000
00010000
00000000
,
00010000
00001000
00010000
00000100
00001000
00000100
00000010
00000000
00001001
00000100
00000100
00000000
00000010
00000000
00000100
00000020
,
00000030
00000100
00000100
00000000
00001000
00000000
00010000
00002000
00003000
01000000
01000000
00000000
00100000
00000000
01000000
00100000
,
10000000
01000000
01000000
00000000
00100000
00000000
01000000
00100000
00001000
00010000
00010000
00000000
00000010
00000000
00000100
00000010
,
00001000
00000100
00000100
00000000
00000010
00000000
00000100
00000010
00000011
00000000
00000000
00000001
00000101
00000000
00000000
00001000
,
00001010
00000000
00000000
00000100
00010100
00000000
00000000
00100000
00001000
01000000
00010000
10000000
00100000
01000000
00010000
10000000
,
01000000
00100000
00010000
01000000
00100000
00010000
00001000
00010000
00011000
00000000
00000000
00000000
00000000
00000000
00000110
00000000
,
00000000
00000000
00001001
00000001
00000100
00000100
00000001
00000010
,
00000100
00000000
00000010
00000000
00000001
00000000
00000001
00000000
00000010
00000000
00000100
00000000
00010000
00001000
00010000
00000000
,
00001000
00000000
00100000
00010000
01000000
01000000
00100000
10000000
,
00010000
00000000
00100000
00000000
00001000
00000000
00001000
00000000
00010000
00000000
00000100
00000000
00001000
00000010
00001000
00000000
,
00000001
00000000
00000010
00000001
00001000
00001000
00000001
00000100
,
00000010
00000000
00000100
00000000
00001000
00000000
00001000
00000000
00010000
00000000
00001000
00000000
00100000
00010000
00100000
00000000
,
01000000
00000000
11000000
01000000
00100000
00010000
01010000
00000000
,
00101000
00000000
00000000
00000000
00010000
00000000
00000100
00000000
00001000
00000000
00000020
00000000
00000000
00000000
00001030
00000100
,
00010000
00000100
00001000
00000100
00010000
00000000
00000000
00000000
00000010
00000000
00000100
00000000
00000001
00000000
00000100
00000000
,
00001000
00000000
00000100
00000000
00000010
00000100
00000010
00000000
00001000
00000000
00000001
00000100
00000001
00000000
00000010
00000000
,
00000100
00000000
00001000
00000100
00010000
00001000
00010000
01000000
,
00100000
00000000
01000000
00000000
10000000
00010000
10000000
00000000
00100000
00000000
01000000
00010000
01000000
00000000
00100000
00000000
,
10000000
00000000
10000000
10000000
01000000
00100000
00001000
00010000
,
00000010
00000000
00001000
00000000
00000100
00010000
00000100
00000000
00000010
00000000
00000001
00001000
00000001
00000000
00000100
00000000
,
00000001
00000000
00000101
00000100
00000001
00001000
00001010
00000000
,
00001001
00000000
00000000
00000000
00000001
00000000
00000100
00000000
00001000
00000000
00010000
00000000
00001000
00100000
00010000
01000000
,
00100000
10000000
00010000
00000000
10010000
00000000
00000000
00000000
00000000
00000000
00000000
00000000
00000000
00000000
00000000
00000000
,
00000000
00000000
00000000
00000000
;
