#TITLE:My Hero;
#ARTIST:In Geer;
#BANNER:My Hero-bn.png;
#BACKGROUND:My Hero-bg.png;
#JACKET:My Hero-jacket.png;
#MUSIC:My Hero.ogg;
#OFFSET:-0.373;
#SAMPLESTART:11.856;
#SAMPLELENGTH:20;
#BPMS:0=167;
#BGCHANGES:;

//---------------dance-single - ----------------
#NOTES:
     dance-single:
     :
     Beginner:
     2:
     :
0000
0000
0000
0000
,
0000
0000
0000
0000
,
0000
0000
0000
0000
,
0000
0000
0000
0000
,
1000
0000
1000
0000
,
1000
0000
0000
0000
,
0001
0000
0001
0000
,
0001
0000
0000
0000
,
1000
1000
0000
0000
,
0000
0100
0000
0000
,
0000
0010
0000
0000
,
0000
0001
0000
0000
,
0000
1000
0000
0000
,
0000
0001
0000
0000
,
0000
0100
0000
0000
,
0000
0010
0000
0000
,
1000
0000
0000
0000
,
0001
0000
0000
0000
,
2002
0000
0000
3003
,
0000
0000
0000
0000
,
0100
0000
0000
0000
,
0010
0000
0000
0000
,
0220
0000
0000
0330
,
0000
0000
0000
0000
,
1000
0000
0000
0000
,
0001
0000
0000
0000
,
0200
0000
0000
0300
,
0000
0000
0000
0000
,
0001
0000
0000
0000
,
1000
0000
0000
0000
,
0020
0000
0000
0030
,
0000
0000
0000
0000
,
1000
0000
0000
0000
,
0100
0000
0000
0000
,
0010
0000
0000
0000
,
0001
0000
0000
0000
,
1000
0000
0000
0000
,
0010
0000
0010
0000
,
0100
0000
0100
0000
,
0001
0000
0000
0000
,
1000
0000
1000
0000
,
0100
0000
0000
0000
,
1000
0001
0000
0000
,
0000
0100
0000
0000
,
0000
0010
0000
0000
,
0000
1000
0000
0000
,
0000
0100
0000
0000
,
0000
0010
0000
0000
,
0000
0001
0000
0000
,
0000
1000
0000
0000
,
0010
0000
0000
0000
,
0100
0000
0000
0000
,
0220
0000
0000
0330
,
0000
0000
0000
0000
,
0001
0000
0000
0000
,
1000
0000
0000
0000
,
2002
0000
0000
3003
,
0000
0000
0000
0000
,
0010
0000
0000
0000
,
0100
0000
0000
0000
,
2000
0000
0000
3000
,
0000
0000
0000
0000
,
0001
0000
0000
0000
,
0100
0000
0000
0000
,
0020
0000
0000
0030
,
0000
0000
0000
0000
,
1000
0000
0000
0000
,
0001
0000
0000
0000
,
1000
0000
0000
0000
,
1001
0000
0000
0000
;

//---------------dance-single - ----------------
#NOTES:
     dance-single:
     :
     Easy:
     5:
     :
0000
0000
0000
0000
,
0000
0000
0000
0000
,
0000
0000
0000
0000
,
0000
0000
0000
0000
,
1000
0000
0001
0000
,
1000
0100
0010
0001
,
0001
0000
1000
0000
,
0001
0100
0010
1000
,
0100
1000
0000
0010
,
0000
0100
0000
0001
,
0000
0010
0000
0001
,
0000
1000
0000
0001
,
0000
1000
0000
0100
,
0000
1000
0000
0010
,
0000
0100
0000
0001
,
0000
1000
0000
1001
,
0001
0100
1000
0100
,
0001
0000
0000
0000
,
1000
0100
0001
0100
,
1000
0000
0000
0000
,
0001
0010
1000
0010
,
0001
0000
0000
0000
,
1000
0010
0001
0010
,
1000
0100
0010
0001
,
0200
0000
0302
0000
,
2003
0000
3200
0000
,
0320
0000
0000
0000
,
0000
0000
0030
0000
,
0002
0000
2003
0000
,
3020
0000
0230
0000
,
0302
0000
0000
0000
,
0000
0000
0003
0000
,
1000
0000
2000
0000
,
0000
0000
3000
0000
,
0100
0000
0010
0000
,
0020
0000
0030
0000
,
0001
0000
0002
0000
,
0003
0000
0001
0000
,
1000
0000
0001
0000
,
1000
0010
1000
0100
,
0010
0000
0100
0000
,
0010
0001
0100
0001
,
1000
0010
0000
1000
,
0000
0100
0000
0010
,
0000
0001
0000
0100
,
0000
0010
0000
1000
,
0000
0100
0000
1000
,
0000
0001
0000
0010
,
0000
0100
0000
1000
,
0000
0001
0000
1001
,
0010
1000
0100
1000
,
0010
0000
0000
0000
,
0100
0001
0010
0001
,
0100
0000
0000
0000
,
0001
1000
0100
1000
,
0001
0000
0000
0000
,
1000
0001
0100
0001
,
1000
0000
0000
0000
,
0020
0000
0230
0000
,
0302
0000
2003
0000
,
3200
0000
0000
0000
,
0000
0000
0300
0000
,
2000
0000
3002
0000
,
0203
0000
0302
0000
,
0023
0000
0000
0000
,
0000
0000
0030
0000
,
0001
0000
0010
0000
,
1000
0000
0100
0000
,
0001
0000
1000
0000
,
1001
0000
0000
0000
;

//---------------dance-single - ----------------
#NOTES:
     dance-single:
     :
     Medium:
     7:
     :
0000
0000
0000
0000
,
0000
0000
0000
0000
,
0000
0000
0000
0000
,
0000
0000
0000
0000
,
1000
0000
0000
0001
0000
0100
0000
0010
,
0000
1000
0000
0100
0000
0010
0000
0000
,
0001
0000
0000
1000
0000
0100
0000
0010
,
0000
0001
0000
0100
0000
0010
0000
0000
,
1000
0200
0000
2300
,
0000
3002
0000
0203
,
0000
0320
0000
2030
,
0000
3002
0000
0023
,
0000
0230
0000
2300
,
0000
3020
0000
0230
,
0000
0320
0000
2030
,
0000
3002
0000
1003
,
0010
0000
0100
0000
0010
0000
0000
0110
,
0000
0000
1000
0000
0100
0000
0000
1001
,
0000
0000
0010
0000
0001
0000
0000
1010
,
0000
0100
0001
1000
,
0100
0000
0010
0000
0001
0000
0000
0101
,
0000
0100
0010
1000
,
0001
0000
1000
0000
0100
0000
0000
0011
,
0000
0100
0010
1000
,
0001
0100
2000
0000
,
3000
0100
0001
0010
,
0100
1000
0020
0000
,
0030
1000
0100
1001
,
1000
0100
0002
0000
,
0003
0100
1000
0010
,
0100
0001
0020
0000
,
0030
0001
0100
1001
,
0001
0000
0100
0020
0000
0000
0000
0000
,
0000
0000
0030
0000
0000
1000
0100
0000
,
1000
0000
0001
1000
0000
0000
1000
0200
,
0000
0000
0000
0300
,
1000
0000
0001
0200
0000
0000
0000
0000
,
0000
0000
0300
0000
0000
0001
1000
0000
,
0010
0000
0000
1000
0000
0100
0000
0001
,
0000
0100
0000
1000
0000
1001
0000
0000
,
0010
0000
0000
0001
0000
0100
0000
1000
,
0000
0100
0000
0001
0000
1001
0000
0000
,
1000
0200
0000
2300
,
0000
3002
0000
0203
,
0000
0302
0000
0023
,
0000
0230
0000
2300
,
0000
3020
0000
2030
,
0000
3200
0000
0320
,
0000
0030
0000
2000
,
0000
3002
0000
1003
,
0010
0000
0100
0000
0001
0000
0000
0011
,
0000
0000
1000
0000
0100
0000
0000
0110
,
0000
0000
1000
0000
0001
0000
0000
1100
,
0000
0010
1000
0001
,
0100
0000
0001
0000
1000
0000
0000
1100
,
0000
0010
0001
0100
,
0010
0000
1000
0000
0001
0000
0000
0110
,
0000
1000
0100
0010
,
0001
0100
0002
0000
,
0003
1000
0010
1000
,
0100
0001
0200
0000
,
0300
1000
0010
0100
,
0001
1000
0020
0000
,
0030
1000
0001
0010
,
0100
1000
0200
0000
,
0300
1000
0001
0010
,
0001
0001
1000
1000
,
0010
0010
0100
0100
,
0001
0001
0010
0010
,
1001
0000
0000
0000
;

//---------------dance-single - ----------------
#NOTES:
     dance-single:
     :
     Hard:
     9:
     :
0000
0000
0000
0000
,
0000
0000
0000
0000
,
0000
0000
0000
0000
,
0000
0000
0000
0000
,
0001
1000
0100
0001
0000
0100
0000
1000
,
0000
0010
0000
0110
0000
0100
0001
0000
,
1000
0001
0100
1000
0000
0100
0000
0001
,
0000
0010
0000
0110
0000
0100
1000
0000
,
0010
0000
1000
0100
0000
0000
0100
0010
,
0000
0000
0010
0001
0000
0000
0001
1000
,
0000
0000
1000
0010
0000
0000
0010
0100
,
0000
0000
0100
0001
0000
0000
0001
1000
,
0000
0000
1000
0100
0000
0000
0100
0001
,
0000
0000
0001
1000
0000
0000
1000
0100
,
0000
0000
0100
0001
0000
0000
0001
0010
,
0000
0000
0010
0100
0000
0000
0110
0000
,
1010
0000
0001
0000
1000
0100
0000
0100
,
0000
0000
1000
0000
0001
0100
0000
0100
,
0000
0000
0001
0000
0100
0010
0000
0010
,
0000
1000
0100
0010
,
1001
0000
0100
0000
0010
0000
1000
0100
,
0000
1000
0001
0010
,
0101
0000
0010
0000
1000
1000
0000
0100
,
0000
1000
0010
0100
,
0002
0000
1000
0000
0013
0000
0100
0010
,
0000
1000
0100
0010
,
0002
0000
0100
0000
0013
0000
1000
0100
,
0000
1001
0110
1001
,
2000
0000
0001
0000
3100
0000
0010
0100
,
0000
0001
0010
0100
,
2000
0000
0010
0000
3100
0000
0001
0010
,
0000
1010
0011
1010
,
0010
0000
0100
0002
0000
0000
0000
0000
,
0000
0000
0003
0000
0000
1000
0001
0000
,
1000
0000
0100
0010
0000
0000
0010
0200
,
0000
0000
0300
0000
,
1000
0000
0001
0020
0000
0000
0000
0000
,
0000
0000
0030
0000
0000
0100
1000
0000
,
0010
1000
0100
0010
0000
0001
0000
1000
,
0000
0010
0000
1001
0000
0100
0001
0000
,
0010
0001
0100
0010
0000
1000
0000
0001
,
0000
0010
0000
1001
0000
0100
1000
0000
,
0010
0000
0010
1000
0000
0000
1000
0001
,
0000
0000
0001
0010
0000
0000
0010
1000
,
0000
0000
1000
0001
0000
0000
0001
0010
,
0000
0000
0010
0100
0000
0000
0100
0001
,
0000
0000
0001
1000
0000
0000
1000
0100
,
0000
0000
0100
0010
0000
0000
0010
0001
,
0000
0000
0001
1000
0000
0000
1000
0010
,
0000
0000
0010
0100
0000
0000
1001
0000
,
0010
0000
0101
0000
1000
0010
0000
0010
,
0000
0000
1100
0000
0001
0100
0000
0100
,
0000
0000
0011
0000
0100
1000
0000
1000
,
0000
0010
1000
0100
,
1000
0000
0100
0000
0010
0000
0001
1000
,
0000
0001
0100
0010
,
1000
0000
0001
0000
0010
0100
0000
0020
,
0000
0100
0130
0100
,
2000
0000
0001
0000
3100
0000
0010
0100
,
0000
0001
0010
0100
,
2000
0000
0100
0000
3010
0000
0001
0100
,
0000
1001
1010
0011
,
0002
0000
1000
0000
0013
0000
0100
0010
,
0000
1000
0100
0010
,
0002
0000
0100
0000
1003
0000
0010
0100
,
0000
0110
1001
0101
,
1000
0100
1000
0000
0001
0100
0001
0000
,
1000
0010
1000
0000
0001
0010
0001
0000
,
1000
0001
1000
0000
0001
1000
0001
0000
,
0110
0000
0000
0000
;

//---------------dance-single - ----------------
#NOTES:
     dance-single:
     :
     Challenge:
     12:
     :
0000
0000
0000
0000
,
0000
0000
0000
0000
,
0000
0000
0000
0000
,
0000
0000
0000
0000
,
1000
0100
0001
0020
0000
0031
0100
2000
,
0000
3010
1000
0002
0000
0103
0200
0000
,
0310
1000
0100
0020
0000
0031
1000
0001
,
0010
0100
1000
0010
1000
0001
0100
0010
,
0210
0000
0301
0010
0001
0100
0010
1000
,
0200
0000
1300
0001
0010
0001
1000
0100
,
0020
0000
0031
0100
0001
1000
0010
1000
,
0200
0000
0310
0001
2000
0000
3010
0100
,
0002
0000
0013
0001
1000
0010
1000
0100
,
2000
0000
3001
0010
0001
0100
0010
1000
,
0200
0000
0310
0001
1000
0010
1000
0100
,
0010
0001
0000
0010
0001
0000
1000
0000
0010
0100
0000
0010
0100
0000
0001
0000
,
0011
0000
0011
1000
0001
0100
0010
1000
,
0000
0100
1000
0010
0100
0001
1000
0001
,
0000
0010
0100
0001
0100
1000
0010
0100
,
0000
0100
0001
0000
2000
0100
3100
0000
,
1010
0000
1010
0000
1000
0001
0010
0100
,
0000
1000
0010
1000
0002
0010
0013
0100
,
1100
0000
1100
0010
1000
0001
1000
0100
,
0000
0000
0100
0000
0010
0000
0001
0000
1000
0000
0010
0100
0010
0000
1000
0000
,
1100
0000
0000
0000
0101
0000
0000
0000
0001
0010
0001
0010
0001
0000
0100
0000
,
0000
0010
1000
0100
1000
0001
0020
0000
,
0031
0100
0010
0001
0010
1000
0100
0020
,
0000
0031
1000
0010
1000
0001
0100
0010
,
1010
0000
0000
0000
0011
0000
0000
0000
1000
0100
1000
0100
1000
0000
0001
0000
,
0000
0010
0001
1000
0001
0100
0010
1000
,
0100
1000
0100
0001
0100
0010
0001
2000
,
0000
0010
3010
0000
1001
0001
0100
0000
,
0001
0010
0100
2000
0000
0010
0010
0000
,
3001
1000
0010
1000
0100
0010
0002
0000
,
0103
0001
1000
0020
0000
1030
0100
0020
,
0001
0000
0031
0100
1000
0100
0001
0000
,
0010
0001
1000
0020
0000
0100
0100
0000
,
1030
0010
0100
1000
0100
0001
0200
0000
,
0310
1000
0010
0100
0010
1000
0100
0010
,
0001
0100
0001
1000
0010
0100
0001
0000
,
1000
0001
1000
0010
0100
0001
0010
0100
,
1000
0001
1000
0010
1000
0100
0001
0000
,
0010
0000
0011
0001
1000
0000
1010
0010
,
0100
0000
0110
1000
0001
0000
0101
0010
,
0100
0000
1100
0001
1000
0000
1001
0100
,
1000
0000
1100
0001
0010
0000
0011
1000
,
0001
0000
0110
0100
0001
0000
1001
0010
,
1000
0000
0101
0100
0001
0000
1010
0100
,
1000
0000
1001
0010
0100
0000
0110
0001
,
0010
1000
0100
0010
0001
0100
0001
1000
,
0010
1000
0010
0100
0010
1000
0001
0010
,
0000
0001
1000
0010
1000
0001
0010
0100
,
0000
0100
0010
0100
1000
0010
1000
0001
,
0000
0010
0001
1000
0002
0100
0103
0000
,
0110
0000
0110
0000
0100
0001
1000
0010
,
0000
1000
0100
1000
0002
0010
0013
0100
,
1001
0000
1001
0000
0010
1000
0100
0010
,
0000
0001
0100
0001
2000
0100
3100
0000
,
1100
0000
0000
0000
0011
0000
0000
0000
0100
0001
0100
0001
0100
0000
0010
0000
,
0000
0010
1000
0001
1000
0100
0001
0020
,
0000
0000
0001
0000
0031
0000
0100
0000
0010
0000
1000
0000
0100
0000
0010
0001
,
0010
0100
1000
0001
0100
0010
1000
0000
,
1010
0000
0000
0000
0101
0000
0000
0000
1000
0001
1000
0001
1000
0000
0010
0000
,
0000
0100
0001
0010
0100
1000
0001
0200
,
0000
0001
0301
1000
0010
1000
0100
0010
,
0001
0100
0001
1000
0100
0010
0001
0000
,
0001
0100
1001
0000
0010
1000
0101
0000
,
0010
0100
1100
0000
0001
1000
0011
0000
,
0100
0010
1010
0000
1000
0001
0110
0000
,
0002
0000
0000
0000
,
0000
0000
0000
0000
,
0000
0000
0000
0000
,
0003
0000
0000
0000
;

//---------------dance-double - ----------------
#NOTES:
     dance-double:
     :
     Easy:
     5:
     :
00000000
00000000
00000000
00000000
,
00000000
00000000
00000000
00000000
,
00000000
00000000
00000000
00000000
,
00000000
00000000
00000000
00000000
,
10000000
00000000
00010000
00000000
,
00100000
00001000
00010000
00000100
,
00001000
00000000
00000001
00000000
,
00000100
00000010
00001000
00000100
,
00010000
00001000
00000000
00010000
,
00000000
01000000
00000000
10000000
,
00000000
00100000
00000000
01000000
,
00000000
00001000
00000000
00010000
,
00000000
00000010
00000000
00001000
,
00000000
00000001
00000000
00000010
,
00000000
00000001
00000000
00001000
,
00000000
00000100
00000000
00001001
,
00000001
00000100
00001000
00010000
,
00001000
00000000
00000000
00000000
,
00010000
00001000
00010000
01000000
,
10000000
00000000
00000000
00000000
,
00100000
10000000
01000000
00010000
,
00001000
00000000
00000000
00000000
,
00010000
00001000
00000100
00000001
,
00000010
00000001
00001000
00000100
,
00020000
00000000
00032000
00000000
,
02003000
00000000
03200000
00000000
,
20300000
00000000
00000000
00000000
,
00000000
00000000
30000000
00000000
,
00020000
00000000
00230000
00000000
,
00302000
00000000
00023000
00000000
,
00030020
00000000
00000000
00000000
,
00000000
00000000
00000030
00000000
,
00001000
00000000
00000002
00000000
,
00000000
00000000
00000003
00000000
,
00000100
00000000
00000010
00000000
,
00002000
00000000
00003000
00000000
,
00000100
00000000
00020000
00000000
,
00030000
00000000
00001000
00000000
,
00010000
00000000
00001000
00000000
,
00100000
00010000
01000000
00100000
,
10000000
00000000
00010000
00000000
,
00100000
00010000
01000000
00001000
,
00010000
00001000
00000000
00010000
,
00000000
00000100
00000000
00000010
,
00000000
00000001
00000000
00000100
,
00000000
00001000
00000000
00010000
,
00000000
01000000
00000000
10000000
,
00000000
00100000
00000000
01000000
,
00000000
00010000
00000000
00100000
,
00000000
00001000
00000000
00011000
,
00010000
00000100
00001000
00000100
,
00010000
00000000
00000000
00000000
,
00000010
00001000
00000001
00001000
,
00000010
00000000
00000000
00000000
,
00010000
00001000
01000000
00001000
,
00010000
00000000
00000000
00000000
,
00001000
01000000
00100000
01000000
,
00001000
00000000
00000000
00000000
,
00200000
00000000
02300000
00000000
,
23000000
00000000
30020000
00000000
,
02030000
00000000
00000000
00000000
,
00000000
00000000
03000000
00000000
,
00002000
00000000
00023000
00000000
,
00030020
00000000
00002030
00000000
,
00003200
00000000
00000000
00000000
,
00000000
00000000
00000300
00000000
,
00001000
00000000
00000001
00000000
,
00000100
00000000
00001000
00000000
,
00010000
00000000
00001000
00000000
,
00011000
00000000
00000000
00000000
;

//---------------dance-double - ----------------
#NOTES:
     dance-double:
     :
     Medium:
     7:
     :
00000000
00000000
00000000
00000000
,
00000000
00000000
00000000
00000000
,
00000000
00000000
00000000
00000000
,
00000000
00000000
00000000
00000000
,
10000000
00000000
00000000
01000000
00000000
00100000
00000000
00001000
,
00000000
00010000
00000000
00000010
00000000
00000100
00000000
00000000
,
00000001
00000000
00000000
00000100
00000000
00000010
00000000
00010000
,
00000000
00001000
00000000
00100000
00000000
01000000
00000000
00000000
,
10000000
02000000
00000000
03020000
,
00000000
00032000
00000000
00003200
,
00000000
00000302
00000000
00000023
,
00000000
00000230
00000000
00020300
,
00000000
00032000
00000000
02003000
,
00000000
03200000
00000000
20300000
,
00000000
32000000
00000000
03020000
,
00000000
00032000
00000000
00013000
,
00000100
00000000
00000010
00000000
00000100
00000000
00000000
00000110
,
00000000
00000000
00000010
00000000
00000001
00000000
00000000
00001001
,
00000000
00000000
00000100
00000000
00010000
00000000
00000000
00011000
,
00000000
01000000
00010000
10000000
,
01000000
00000000
00100000
00000000
00010000
00000000
00000000
01001000
,
00000000
00010000
00000100
00001000
,
00000010
00000000
00000100
00000000
00000001
00000000
00000000
00001010
,
00000000
00000100
00010000
00001000
,
00100000
00010000
02000000
00000000
,
03000000
00100000
10000000
01000000
,
00100000
00001000
00020000
00000000
,
00030000
00001000
00010000
00001100
,
00000010
00001000
00000002
00000000
,
00000003
00000100
00000010
00001000
,
00000100
00010000
00002000
00000000
,
00003000
01000000
00010000
10100000
,
01000000
00100000
20000000
00000000
,
00000000
30000000
01000000
00100000
,
00001000
00010000
00001000
00010000
,
00000200
00000000
00000000
00000300
,
00001000
00000001
00000020
00000000
,
00000000
00000030
00000100
00001000
,
00000010
00000000
00000000
00010000
00000000
00001000
00000000
00000100
,
00000000
00001000
00000000
00010000
00000000
01000000
00000000
00000000
,
10000000
00000000
00000000
00100000
00000000
10000000
00000000
01000000
,
00000000
00010000
00000000
00001000
00000000
00011000
00000000
00000000
,
00010000
00000200
00000000
00000320
,
00000000
00000032
00000000
00000203
,
00000000
00000320
00000000
00020030
,
00000000
00032000
00000000
00203000
,
00000000
00320000
00000000
20030000
,
00000000
32000000
00000000
03020000
,
00000000
00032000
00000000
00003200
,
00000000
00000302
00000000
00001003
,
00000010
00000000
00010000
00000000
00000100
00000000
00000000
00011000
,
00000000
00000000
00100000
00000000
00010000
00000000
00000000
10100000
,
00000000
00000000
01000000
00000000
00010000
00000000
00000000
00101000
,
00000000
00010000
00000100
00000010
,
00000001
00000000
00001000
00000000
00000010
00000000
00000000
00000110
,
00000000
00000010
00001000
00010000
,
00100000
00000000
01000000
00000000
10000000
00000000
00000000
10010000
,
00000000
10000000
01000000
00010000
,
00001000
00010000
00002000
00000000
,
00003000
00010000
00000010
00001000
,
00000001
00000100
00000020
00000000
,
00000030
00010000
00001000
01000000
,
00010000
10000000
00200000
00000000
,
00300000
01000000
00001000
00100000
,
00010000
01000000
00002000
00000000
,
00003000
00010000
00000100
00001000
,
00000010
00000010
00001000
00001000
,
00000001
00000001
00000100
00000100
,
00001000
00001000
00010000
00010000
,
00011000
00000000
00000000
00000000
;

//---------------dance-double - ----------------
#NOTES:
     dance-double:
     :
     Hard:
     9:
     :
00000000
00000000
00000000
00000000
,
00000000
00000000
00000000
00000000
,
00000000
00000000
00000000
00000000
,
00000000
00000000
00000000
00000000
,
00010000
10000000
01000000
00010000
00000000
00001000
00000000
00010000
,
00000000
00010000
00000000
00001000
00000000
00000100
00000010
00000000
,
00001000
00000001
00000100
00001000
00000000
00010000
00000000
00001000
,
00000000
00001000
00000000
00010000
00000000
01000000
00100000
00000000
,
00010000
00000000
10000000
01000000
00000000
00000000
01000000
00100000
,
00000000
00000000
00100000
00001000
00000000
00000000
00001000
00010000
,
00000000
00000000
00010000
00000010
00000000
00000000
00000010
00001000
,
00000000
00000000
00001000
00000001
00000000
00000000
00000001
00000100
,
00000000
00000000
00000100
00001000
00000000
00000000
00001000
00010000
,
00000000
00000000
00010000
01000000
00000000
00000000
01000000
10000000
,
00000000
00000000
10000000
00100000
00000000
00000000
00100000
01000000
,
00000000
00000000
01000000
00001000
00000000
00000000
00011000
00000000
,
00010010
00000000
00001000
00000000
00000001
00000100
00000000
00000100
,
00000000
00000000
00000010
00000000
00010000
00001000
00000000
00001000
,
00000000
00000000
00100000
00000000
00010000
01000000
00000000
01000000
,
00000000
00100000
10000000
01000000
,
00110000
00000000
00001000
00000000
00010000
00000000
00000100
00000010
,
00000000
00000100
00001000
00000001
,
00000110
00000000
00000010
00000000
00010000
00010000
00000000
00001000
,
00000000
01000000
00100000
10000000
,
20000000
00000000
01000000
00000000
30100000
00000000
00010000
01000000
,
00000000
00001000
00010000
00000010
,
00002000
00000000
00000100
00000000
00003010
00000000
00000001
00000100
,
00000000
00000110
00001001
00000110
,
00000002
00000000
00000010
00000000
00001003
00000000
00000100
00000010
,
00000000
00001000
00010000
00100000
,
02000000
00000000
10000000
00000000
03100000
00000000
00001000
00010000
,
00000000
00101000
00011000
00010010
,
00001000
00000000
00000001
00000200
00000000
00000000
00000000
00000000
,
00000000
00000000
00000300
00000000
00000000
00000001
00001000
00000000
,
00000100
00000000
00010000
00001000
00000000
00000000
00100000
00020000
,
00000000
00000000
00030000
00000000
,
10000000
00000000
00010000
00200000
00000000
00000000
00000000
00000000
,
00000000
00000000
00300000
00000000
00000000
01000000
10000000
00000000
,
00100000
10000000
01000000
00100000
00000000
00001000
00000000
00010000
,
00000000
00000100
00000000
00001000
00000000
00000001
00000001
00000000
,
00000010
00000001
00000100
00000010
00000000
00010000
00000000
00001000
,
00000000
00100000
00000000
00010000
00000000
10000000
10000000
00000000
,
00100000
00000000
00100000
10000000
00000000
00000000
10000000
01000000
,
00000000
00000000
01000000
00010000
00000000
00000000
00010000
00001000
,
00000000
00000000
00001000
00000100
00000000
00000000
00000100
00000001
,
00000000
00000000
00000001
00000010
00000000
00000000
00000010
00001000
,
00000000
00000000
00001000
00010000
00000000
00000000
00010000
00100000
,
00000000
00000000
00100000
10000000
00000000
00000000
10000000
00010000
,
00000000
00000000
00010000
00100000
00000000
00000000
00100000
00001000
,
00000000
00000000
00001000
00010000
00000000
00000000
00011000
00000000
,
00000100
00000000
00001010
00000000
00000100
00000001
00000000
00000001
,
00000000
00000000
00000110
00000000
00010000
00001000
00000000
00001000
,
00000000
00000000
00110000
00000000
01000000
00010000
00000000
00010000
,
00000000
10000000
01000000
00100000
,
00001000
00000000
00010000
00000000
00000010
00000000
00001000
00000001
,
00000000
00000100
00001000
00010000
,
00001000
00000000
00100000
00000000
00010000
10000000
00000000
02000000
,
00000000
10000000
13000000
10000000
,
20000000
00000000
00010000
00000000
31000000
00000000
00100000
01000000
,
00000000
00001000
00010000
00000100
,
00002000
00000000
00000100
00000000
00003010
00000000
00000001
00000100
,
00000000
00001001
00001010
00000011
,
00000002
00000000
00001000
00000000
00000013
00000000
00000100
00000010
,
00000000
00010000
00001000
00100000
,
00020000
00000000
01000000
00000000
10030000
00000000
00100000
01000000
,
00000000
01010000
00101000
00011000
,
00001000
01000000
00001000
00000000
00010000
00000100
00010000
00000000
,
00001000
00100000
00001000
00000000
00010000
00000010
00010000
00000000
,
00001000
00010000
00000100
00000000
00001000
00000010
00000100
00000000
,
00001001
00000000
00000000
00000000
;
