#TITLE:夢幻ノ光;
#ARTIST:TЁЯRA;
#TITLETRANSLIT:Mugen;
#BANNER:Mugen.png;
#BACKGROUND:Mugen-bg.png;
#JACKET:Mugen-jacket.png;
#MUSIC:Mugen.ogg;
#SAMPLESTART:46.34;
#SAMPLELENGTH:20;
#DISPLAYBPM:171;
#BPMS:0=170.2,4=171;
#BGCHANGES:;

//---------------dance-single - ----------------
#NOTES:
     dance-single:
     :
     Beginner:
     4:
     :
0000
0000
0000
0000
,
0000
0000
0000
0000
,
0000
0000
0000
0000
,
0000
0000
0000
0000
,
0000
0000
0000
0000
,
0001
0000
0000
0000
,
1000
0000
0000
0000
,
0010
0000
0100
0000
,
0010
0000
1001
0000
,
0010
0000
0000
0000
,
0100
0000
0000
0000
,
1000
0000
0000
0000
,
0001
0000
0000
0000
,
1000
0000
1000
0000
,
0001
0000
0001
0000
,
0010
0000
0100
0000
,
1001
0000
0000
0000
,
0100
0000
0000
0000
,
0010
0010
0010
0000
,
1000
0000
0000
0000
,
0100
0100
0100
0000
,
0010
0000
0010
0000
,
0001
0000
0001
0000
,
0100
0000
0100
0000
,
1001
0000
0000
0000
,
0010
0010
0010
0000
,
0100
0100
0100
0000
,
0001
0001
0001
0000
,
1000
1000
1000
0000
,
0001
0000
0001
0000
,
1000
0000
1000
0000
,
0001
0000
0100
0000
,
0010
0000
1001
0000
,
0010
0000
1000
0000
,
0100
0100
0100
0000
,
1000
0000
0010
0000
,
0001
0001
0001
0000
,
0010
0000
0100
0000
,
0010
0000
0001
0000
,
1000
0000
0100
0000
,
0010
0000
1001
0000
,
0100
0000
0001
0000
,
0010
0010
0010
0000
,
1000
0000
0001
0000
,
1001
0000
0000
0000
,
0010
0000
0000
0000
,
0001
0000
0000
0000
,
1000
0000
0001
0000
,
0100
0000
1001
0000
,
0001
0000
0000
0000
,
1000
0000
0000
0000
,
0010
0000
0000
0000
,
0100
0000
0000
0000
,
0010
0000
0000
0000
,
1000
0000
0000
0000
,
0001
0000
0100
0000
,
1000
0000
1001
0000
,
0010
0000
0100
0000
,
0001
0001
0000
0000
,
1000
0000
0001
0000
,
1001
0000
0000
0000
,
1000
1000
0000
0000
,
0100
0100
0000
0000
,
0010
0000
0100
0000
,
1000
1000
0000
0000
,
0100
0000
1000
0000
,
0010
0000
0001
0000
,
1001
0000
0000
0000
,
0000
0000
0000
0000
,
0100
0000
0000
0000
;

//---------------dance-single - ----------------
#NOTES:
     dance-single:
     :
     Easy:
     4:
     :
0000
0000
0000
0000
,
0000
0000
0000
0000
,
0000
0000
0000
0000
,
0000
0000
0000
0000
,
0000
0000
0000
0000
,
0001
0000
0000
0000
,
1000
0000
0000
0000
,
0010
0000
0100
0000
,
0010
0000
1001
0000
,
0010
0000
0000
0000
,
0100
0000
0000
0000
,
1000
0000
0000
0000
,
0001
0000
0000
0000
,
1000
0000
1000
0000
,
0001
0000
0001
0000
,
0010
0000
0100
0000
,
1001
0000
0000
0000
,
0200
0000
0000
0300
,
0010
0010
0010
0000
,
2000
0000
0000
3000
,
0100
0100
0100
0000
,
0010
0000
0010
0000
,
0001
0000
0001
0000
,
0100
0000
0100
0000
,
2002
0000
0000
3003
,
0010
0010
0010
0000
,
0100
0100
0100
0000
,
0001
0001
0001
0000
,
1000
1000
1000
0000
,
0001
0000
0001
0000
,
1000
0000
1000
0000
,
0001
0000
0100
0000
,
0010
0000
1001
0000
,
0010
0000
1000
0000
,
0100
0100
0100
0000
,
1000
0000
0010
0000
,
0001
0001
0001
0000
,
0010
0000
0100
0000
,
0010
0000
0001
0000
,
1000
0000
0100
0000
,
0010
0000
1001
0000
,
0100
0000
0001
0000
,
0010
0010
0010
0000
,
1000
0000
0001
0000
,
2002
0000
0000
3003
,
0010
0000
0000
0000
,
0001
0000
0000
0000
,
1000
0000
0001
0000
,
0100
0000
1001
0000
,
0002
0000
0000
0003
,
2000
0000
0000
3000
,
0020
0000
0000
0030
,
0200
0000
0000
0300
,
0020
0000
0000
0030
,
2000
0000
0000
3000
,
0001
0000
0100
0000
,
1000
0000
1001
0000
,
0010
0000
0100
0000
,
0001
0001
0010
0000
,
1000
0000
0001
0000
,
2002
0000
0000
3003
,
1000
1000
0010
0000
,
0100
0100
0001
0000
,
0010
0000
0100
0000
,
1000
1000
0001
0000
,
0100
0000
1000
0000
,
0010
0000
0001
0000
,
2002
0000
0000
0000
,
0000
0000
0000
3003
,
0100
0000
0000
0000
;

//---------------dance-single - ----------------
#NOTES:
     dance-single:
     :
     Medium:
     8:
     :
0000
0000
0000
0000
,
0000
0000
0000
0000
,
0000
0000
0000
0000
,
0000
0000
0000
0000
,
0000
0000
0000
0000
,
0001
0010
1000
0000
,
1000
0100
0001
0000
,
0010
0000
0000
1000
0001
0000
0110
0000
,
0010
0001
0100
0000
1001
0000
0000
0000
,
0010
0000
0100
0000
1000
0000
0000
0010
,
0000
0100
0001
0000
,
1000
0000
0001
0000
0100
0000
0000
0010
,
0000
1000
0100
0000
,
1000
0000
0001
0100
0001
0000
1000
0000
,
0001
0000
1000
0010
1000
0000
0001
0000
,
2000
0000
0020
3030
,
0100
0001
1000
0000
1001
0000
0000
0000
,
0200
0000
0002
0303
,
0010
1000
0001
0000
0100
0000
0000
0000
,
2000
0000
0020
3030
,
0100
0001
0010
0000
1100
0000
0000
0000
,
0010
0001
0100
0000
,
1000
0100
0001
0000
,
0002
0000
0020
0033
,
0100
1000
0001
0000
0101
0000
0000
0000
,
1000
0000
0010
0000
0100
0001
0010
0000
,
1000
0000
0001
0000
0010
0100
1000
0000
,
0010
0000
0100
0000
0001
1000
0010
0000
,
0001
1000
0110
0001
,
1000
0000
0100
0000
0001
0100
0001
0000
,
0010
0000
0100
0000
0001
1000
0100
0000
,
0002
0000
0020
0033
,
1000
0001
0100
0000
2002
0000
3003
0000
,
1010
0000
0100
0000
0001
0100
0001
0000
,
0011
0000
0100
0000
1000
0100
1000
0000
,
0001
0010
1000
0110
,
0001
0000
1000
0010
0100
0000
1001
0000
,
0001
0000
1000
0000
0010
0001
0010
0000
,
1000
0000
0010
0000
0100
0001
0100
0000
,
1010
0100
0011
0100
,
1000
0001
0010
0000
2200
0000
3300
0000
,
0010
0000
0100
0000
0001
1000
0100
0000
,
0010
0000
0001
0000
1000
0010
0100
0000
,
0202
0303
2200
3300
,
2002
0000
0000
3003
,
0010
0000
1000
0001
0100
0000
0010
0000
,
0001
0000
0010
0100
1000
0000
0100
0000
,
0010
0000
1000
0010
0100
0000
0001
0000
,
1000
0001
0100
0000
1001
0000
0010
0000
,
0002
0000
0020
0003
,
0200
0030
2000
0300
,
0020
3000
0200
0030
,
0302
0013
1100
0000
,
0020
0000
2000
0030
,
0002
3000
0200
0303
,
2002
0000
0000
3003
,
0001
0000
0010
0000
0100
0000
1000
0000
0000
0011
0000
0000
,
0100
0000
1000
0001
0100
0000
1010
0000
,
0100
0000
0001
0100
0010
0000
1001
0000
,
2020
3030
0202
0303
,
2002
0000
0000
3003
,
1010
0000
0100
0000
0010
0001
0010
0000
,
1100
0000
0001
0000
1000
0010
1000
0000
,
0110
0000
0001
0000
1000
0010
1000
0000
,
1100
0001
0101
1000
,
0110
0000
0001
0010
0100
0000
1000
0000
,
0011
0000
0100
0001
0100
0000
0010
0000
,
2100
0001
0010
0001
,
0100
0010
0001
3100
,
0011
0000
0000
0000
;

//---------------dance-single - ----------------
#NOTES:
     dance-single:
     :
     Hard:
     11:
     :
0000
0000
0000
0000
,
0000
0000
0000
0000
,
0000
0000
0000
0000
,
0000
0000
0000
0000
,
0000
0000
0000
0000
,
1000
0000
0010
0100
0000
0000
0001
0000
,
1000
0000
0100
0010
0000
0000
0001
0000
,
0010
0000
0100
1000
0001
0000
1010
0000
,
0001
0100
0010
0100
0001
0000
0000
0000
,
0100
0000
1000
0000
0000
0000
0010
1000
,
0000
0001
0000
1000
0100
0000
0010
0000
,
0001
0000
0100
0000
0000
0000
0001
0010
,
0000
1000
0000
0001
1000
0000
0100
0000
,
0010
0000
0001
1000
0000
0000
0100
0000
,
0001
0000
0100
0010
0000
0000
0001
0000
,
1000
0000
0010
1000
0000
0000
0100
0000
,
0010
0000
0001
1000
0100
0000
1001
0000
,
0200
0000
0010
0000
0000
0001
0000
1000
,
0000
0000
0310
0000
0001
1000
0100
0000
,
2000
0000
0010
0000
0000
0001
0000
0100
,
0000
0000
3001
0000
0010
0100
1000
0100
,
0001
0000
1000
0100
0000
0010
1000
0001
,
0100
0000
0001
0010
0000
0100
0001
1000
,
0100
0000
0010
0001
0000
1000
0010
1000
,
0001
0000
1001
0000
1000
0100
1000
0000
,
0110
0000
0001
0010
0000
0100
0010
0001
,
1000
0000
0001
0100
0000
1000
0100
0010
,
0001
0000
1000
0010
0000
0001
1000
0010
,
0100
0000
1000
0000
0001
0100
0001
0000
,
1010
0000
1000
0010
0100
0001
0010
0000
,
1100
0000
0010
0100
1000
0001
0100
0000
,
0010
0000
0000
0000
0000
0000
0000
0000
0000
0000
1000
0000
0000
0000
0000
0000
0000
0000
0000
0000
0000
0100
0000
0000
0000
0000
0000
0000
0000
0000
0000
0000
0010
0000
0000
0000
0000
0000
0000
0000
0000
0000
0000
0001
0000
0000
0000
0000
0000
0000
0000
0000
0000
0000
0100
0000
0000
0000
0000
0000
0000
0000
0000
0000
,
1000
0100
0010
1000
0001
0000
0000
0000
,
0100
0000
1000
0010
0000
0001
0000
1000
,
0100
0000
0001
0010
0000
1000
0100
1000
,
0001
0000
1000
0010
0000
0001
0000
0010
,
0100
0000
1000
0100
0000
0010
0001
0100
,
0010
0000
0001
1000
0000
0100
0000
1000
,
0001
0000
0100
0010
0000
0001
0010
1000
,
0010
0000
0001
0100
0000
0010
1000
0000
,
0010
0000
0001
0000
0110
0000
1000
0001
,
0010
0000
1000
0100
0000
0001
0100
0010
,
0100
0000
1000
0001
0000
0001
0010
0100
,
2100
3010
0102
1003
,
0021
0000
0130
1000
0000
1000
0100
1000
,
0010
0000
0001
1000
0000
0001
0100
0000
,
1010
0000
1000
0100
0000
0010
0100
1000
,
0001
0000
0100
1000
0000
0010
0100
0010
,
1000
0000
1000
0100
0001
0100
0010
0001
,
2000
0000
0000
0002
3000
0000
0103
0000
,
0020
0100
2000
3030
,
0200
0000
0000
2000
0300
0000
3001
0000
,
0020
0001
0200
0330
,
0002
0000
0000
2000
0003
0000
3010
0000
,
0200
1000
0002
0303
,
1000
0000
0100
0000
0001
0000
0100
0000
1000
0000
0001
0000
,
1000
0000
0010
0000
0100
0000
2002
0000
0000
3003
0000
0000
,
0011
0000
0001
0010
0100
1000
0001
0000
,
0110
0000
1000
0100
0010
0100
1000
0000
,
1020
0130
0012
1003
,
0210
0000
0301
0010
0100
0001
0100
1000
,
0010
0000
0001
0200
0000
0301
1000
0100
,
0010
0000
1000
0200
0000
0310
0001
0010
,
0100
0000
0001
2000
0000
3001
0010
0100
,
1000
0000
0001
0200
0000
0310
1000
0001
,
0100
0000
0010
0100
0001
0100
1000
0100
,
0001
0000
0010
1000
0100
0010
0001
1000
,
0001
0000
0100
0010
0001
1000
0100
0010
,
1000
0010
0100
0010
0001
1000
0010
1000
,
0001
0000
0000
0000
;

//---------------dance-single - ----------------
#NOTES:
     dance-single:
     :
     Challenge:
     13:
     :
0000
0000
0000
0000
,
0000
0000
0000
0000
,
0000
0000
0000
0000
,
0000
0000
0000
0000
,
0000
0000
0000
0000
,
0001
0010
1000
0010
0100
0010
1000
0010
,
0100
0000
0010
0000
1000
0000
0010
0000
0001
0000
0100
1000
0100
0000
0001
0000
,
1000
1000
0010
0010
0100
0100
0001
0001
,
0010
0001
1000
0100
1001
0000
0110
0000
,
2010
0000
3010
0000
0001
0100
1000
0100
,
0001
0010
0100
1000
0010
0100
0001
0000
,
0012
0000
1003
0000
0010
1000
0100
0001
,
0100
0010
0100
0001
0100
1000
0010
0000
,
1000
0100
0010
0001
0010
0100
1000
0000
,
0001
0100
0010
1000
0010
0100
0001
0000
,
0010
0001
0010
0100
1000
0001
0100
0000
,
0010
1000
0100
0000
1000
0010
0001
0000
,
0201
0000
0310
0000
1000
0001
1000
0100
,
0001
0100
0010
0100
0001
0100
1000
0010
,
2100
0000
3010
0100
0001
0010
0001
1000
,
0100
0001
0100
0010
0001
1000
0100
0000
,
0110
0001
0100
0010
1000
0100
0001
0000
,
0011
0100
0001
0010
1000
0010
0001
0000
,
1100
0010
1000
0100
1000
0010
0100
0000
,
0001
1010
0000
0001
0100
0010
1000
0010
,
0100
0001
0010
0100
2000
0000
3001
1000
,
0010
0001
0010
1000
0200
0000
0310
0100
,
1000
0010
1000
0001
0010
0100
1000
0010
,
1000
0100
0001
0000
0101
0010
1000
0000
,
1001
0000
0100
0000
0010
0000
1000
0000
0100
0000
0001
0000
0100
0000
1000
0010
,
1000
0100
0010
0001
1000
0001
0100
0000
,
0002
0000
0023
0000
2030
0000
3002
0000
0203
0000
2300
0000
,
3010
0000
0001
0000
0010
0000
0100
0000
1000
0001
1000
0001
1000
0001
1000
0000
,
0010
1000
0100
0001
0010
0001
1000
0000
,
1010
0000
0100
0000
0001
0000
0000
0000
0011
0000
0010
0000
1000
0000
0100
0010
,
0100
1000
0010
1000
0100
0010
0001
0000
,
1000
0000
0001
0000
0100
0000
0010
0000
1000
0000
0100
0000
1000
0000
0001
0010
,
0001
0100
0010
0001
0010
1000
0100
0000
,
1000
0010
0001
0010
1000
0000
0100
0010
,
0001
0100
0001
0010
1000
0100
0001
0000
,
0020
0001
0031
0100
0020
1000
1030
0100
,
1000
0010
0001
0100
0010
1000
0001
0000
,
0101
0001
0010
0000
1100
1000
0100
0000
,
0110
0001
0100
1000
0010
0100
0001
0000
,
1001
0000
0010
0000
1000
0000
0100
0000
0001
0000
0100
0000
0010
0000
0001
1000
,
0001
0100
0010
1000
0100
0010
0001
0000
,
1100
0001
1000
0000
0011
0100
0010
0000
,
0001
0100
0010
0100
0001
0010
0100
0010
,
0001
0100
1000
0100
0010
0100
1000
0100
,
0002
0000
0013
0001
0010
0100
1000
0000
,
0010
1000
0100
0010
0002
0000
0003
0000
,
2000
0000
3010
1000
0001
1000
0100
0000
,
0010
0001
0010
0100
2000
0000
3001
0000
,
1001
0000
0010
1000
0100
0000
0010
0001
,
0100
0000
0010
0000
0110
0000
0001
1000
,
0020
0000
2030
0000
3200
0000
0320
0000
0032
0000
0203
0000
,
0301
0000
1000
0000
0001
0000
0101
0000
0000
1010
0000
0000
,
1001
0010
1000
0100
0010
0001
1000
0000
,
0101
0010
0001
0100
1000
0010
0001
0000
,
0100
0010
1000
0100
0001
0010
0001
1000
,
0100
0001
0100
0010
0100
1000
0001
0000
,
1100
0010
1000
0100
1000
0001
0010
0000
,
1010
0100
0010
0001
0100
0000
0001
1000
,
0010
1000
0100
1000
0001
0010
0100
0000
,
0011
1000
0010
1000
0100
0010
0001
1000
,
0010
0001
0010
1000
0100
0010
0001
0000
,
0110
0001
1000
0000
0010
1000
0001
0000
,
0010
0001
0010
1000
0010
0100
0010
1000
,
0010
0001
0010
1000
0010
0100
1000
0010
,
0000
0001
0000
0100
0000
0001
0000
0100
0000
0001
0000
0000
0000
0000
0000
0000
0000
0000
0000
0000
0000
0000
0000
0000
0000
0000
0000
0000
0000
0000
0000
0000
;

//---------------dance-double - ----------------
#NOTES:
     dance-double:
     :
     Easy:
     4:
     :
00000000
00000000
00000000
00000000
,
00000000
00000000
00000000
00000000
,
00000000
00000000
00000000
00000000
,
00000000
00000000
00000000
00000000
,
00000000
00000000
00000000
00000000
,
00000010
00000000
00000000
00000000
,
00000100
00000000
00000000
00000000
,
00001000
00000000
00010000
00000000
,
00001000
00000000
00011000
00000000
,
00100000
00000000
00000000
00000000
,
01000000
00000000
00000000
00000000
,
10000000
00000000
00000000
00000000
,
00010000
00000000
00000000
00000000
,
00001000
00000000
00001000
00000000
,
00000010
00000000
00000010
00000000
,
00000100
00000000
00000100
00000000
,
00000001
00000000
00001001
00000000
,
00000020
00000000
00000000
00000030
,
00000100
00000100
00000100
00000000
,
00002000
00000000
00000000
00003000
,
00010000
00010000
00010000
00000000
,
00100000
00000000
00100000
00000000
,
10000000
00000000
10000000
00000000
,
01000000
00000000
01000000
00000000
,
10010000
00000000
00000000
00000000
,
00100000
00100000
00100000
00000000
,
00010000
00010000
00010000
00000000
,
00001000
00001000
00001000
00000000
,
00000100
00000100
00000100
00000000
,
00001000
00000000
00000010
00000000
,
00000100
00000000
00000001
00000000
,
00001000
00000000
00000100
00000000
,
00001000
00000000
00022000
00033000
,
00100000
00000000
00010000
00000000
,
01000000
01000000
01000000
00000000
,
00100000
00000000
10000000
00000000
,
00010000
00010000
00010000
00000000
,
00001000
00000000
00000010
00000000
,
00000100
00000000
00001000
00000000
,
00010000
00000000
01000000
00000000
,
10000000
00000000
10010000
00000000
,
01000000
00000000
00010000
00000000
,
00001000
00001000
00001000
00000000
,
00000010
00000000
00000100
00000000
,
00002002
00000000
00000000
00003003
,
00000100
00000000
00000000
00000000
,
00000001
00000000
00000000
00000000
,
00000010
00000000
00001000
00000000
,
00022000
00000000
00000000
00033000
,
00020000
00000000
00000000
00030000
,
00200000
00000000
00000000
00300000
,
20000000
00000000
00000000
30000000
,
02000000
00000000
03100000
00000000
,
00020000
00000000
00000000
00030000
,
02000000
00000000
00000000
03000000
,
10000000
00000000
01000000
00000000
,
00010000
00000000
00011000
00000000
,
00100000
00000000
01000000
00000000
,
00010000
00010000
00001000
00000000
,
00000010
00000000
00000001
00000000
,
00002002
00000000
00000000
00003003
,
00000010
00000000
00000100
00000000
,
00001000
00001000
00010000
00000000
,
00100000
00000000
00010000
00000000
,
10000000
10000000
01000000
00000000
,
01000000
00000000
10000000
00000000
,
00100000
00000000
00010000
00000000
,
00022000
00000000
00000000
00000000
,
00000000
00000000
00000000
00033000
,
00000010
00000000
00000000
00000000
;

//---------------dance-double - ----------------
#NOTES:
     dance-double:
     :
     Medium:
     8:
     :
00000000
00000000
00000000
00000000
,
00000000
00000000
00000000
00000000
,
00000000
00000000
00000000
00000000
,
00000000
00000000
00000000
00000000
,
00000000
00000000
00000000
00000000
,
00100000
10000000
01000000
00000000
,
00100000
00010000
01000000
00000000
,
00001000
00000000
00000000
00010000
00000100
00000000
00001001
00000000
,
00000010
00000001
00001100
00000000
,
00000001
00000000
00001000
00000000
00000010
00000000
00000000
00000100
,
00000000
00001000
00010000
00000000
,
00100000
00000000
10000000
00000000
01000000
00000000
00000000
00100000
,
00000000
10000000
01000000
00000000
,
00100000
00000000
00010000
01000000
00010000
00000000
00000000
00000000
,
00100000
00000000
00001000
00010000
00001000
00000000
00000000
00000000
,
00000010
00000001
00000100
00001000
,
00010000
01000000
10010000
00000000
,
02000000
10000000
00100000
03010000
,
00001000
00000100
00000001
00000000
,
00000020
00000000
00000200
00000330
,
00001000
00000001
00000100
00000000
00001010
00000000
00000000
00000000
,
00001000
00010000
00100000
00010000
,
00001000
00010000
01000000
10000000
,
00020000
00000000
00200000
00330000
,
01000000
10000000
00010000
00000000
01010000
00000000
00000000
00000000
,
10000000
00000000
00010000
00100000
01000000
00000000
00000000
00000000
,
00010000
00000000
00001000
00010000
00000010
00000000
00000000
00000000
,
00002000
00000000
00000002
00003003
,
00000010
00000000
00001100
00000000
00000010
00000100
00000001
00000000
,
00000010
00000000
00000100
00000000
00001000
00010000
00001000
00000000
,
00010000
00000000
00100000
00000000
01000000
10000000
01000000
00000000
,
20200000
30300000
02020000
03030000
,
00100000
00010000
01000000
00000000
00011000
00000000
00000000
00000000
,
00000010
00000000
00001000
00000000
00000001
00000100
00000001
00000000
,
00001000
00000001
00000010
00000000
00001100
00000000
00000000
00000000
,
00000010
00011000
00100000
00011000
,
00000100
00000000
00010000
00000000
00001000
00010000
01000000
00000000
,
10000000
00000000
00010000
00000000
00100000
01000000
10000000
00000000
,
00100000
01000000
00010000
00000000
11000000
00000000
00000000
00000000
,
00100000
00010000
00001000
00000100
,
00000010
00000001
00000100
00000000
00002002
00000000
00003003
00000000
,
00000100
00000000
00000010
00000000
00001000
00000001
00000100
00000000
,
00001000
00000001
00000010
00000000
00001100
00000000
00010000
00000000
,
00022000
00033000
00220000
00330000
,
22000000
00000000
00000000
33000000
,
00100000
00000000
10000000
00010000
01000000
00000000
00100000
00000000
,
00010000
00000000
00100000
01000000
10000000
00000000
01000000
00000000
,
00100000
00000000
00010000
01000000
00001000
00000000
00010000
00000000
,
00000100
00001000
00000001
00000000
00001001
00000000
00000000
00000000
,
00000020
00000000
00000002
00000033
,
00000200
00000000
00002000
00003300
,
00020000
00000000
00200000
00330000
,
20000000
31000000
01010000
00000000
,
00200000
00000000
20000000
30300000
,
02000000
00000000
00020000
03030000
,
00022000
00000000
00000000
00033000
,
00001000
00000000
00000010
00000000
00000001
00000000
00000100
00000000
00000000
00000000
00000000
00000000
,
00000001
00000000
00000010
00000000
00000100
00001000
00000100
00000000
,
00001000
00000010
00000100
00000000
00001000
00000000
00010000
00000000
,
02020000
03030000
22000000
33000000
,
20020000
00000000
00000000
30030000
,
10000000
00000000
01000000
00000000
00100000
00010000
01000000
00000000
,
00010000
00000000
00100000
00000000
10000000
00100000
01000000
00000000
,
00010000
00000000
00100000
00000000
00010000
00001000
00000010
00000000
,
00001100
00000001
00000010
00001001
,
00000100
00000000
00000001
00000000
00000010
00000100
00001000
00000000
,
00010000
00000000
00100000
00000000
01000000
10000000
00010000
00000000
,
20000000
00100000
01000000
30010000
,
00002000
00000010
00010000
00003010
,
00011000
00000000
00000000
00000000
;

//---------------dance-double - ----------------
#NOTES:
     dance-double:
     :
     Hard:
     11:
     :
00000000
00000000
00000000
00000000
,
00000000
00000000
00000000
00000000
,
00000000
00000000
00000000
00000000
,
00000000
00000000
00000000
00000000
,
00000000
00000000
00000000
00000000
,
10000000
00000000
00100000
01000000
00000000
00000000
00010000
00000000
,
00001000
00000000
00000100
00000010
00000000
00000000
00000001
00000000
,
00000010
00000000
00000100
00001000
00000010
00000000
00000101
00000000
,
00001000
00000010
00010000
00001000
00100000
00000000
00000000
00000000
,
01000000
00000000
10000000
00000000
00000000
00000000
00100000
10000000
,
00000000
00010000
00000000
01000000
00010000
00000000
00001000
00000000
,
00000010
00000000
00000001
00000000
00000000
00000000
00000100
00001000
,
00000000
00000100
00000000
00000001
00000010
00000000
00001000
00000000
,
00010000
00000000
00100000
01000000
00000000
00000000
00010000
00000000
,
10000000
00000000
01000000
00100000
00000000
00000000
00010000
00000000
,
10000000
00000000
00100000
10000000
00000000
00000000
01000000
00000000
,
00100000
00000000
00010000
00001000
00000100
00000000
00000101
00000000
,
00000020
00000000
00000001
00000000
00000000
00000100
00000000
00001000
,
00000000
00000000
00000130
00000000
00001000
00010000
00100000
00000000
,
02000000
00000000
10000000
00000000
00000000
00100000
00000000
00010000
,
00000000
00000000
13000000
00000000
00100000
00010000
01000000
00001000
,
00010000
00000000
00001000
00000100
00000000
00000010
00000100
00000001
,
00001000
00000000
00000010
00000001
00000000
00000100
00001000
00000001
,
00000100
00000000
00001000
00010000
00000000
00100000
10000000
00100000
,
01000000
00000000
10010000
00000000
00010000
01000000
10000000
00000000
,
01100000
00000000
10000000
01000000
00000000
00100000
00010000
00001000
,
00000100
00000000
00000010
00000100
00000000
00001000
00000100
00000010
,
00000001
00000000
00000100
00000001
00000000
00001000
00000001
00000010
,
00000100
00001100
00011000
00110000
,
10100000
00000000
10000000
00100000
00010000
00001000
00010000
00000000
,
01001000
00000000
00100000
00001000
00010000
01000000
10000000
00000000
,
00100000
00000000
00000000
00000000
00000000
00000000
00000000
00000000
00000000
00000000
10000000
00000000
00000000
00000000
00000000
00000000
00000000
00000000
00000000
00000000
00000000
01000000
00000000
00000000
00000000
00000000
00000000
00000000
00000000
00000000
00000000
00000000
00010000
00000000
00000000
00000000
00000000
00000000
00000000
00000000
00000000
00000000
00000000
00001000
00000000
00000000
00000000
00000000
00000000
00000000
00000000
00000000
00000000
00000000
00000100
00000000
00000000
00000000
00000000
00000000
00000000
00000000
00000000
00000000
,
00000001
00000010
00000100
00001000
00000001
00000000
00001010
00000000
,
00010000
00000000
00001000
00000010
00000000
00000001
00000000
00001000
,
00000100
00000000
00010000
00001000
00000000
00100000
00001000
01000000
,
00010000
00000000
10000000
00100000
00000000
01000000
00000000
00010000
,
00100000
00000000
10000000
01000000
00000000
00100000
00010000
00001000
,
00000010
00000000
00001000
00000001
00000000
00000100
00000000
00000001
,
00001000
00000000
00000010
00010000
00000000
00000100
00010000
00001000
,
00100000
00000000
00001000
00010000
00000000
01000000
10000000
00000000
,
00100000
00000000
01010000
00000000
00001000
00000000
00010000
00100000
,
10000000
00000000
00010000
01000000
00000000
00010000
00001000
00000010
,
00000001
00000000
00000010
00000100
00000000
00001000
00000001
00000100
,
00000021
00000130
00002001
00003010
,
00021000
00000000
01030000
10000000
00000000
00010000
00100000
00010000
,
01000000
00000000
00001000
00010000
00000000
00001000
00000100
00000001
,
00000010
00000000
00001000
00010000
00000000
00100000
00001000
01000000
,
00010000
00000000
10000000
01000000
00100000
00000000
10000000
00100000
,
01000000
00000000
10000000
01000000
00010000
00001000
00000010
00000001
,
00002000
00000000
00000000
00000200
00003000
00000000
00000310
00000000
,
00000002
00000100
00002000
00003003
,
00020000
00000000
00000000
00200000
00030000
00000000
01300000
00000000
,
20000000
00100000
02000000
33000000
,
00020000
00000000
00000000
00200000
00030000
00000000
00301000
00000000
,
00000200
00000010
00000002
00000303
,
00001000
00000000
00000010
00000000
00010000
00000000
00000100
00000000
00010000
00000000
00001000
00000000
,
00010000
00000000
00100000
00000000
10000000
00000000
01000000
00000000
00000000
10010000
00000000
00000000
,
00110000
00000000
01000000
10000000
00100000
00010000
00001000
00000000
,
00001010
00000000
00000001
00000010
00000100
00001000
00000010
00000000
,
00012000
00103000
00021000
00030010
,
00002100
00000000
00003001
00000100
00001000
00010000
00100000
10000000
,
01000000
00000000
00010000
02000000
00000000
03010000
00100000
01000000
,
10000000
00000000
00100000
20000000
00000000
31000000
00010000
00001000
,
00000010
00000000
00000001
00000200
00000000
00000310
00001000
00000100
,
00001000
00000101
00000010
00001100
,
00000001
00000000
00000010
00001000
00010000
01000000
10000000
01000000
,
00100000
00000000
00010000
10000000
01000000
00100000
00001000
00010000
,
00000010
00000000
00000100
00000001
00000010
00000000
00001000
00010000
,
00100000
00000000
10000000
01000000
00100000
00010000
00001000
00000100
,
00000001
00000000
00000000
00000000
;
