#TITLE:Mr. Vain;
#ARTIST:Culture Beat;
#BANNER:Mr. Vain-bn.png;
#BACKGROUND:Mr. Vain-bg.png;
#JACKET:Mr. Vain-jacket.png;
#MUSIC:Mr. Vain.ogg;
#SAMPLESTART:14.45;
#SAMPLELENGTH:20;
#BPMS:0=132.87;
#BGCHANGES:;

//---------------dance-single - ----------------
#NOTES:
     dance-single:
     :
     Beginner:
     4:
     :
0000
0000
0000
0000
,
0000
0000
0000
0000
,
0000
0000
0000
0000
,
0000
0000
0000
0000
,
0001
0000
0001
0000
,
1000
0000
1000
0000
,
0010
0000
0100
0000
,
0110
0000
1001
0000
,
0001
0001
0001
0000
,
1000
1000
1000
0000
,
0010
0010
0010
0000
,
0000
0000
0000
0000
,
1000
1000
1000
0000
,
0001
0001
0001
0000
,
0100
0100
0100
0000
,
0010
0000
0000
0000
,
1000
1000
1000
0000
,
0100
0100
0100
0000
,
0010
0010
0010
0000
,
0001
0001
0001
0000
,
1000
1000
1000
0000
,
0010
0010
0010
0000
,
0100
0100
0100
0000
,
0001
0001
0001
0000
,
0010
0000
0001
0000
,
0100
0000
1000
1000
,
1000
0000
0010
0000
,
0100
0000
0001
0001
,
0001
0000
0010
0000
,
0100
0000
1000
1000
,
1000
0000
0001
0000
,
0100
0000
0010
0010
,
0010
0000
1000
0000
,
0010
0000
1000
0000
,
0001
0000
0100
0000
,
0001
0000
0100
0000
,
0001
0000
0010
0000
,
0001
0000
0010
0000
,
0100
0000
1000
0000
,
0100
0000
1000
0000
,
0010
0010
0010
0000
,
1000
1000
1000
0000
,
0100
0100
0100
0000
,
0000
0000
0000
0000
,
0010
0010
0010
0000
,
0001
0001
0001
0000
,
0100
0100
0100
0000
,
0010
0000
0000
0000
,
1000
1000
1000
0000
,
0010
0010
0010
0000
,
0100
0100
0100
0000
,
0001
0001
0001
0000
,
1000
1000
1000
0000
,
0100
0100
0100
0000
,
0010
0010
0010
0000
,
0001
0001
0001
0000
,
0100
0000
0100
0000
,
0010
0000
1000
0000
,
0100
0000
0010
0000
,
0001
0000
0001
0000
,
1000
0000
0001
0000
,
1000
0000
0010
0000
,
0100
0000
0001
0000
,
0100
0000
0100
0000
,
1001
0000
0000
0000
;

//---------------dance-single - ----------------
#NOTES:
     dance-single:
     :
     Easy:
     7:
     :
0000
0000
0000
0000
,
0000
0000
0000
0000
,
0000
0000
0000
0000
,
0000
0000
0000
0000
,
0001
0001
0001
0001
,
1000
1000
1000
1000
,
0001
0001
1000
1000
,
0110
1001
0220
0330
,
0001
0100
1000
0010
,
0100
0001
2000
3000
,
0010
0100
2002
3003
,
1000
0100
1000
0001
,
0010
0100
1000
0001
,
0100
0010
0200
0300
,
0001
0010
0022
0033
,
1000
0100
1000
1100
,
0001
0001
1000
1000
,
0010
1000
0200
0300
,
1100
0101
1100
0000
,
0001
1000
0220
0330
,
0010
0010
0100
0100
,
1000
0001
0020
0030
,
0011
1010
0011
0000
,
0100
0010
2002
3003
,
0010
0010
1000
1000
,
0001
0100
0101
0101
,
0010
1000
0100
0010
,
0001
0100
1010
1010
,
0010
1000
0100
0001
,
0202
0300
1003
1001
,
0010
1000
0100
0010
,
0001
0100
0110
1001
,
0010
0100
0010
0100
,
0001
0010
1000
0010
,
0001
0100
1000
0100
,
0001
0010
0100
1000
,
0010
0010
1000
1000
,
0001
0001
0100
0100
,
0001
0010
0100
1000
,
0010
0100
0001
1000
,
0100
0100
1000
0001
,
0010
0100
2000
3000
,
0010
0100
2020
3030
,
0100
1000
0001
0100
,
0001
0010
0001
0100
,
1000
0010
2000
3000
,
0100
0010
0022
0033
,
1000
0100
1000
1100
,
0001
0001
0100
0100
,
0010
1000
0002
0003
,
0011
1010
0011
0000
,
0100
0010
0220
0330
,
1000
1000
0100
0100
,
1000
0001
0020
0030
,
0101
1100
0101
0000
,
0010
1000
2002
3003
,
0010
0010
1000
1000
,
0100
0010
0002
0003
,
0011
0011
0011
0000
,
0100
0001
2002
3003
,
0010
0010
0001
0001
,
0100
0010
2000
3000
,
1100
1100
1100
0000
,
0001
0100
0220
0330
,
2002
0000
0000
0000
,
0000
0000
0000
3003
;

//---------------dance-single - ----------------
#NOTES:
     dance-single:
     :
     Medium:
     10:
     :
0000
0000
0000
0000
,
0000
0000
0000
0000
,
0000
0000
0000
0000
,
0000
0000
0000
0000
,
0001
0000
0010
0001
0100
0000
0010
1000
,
0100
0000
0010
0001
1000
0001
0010
0100
,
1000
0000
0010
1000
0100
0000
1000
0001
,
0200
0310
0202
0303
,
1000
0100
0001
0100
1000
0010
0000
0110
,
0000
0001
1000
0001
0200
0000
0300
0000
,
0010
1000
0100
0010
0002
0000
0103
0000
,
0002
0000
0013
0000
0001
1000
0010
0100
,
0001
0010
1000
0010
0001
0100
0000
0110
,
0000
1000
0001
1000
0200
0000
0300
0000
,
0010
0001
1000
0000
2010
0000
3001
0000
,
2100
0000
3010
0000
0100
0101
0101
0000
,
0011
0000
1100
0000
0001
0100
0010
1000
,
0200
0000
0310
0001
2000
0000
3000
0000
,
1100
0000
1010
0000
1001
0000
0000
0010
,
1000
0001
0100
0010
2000
0000
3000
0000
,
1010
0000
0101
0000
0010
0100
0001
1000
,
0200
0000
1300
0001
0020
0000
0030
0000
,
0011
0000
0101
0000
1001
0000
0000
0010
,
1000
0001
0010
0100
2000
0000
3000
0000
,
0001
0010
0001
0100
0001
0010
0001
0100
,
0010
1000
0000
0100
1000
1000
1000
0000
,
0010
0000
0000
1000
0000
0000
0001
0000
0000
0000
0010
0000
0100
0000
1000
0000
,
0001
0000
0000
0001
0000
0000
1000
0000
0100
0000
1000
0000
0100
0000
0000
0000
,
0010
0001
1000
0001
0010
0001
1000
0001
,
0101
0000
0000
0001
0010
0010
0010
0000
,
0001
0000
0000
1000
0000
0000
0010
0000
0000
1000
0000
0000
0100
0000
0010
0000
,
0001
0100
0000
0010
1000
0001
0100
0000
,
0001
0011
1000
1010
,
0001
0100
0001
0000
0010
0100
0010
0000
,
0001
1000
0001
0000
0100
0010
0100
0000
,
0001
0010
0100
0000
1000
0010
1000
0000
,
0100
0010
0001
0000
1000
0001
0100
0000
,
0010
1000
0100
0000
1000
0010
0001
0000
,
1000
0100
0010
0000
0100
1000
0001
0000
,
0100
0010
1000
0001
0010
0100
1000
0000
,
0001
0100
0010
0100
0001
1000
0000
1010
,
0000
0100
1000
0001
0200
0000
0300
0000
,
0010
1000
0100
0010
0002
0000
0103
0000
,
0002
0000
0013
0000
0001
0010
0100
1000
,
0010
0100
0010
1000
0001
1000
0000
0101
,
0000
0001
0010
0001
2000
0000
3000
0000
,
0100
0010
0001
0000
0012
0000
1003
0000
,
0102
0000
1003
0000
0010
0110
0110
0000
,
1010
0000
1100
0000
1000
0001
0010
0100
,
2000
0000
3001
0010
0200
0000
0300
0000
,
1100
0000
1010
0000
1001
0000
0000
0010
,
1000
0100
0001
0100
2000
0000
3000
0000
,
0011
0000
0101
0000
0010
0001
1000
0100
,
0020
0000
0031
1000
0200
0000
0300
0000
,
1001
0000
0101
0000
0011
0000
0000
0100
,
0010
1000
0001
1000
0020
0000
0030
0000
,
1000
0000
1000
0000
0100
0010
0001
0000
,
0200
0000
0301
1000
0020
0000
0030
0000
,
1100
0000
0110
0000
0011
0000
0000
0010
,
0001
0100
0001
1000
0200
0000
0300
0000
,
0010
0000
0010
0000
0001
1000
0100
0000
,
2000
0000
3001
0100
0020
0000
0030
0000
,
1010
0000
0011
0000
1010
0000
0000
0001
,
1000
0010
1000
0001
0200
0000
0300
0000
,
2002
0000
0000
0000
,
0000
0000
0000
3003
;

//---------------dance-single - ----------------
#NOTES:
     dance-single:
     :
     Hard:
     13:
     :
0000
0000
0000
0000
,
0000
0000
0000
0000
,
0000
0000
0000
0000
,
0000
0000
0000
0000
,
0001
0000
0000
0010
0100
0000
1000
0000
0010
0000
0000
0100
0001
0000
1000
0000
,
0100
0000
0000
0010
0001
0000
1000
0000
0010
0100
0010
0000
1000
0000
0001
0000
,
0100
0000
0000
0001
0010
0000
0100
0000
1000
0000
0000
0010
1000
0000
0001
0000
,
0011
1100
0202
0303
,
0010
1000
0100
0001
0100
0010
0001
2000
,
0000
0100
3100
1000
0002
0100
0103
0000
,
0010
1000
0100
0010
1001
0000
0100
0010
,
1010
0000
0000
1000
0100
0000
0010
0000
0001
1000
0001
0000
0100
0000
0010
0000
,
1000
0100
0001
0100
0010
0001
1000
0020
,
0000
1000
1030
0001
0020
0100
0130
0000
,
1000
0010
0100
1000
0100
0001
0010
0100
,
0110
0000
0000
0010
0001
0000
1000
0000
0010
0100
0010
0000
1000
0000
0000
0000
,
1100
0000
0000
0000
0101
0000
0000
0000
1000
0010
0000
0010
0100
0000
0001
0000
,
0020
0000
0000
0000
0031
0000
0100
0000
0001
1000
0001
0000
0100
0000
0010
0000
,
1010
0000
0000
0000
1100
0000
0000
0000
0101
0000
0000
0001
1000
0000
0100
0000
,
0001
0100
0010
0100
2000
0001
3001
0000
,
0011
0000
0000
0000
1010
0000
0000
0000
0001
1000
0000
1000
0010
0000
0100
0000
,
0002
0000
0000
0000
0013
0000
0100
0000
1000
0010
1000
0000
0001
0000
0100
0000
,
0101
0000
0000
0000
1010
0000
0000
0000
0011
0000
0000
0010
0100
0000
1000
0000
,
0100
0001
0100
1000
2002
0000
3003
0000
,
0010
0000
1000
0100
0000
1000
0100
0000
0010
0001
0000
0000
0100
0000
0010
1000
,
0000
0000
1100
0000
0000
0000
0001
1000
0001
0000
0001
0000
1001
0000
0000
0000
,
0010
0000
1000
0001
0000
1000
0001
0000
0000
0000
0100
0010
0000
0010
1000
0000
,
0002
0000
0000
1003
0000
0000
0010
0000
0110
0000
0110
0000
0110
0000
0000
0000
,
0001
0000
1000
0010
0000
1000
0010
0000
0100
0001
0000
0001
0010
0000
0100
0000
,
1100
0000
0000
0001
1000
0000
0001
0000
0101
0000
0101
0000
0101
0000
0000
0000
,
0010
0000
1000
0001
0000
0000
0010
0000
0100
1000
0000
0000
0001
0000
1000
0010
,
0000
1000
0010
0000
0000
0000
1000
0100
1000
0000
1001
0000
1001
0000
0000
0000
,
0010
1000
0100
1000
0010
1000
0100
1000
,
0100
0001
0100
0010
0100
1000
0100
0001
,
0100
0010
0100
0001
0100
0010
0100
1000
,
0100
0001
0100
0010
0100
0001
0100
1000
,
0010
0100
0010
0001
0010
1000
0010
0001
,
0010
0100
0010
1000
0010
0001
0010
0100
,
0010
0001
0010
1000
0010
0100
0010
0001
,
0010
0000
1000
0000
0100
0000
0010
0000
0001
0000
1000
0010
0000
0100
0001
0000
,
0010
1000
0010
0001
0100
0010
1000
0002
,
0000
0100
0103
0010
2000
0001
3001
0000
,
0010
0001
0100
0010
1010
0000
0001
0100
,
0101
0000
0000
0010
1000
0000
0100
0000
1000
0000
0000
0001
0100
0000
0010
0000
,
1000
0100
0001
0100
0010
0001
1000
0020
,
0000
0100
0130
0001
0020
0001
0031
0000
,
0100
0010
1000
0010
0001
0010
1000
0100
,
0010
0001
0010
0001
0010
0000
0100
0000
1000
0000
1100
0000
1100
0000
0000
0000
,
1010
0000
0000
0000
0011
0000
0000
0000
0010
0001
0000
0001
1000
0000
0010
0000
,
0200
0000
0000
0000
1300
0000
0100
0000
0001
0010
0001
0000
1000
0000
0010
0000
,
0110
0000
0000
0000
1001
0000
0000
0000
0011
0000
0000
0001
1000
0000
0010
0000
,
0100
0000
1000
0000
0100
0000
0001
0000
0010
0100
0010
0000
0001
0000
1000
0000
,
1100
0000
0000
0000
0101
0000
0000
0000
0010
0100
0000
0100
0001
0000
1000
0000
,
0200
0000
0000
0000
0310
0000
0100
0000
1000
0001
1000
0000
0010
0000
0100
0000
,
0101
0000
0000
0000
1001
0000
0000
0000
1010
0000
0000
0010
1000
0000
0001
0000
,
0010
0100
0010
0001
2000
0100
3100
0000
,
1010
0000
0000
0000
0011
0000
0000
0000
1000
0001
0000
0001
0000
0000
0100
0000
,
0020
0000
1030
0001
0200
0000
0300
0000
,
0101
0000
0011
0000
2200
0000
3300
0001
,
1000
0010
0100
0001
2002
0000
3003
0000
,
0101
0000
0000
0000
1100
0000
0000
0000
0010
0100
0000
0100
0000
0000
0001
0000
,
2000
0000
3010
0100
0002
0000
0003
0000
,
0011
0000
1100
0000
0220
0000
0330
0001
,
1000
0010
1000
0100
0020
0000
0031
0100
,
2002
0000
0000
0000
,
0000
0000
0000
3003
;

//---------------dance-single - ----------------
#NOTES:
     dance-single:
     :
     Challenge:
     14:
     :
0000
0000
0000
0000
,
0000
0000
0000
0000
,
0000
0000
0000
0000
,
0000
0000
0000
0000
,
0001
0000
1000
0000
0100
0000
0010
0001
0000
0010
0001
0000
0100
0000
0010
0000
,
1000
0000
0001
0000
0100
0000
0010
1000
0000
0010
1000
0000
0100
0000
0010
0000
,
0001
0000
0100
0000
0010
0000
1000
0100
0000
1000
0100
0000
0010
0000
0001
0000
,
0011
1100
0202
0303
,
0010
0000
1000
0000
0100
0000
0010
0000
0001
1000
0001
0000
0100
0000
0010
0000
,
1000
0100
0001
0100
2000
0010
3010
0000
,
0100
0000
0001
0000
0010
0000
0100
0000
1000
0010
1000
0000
0100
0000
0010
0000
,
0001
0000
0100
0000
1000
0000
0100
0010
0000
0100
0010
0000
1000
0000
0001
0000
,
0010
0000
0100
0000
1000
0000
0010
0000
0100
0001
0100
0000
0010
0000
1000
0000
,
0100
0001
0100
1000
0020
0100
0130
0000
,
0001
0000
0010
0000
0100
0000
0010
0000
0001
1000
0001
0000
0100
0000
0010
0000
,
1000
0000
0100
0000
1000
0000
0010
0100
0000
0100
0001
0000
1000
0000
0001
0000
,
0010
0000
0001
0000
0100
0000
0010
0000
1000
0100
0000
1000
0001
0000
0100
0000
,
0010
1000
0100
0010
0002
1000
1003
0000
,
0010
1000
0100
0001
0100
0010
0001
1000
,
0010
0100
0001
1000
0200
0010
0310
0000
,
0001
0000
0100
0000
0001
0000
0010
0000
0100
1000
0000
0001
1000
0000
0010
0000
,
0100
1000
0100
0001
2000
0010
3010
0000
,
0100
0010
0100
0001
0010
0100
1000
0001
,
0100
0010
1000
0001
2002
0000
3003
0000
,
0110
0000
0100
1000
0000
1000
0001
0000
0001
0100
0000
0100
0010
0000
0010
1000
,
0000
1000
0001
0000
0000
0000
1000
0100
0010
0000
0011
0000
0011
0000
0000
0000
,
1001
0000
0010
1000
0000
1000
0100
0000
0000
0000
1000
0010
0000
0100
0001
0000
,
0011
0000
0000
1010
0000
0000
0101
0000
1100
0000
1100
0000
1100
0000
0000
0000
,
0110
0000
0010
0001
0000
0001
1000
0000
1000
0010
0000
0010
0100
0000
0001
0000
,
0011
0000
0000
0100
1000
0000
1010
0000
0101
0000
0101
0000
0101
0000
0000
0000
,
1001
0000
0001
0010
0000
0010
0100
0000
0100
1000
0000
1000
0001
0000
0001
0100
,
0000
0100
0010
0000
0000
0000
1000
0100
1000
0100
0010
0000
0001
1000
0001
1000
,
0010
0000
1000
0001
0000
0001
0010
0000
0010
0100
0000
0100
1000
0000
1000
0010
,
0000
0000
0110
0000
1001
0000
0001
0010
0100
0000
1000
0010
0000
1000
0001
0000
,
0010
0000
0001
0100
0000
0010
1000
0000
0100
0010
0000
0010
0001
0000
0001
1000
,
0000
1000
0100
0000
0010
0000
0001
0100
0001
1000
0100
0000
0010
0001
0010
0000
,
0100
0000
1000
0010
0000
0010
0100
0000
0100
0001
0000
0001
1000
0010
0100
0000
,
0001
0000
0010
0000
0100
1000
0100
1000
0010
0000
0100
0001
0000
1000
0001
1000
,
0010
0000
0100
0001
0100
0000
0010
1000
0001
1000
0010
0000
0100
0000
0001
0000
,
1010
0000
1000
0000
0100
0010
0100
0010
0001
0000
1000
0010
0000
1000
0100
0000
,
0010
0000
0001
0000
1000
0000
0001
0000
0010
0100
1000
0000
0010
0000
0100
0000
,
0010
0000
1000
0000
0100
0000
1000
0000
0001
0010
0001
0000
0100
0000
1000
0000
,
0100
0000
0001
0000
0010
0000
0100
0000
1000
0010
1000
0000
0100
0000
0010
0000
,
0001
1000
0001
0000
0100
0000
0010
0000
1000
0100
1000
0000
0001
0000
0100
0000
,
0010
0000
0100
0000
0001
0000
0010
0000
0100
1000
0010
0000
1000
0000
0001
0000
,
0100
0000
0010
0000
0100
0000
0001
0000
1000
0010
0100
0000
0001
0000
1000
0000
,
0010
0000
0001
0000
0010
0000
1000
0000
0100
0010
0100
0000
1000
0000
0001
0000
,
0100
0010
0100
0000
0001
0000
1000
0000
0100
0000
0110
0000
1001
0000
0000
0000
,
0010
0000
1000
0000
0100
0000
1000
0000
0001
0010
0000
0001
0100
0000
0010
0000
,
1000
0000
0100
0000
0010
0000
0001
0000
1000
0010
1000
0000
0100
0000
0001
0000
,
0100
0000
0010
0000
0100
0000
1000
0000
0001
0100
0001
0000
0010
0000
0100
0000
,
1000
0010
1000
0010
1000
0000
0100
0000
0010
0001
0010
0000
0100
0000
1000
0000
,
0001
0000
0100
0000
0001
0000
0010
0000
0100
1000
0000
0001
1000
0000
0010
0000
,
0100
0000
1000
0000
0100
0000
0001
0000
1000
0010
0100
0000
0001
0000
1000
0000
,
0100
0000
0010
0000
0001
0000
1000
0000
0010
0100
0010
0000
1000
0000
0001
0000
,
0010
0100
1000
0100
0010
0000
0001
0000
0100
0010
0100
0000
0001
0000
1000
0000
,
1100
0000
0000
0000
0101
0000
0000
0000
1000
0010
0000
0100
0001
0000
1000
0000
,
0200
0000
0310
0001
2000
0100
3100
0000
,
1001
0000
0000
0000
0101
0000
0000
0000
0011
0000
0000
0001
1000
0000
0010
0000
,
0100
0001
0100
0000
0010
0000
1000
0000
0002
0000
0100
0000
0103
0000
0000
0000
,
0011
0000
0000
0000
1010
0000
0000
0000
0100
0001
0000
1000
0010
0000
0100
0000
,
0002
0000
0013
0100
2000
0001
3001
0000
,
1100
0000
0000
0000
1010
0000
0000
0000
1001
0000
0000
0001
0010
0000
0100
0000
,
1000
0010
0100
0001
0210
0000
0310
1000
,
2002
0000
0000
0000
,
0000
0000
0000
3003
;
