#TITLE:Motownphilly;
#ARTIST:Boyz II Men;
#BANNER:Motownphilly-bn.png;
#BACKGROUND:Motownphilly-bg.png;
#JACKET:Motownphilly-jacket.png;
#MUSIC:Motownphilly.ogg;
#SAMPLESTART:18.938;
#SAMPLELENGTH:20;
#DISPLAYBPM:114;
#BPMS:0=114.16;
#BGCHANGES:;

//---------------dance-single - ----------------
#NOTES:
     dance-single:
     :
     Beginner:
     3:
     :
0000
0000
0000
0000
,
0000
0000
0000
0000
,
0000
0000
0000
0000
,
0000
0000
0000
0000
,
0000
0000
0000
0000
,
1001
0000
1000
1000
,
0000
0000
0001
0001
,
0000
0000
0100
0100
,
0000
0000
0010
0010
,
0000
0000
0000
0000
,
1001
0000
0001
0000
,
0010
0010
0000
0000
,
0110
0000
0001
0000
,
0100
0100
0100
0000
,
0110
0000
0010
0000
,
1000
1000
0000
0000
,
0100
0000
0010
0000
,
0001
0001
0001
0000
,
0100
0000
0010
0000
,
1000
0000
0001
0000
,
0010
0000
0001
0000
,
1001
0000
0100
0100
,
0000
0000
0010
0000
,
1000
0000
0100
0000
,
1000
0000
0001
0000
,
0000
0000
0110
0000
,
1001
0000
0010
0000
,
1000
1000
1000
0000
,
0001
0000
0100
0000
,
0010
0010
0010
0000
,
0100
0000
0001
0000
,
1000
1000
0000
0000
,
0010
0000
0100
0000
,
0001
0001
0001
0000
,
0110
0000
1000
0000
,
0100
0100
0000
0000
,
1001
0000
0001
0000
,
0010
0010
0010
0000
,
1001
0000
0010
0000
,
1000
1000
0000
0000
,
0100
0000
0001
0000
,
0010
0010
0010
0000
,
0110
0000
0000
0000
,
1001
0000
0100
0100
,
0000
0000
0010
0010
,
0000
0000
1000
1000
,
0000
0000
0001
0001
,
0000
0100
0000
0010
,
0000
1000
0000
0001
,
0001
0000
1000
0000
,
0010
0010
0010
0000
,
1000
0000
0001
0000
,
0100
0000
0000
0000
;

//---------------dance-single - ----------------
#NOTES:
     dance-single:
     :
     Easy:
     8:
     :
0000
0000
0000
0000
,
0000
0000
0000
0000
,
0000
0000
0000
0000
,
0000
0000
0000
0000
,
0000
0000
0000
0000
,
1001
0000
0000
0000
0000
0000
0000
0000
1000
0000
0000
0100
1000
0000
0000
0000
,
0010
0000
0000
0000
0000
0000
0000
0000
0100
0000
0000
0001
0100
0000
0000
0000
,
0110
0000
0000
0000
0000
0000
0000
0000
0001
0000
0000
0010
0001
0000
0000
0000
,
1000
0000
0100
0000
0001
0000
0000
0000
1000
0000
0000
0010
1000
0000
0000
0000
,
1100
0011
1100
0011
,
1001
0010
1000
0100
,
0010
0001
1000
0000
0000
0010
0100
0000
,
0010
0000
0010
0000
0001
0100
1000
0000
,
1010
0101
1010
0000
,
1001
1000
0010
0100
,
0001
0010
0100
0000
0000
1000
0001
0000
,
0100
0100
0110
0001
,
0011
0110
1100
0000
,
1001
1000
0010
0100
,
0001
0010
0001
1000
,
1100
1100
0101
0101
,
1001
0000
0000
0000
1000
0001
0100
0000
,
0110
0001
1000
0101
,
0000
0001
1000
0010
,
1000
0100
1000
0000
0001
0000
0011
0000
,
1000
0010
0100
0001
,
1001
0000
0001
0000
0100
0001
0010
0000
,
0100
0000
1000
0000
0010
0100
0010
0000
,
0000
2000
0002
3003
,
1010
0101
1010
0101
,
0110
0000
0001
0000
0010
0001
1000
0000
,
0010
0000
0000
0100
0000
0000
0002
0000
0000
0000
0000
0000
0003
0000
0000
0000
,
2000
3020
2030
3002
,
0103
0010
0100
0010
0100
0000
0110
0000
,
1001
0010
0001
1000
,
0100
1000
0001
0000
0000
0100
0010
0000
,
1000
0000
1000
0000
0001
0010
0100
0000
,
1100
0101
1100
0000
,
1001
0010
0001
0100
,
1000
0010
0100
0000
0000
0001
1000
0000
,
0010
0100
0110
0001
,
0011
0110
1100
0000
,
1001
0110
2000
3001
,
1001
0000
0000
0000
1000
0000
0000
0000
0001
0000
0000
0010
0001
0000
0000
0000
,
0000
0000
0000
0000
0100
0000
0000
0000
0010
0000
0000
1000
0010
0000
0000
0000
,
0110
0000
0000
0000
0001
0000
0000
0000
1000
0000
0000
0100
1000
0000
0000
0000
,
0001
0000
0100
0000
1000
0000
0000
0000
0001
0000
0000
0010
0001
0000
0000
0000
,
1100
0000
0011
0000
0000
1000
0001
0000
,
1010
0101
1000
0001
,
0011
0011
1100
1100
,
1001
0110
1001
0110
,
1010
1010
0101
0101
,
1001
0110
0000
0000
;

//---------------dance-single - ----------------
#NOTES:
     dance-single:
     :
     Medium:
     10:
     :
0000
0000
0000
0000
,
0000
0000
0000
0000
,
0000
0000
0000
0000
,
0000
0000
0000
0000
,
0000
0000
0000
0000
,
1001
0000
0000
0000
0000
0000
0000
0000
1000
0010
0000
1000
0010
0000
0000
0000
,
0000
0000
0100
0000
0000
0100
0000
0000
0001
0010
0000
0001
0010
0000
0000
0000
,
0110
0000
0000
0000
0000
0000
0000
0000
0001
0100
0000
0001
0100
0000
0000
0000
,
0000
0000
1000
0000
0001
0000
1000
0000
1000
0100
0000
1000
0100
0000
0000
0000
,
1100
0000
0000
0000
0000
0000
0101
0000
0000
0000
0000
1000
0001
0000
0000
0000
0000
0000
0110
0000
0000
0000
0000
0000
,
1001
1000
0000
0001
0000
0010
0000
0100
,
0000
1000
0000
0010
0000
0100
0001
1000
,
0010
0000
0000
0000
0000
1010
0000
0000
0000
0000
0000
0000
1000
0000
0000
0100
0000
0000
1000
0000
0000
0001
0000
0000
,
0020
0000
0032
0000
0103
0010
0100
0001
,
1001
1000
0000
0010
0000
1000
0000
0100
,
0000
0010
0000
0001
0000
0100
0010
1000
,
0001
0000
0000
0000
0000
0011
0000
0000
0000
1000
0000
0000
0000
0000
0000
0010
0000
0000
0000
0000
0000
0100
0000
0000
,
0001
0001
1000
1000
0010
0100
0010
0100
,
1001
0000
1000
0010
0000
0100
0001
0000
,
0000
0000
0010
0000
0000
0001
0000
0000
1000
0000
0010
0000
0010
0000
0010
0000
,
1010
0000
0101
0000
1000
0001
0100
0010
,
0110
0000
0000
0000
0000
0000
0000
0001
1000
0000
1000
0000
1000
0000
0100
0000
,
0000
0010
0001
1000
0010
0000
0101
0000
,
0000
1000
0100
0010
0001
0100
0100
0100
,
0001
1000
1010
0000
0100
0010
0011
0000
,
0000
1000
0010
0100
0001
1000
0001
0000
,
1001
0000
0000
0000
0000
0001
0000
0000
0000
0010
0000
0000
0000
0000
1000
0000
0000
0000
0100
0000
0000
0000
0000
0000
,
0110
0000
0000
0000
0000
0010
0000
0000
0000
0100
0000
0000
0000
0000
0001
0000
0000
0000
1000
0000
0000
0000
0000
0000
,
1100
0000
0000
0000
0000
0001
0000
0000
0000
1000
0000
0000
0000
0100
0000
0000
0000
0000
0010
0000
0000
0000
0000
0000
,
0011
0000
0110
0000
1100
0000
0001
1000
,
0000
0000
0000
0010
0000
0000
1000
0000
0000
0100
0000
0000
1000
0000
0000
0000
0000
0001
0000
0000
0000
0100
0000
0000
,
0010
0000
0000
0000
0000
1000
0000
0000
0000
0100
0000
0000
0020
0000
0000
0000
0000
0000
0030
0000
0000
0001
0000
0000
,
1000
0100
1000
0001
0100
0010
2000
0000
,
3001
1000
0001
0000
0100
0000
0010
0000
1010
0000
0000
0000
0011
0000
0000
0000
,
1001
0000
1000
0000
0000
0010
0000
0000
1000
0000
0000
0001
0000
0000
0010
0000
,
0000
0100
0000
0000
1000
0000
0000
0000
0000
0000
0001
0000
0001
0000
1000
0000
,
0010
0000
0000
0000
0000
0110
0000
0000
0000
0000
0000
0000
0001
0000
0000
1000
0000
0000
0001
0000
0000
0100
0000
0000
,
0020
0000
2030
0000
3100
0010
0001
1000
,
1001
0000
0010
0000
0000
0100
0000
0000
0010
0000
0000
0100
0000
0000
0001
0000
,
0000
1000
0000
0000
0100
0000
0000
0000
0000
0000
0010
0000
0010
0000
0001
0000
,
1000
0000
0000
0000
0000
1100
0000
0000
0000
0010
0000
0000
0000
0000
0000
0100
0000
0000
0000
0000
0000
0001
0000
0000
,
1000
1000
0001
0001
0010
0100
0010
0100
,
0110
0000
1001
0000
1000
0010
0101
0000
,
0000
0000
1000
0000
0001
0000
0010
0000
0001
0100
0000
0001
0100
0000
0000
0000
,
0000
0000
0010
0000
1000
0000
0100
0000
1000
0010
0000
1000
0010
0000
0000
0000
,
0000
0000
1000
0000
0100
0000
0010
0000
0001
0010
0000
0001
0010
0000
0000
0000
,
0000
0000
0100
0000
0010
0000
0001
0000
1000
0010
0000
1000
0010
0000
0000
0000
,
1001
0000
0000
0001
0100
0000
0000
0000
0000
0010
0000
0010
0000
0000
1000
0000
,
1100
0000
0000
1000
0001
0000
0000
0100
0010
0000
0000
0100
0010
0000
0000
0000
,
0101
0000
0000
0001
0000
0000
1000
0000
1100
0000
0000
0010
0000
0000
0100
0000
,
0101
1010
1100
0011
,
1001
0000
0110
0000
1000
0010
0001
0100
,
1001
0000
0000
0000
;

//---------------dance-single - ----------------
#NOTES:
     dance-single:
     :
     Hard:
     13:
     :
0000
0000
0000
0000
,
0000
0000
0000
0000
,
0000
0000
0000
0000
,
0000
0000
0000
0000
,
0000
0000
0000
0000
,
1001
0000
0000
0000
0100
0000
0010
0000
1000
0100
0000
1000
0100
0000
0000
0000
,
0010
0000
0011
0000
0000
1100
0000
0000
0001
0100
0000
0001
0100
0000
0000
0000
,
0110
0000
1010
0000
0000
0000
0101
0000
1000
0010
0000
1000
0010
0000
0000
0000
,
0100
0000
0100
0000
0100
0000
0100
0000
0001
1000
0000
0001
1000
0000
0010
0000
,
0101
0000
0000
0000
0000
0000
1100
0000
0000
0000
0000
0001
0100
0000
0000
1010
0000
0000
0100
0000
0000
0011
0000
0000
,
1001
0000
0020
0000
0000
2030
0000
0000
3200
0000
0000
0320
0000
0000
0032
0000
,
0000
0000
0000
2003
0000
0000
0000
0000
0000
0000
0000
0000
3001
0000
0000
0000
0000
0000
0100
0000
0000
0000
0000
0000
0000
0000
0000
0000
0010
0000
1000
0000
0000
0000
0010
0000
1000
0000
0000
0000
0010
0000
1000
0000
0000
0000
0010
0000
,
1000
0000
0000
0000
0000
0000
0000
0000
0000
0000
0110
0000
0000
0000
0000
0000
0000
0000
0000
0000
0000
0000
0000
0000
0001
0000
0000
1000
0000
0000
0001
0000
0000
0000
0000
0000
0010
0000
0000
0000
0000
0000
0100
0000
0000
0000
0000
0000
,
1100
0000
0000
0000
0000
0000
0101
0000
0000
0000
0000
0000
1010
0000
0000
0001
0000
0000
1000
0000
0100
1000
0000
0100
,
1000
0000
0020
0000
0000
0230
0000
0000
0302
0000
0000
2003
0000
0000
3200
0000
,
0000
0000
0000
0320
0000
0000
0000
0000
0000
0000
0000
0000
0031
0000
0000
0000
0000
0000
1000
0000
0000
0000
0000
0000
0000
0000
0000
0000
0001
0000
0100
0000
0000
0000
0001
0000
0100
0000
0000
0000
0001
0000
0100
0000
0000
0000
0001
0000
,
0100
0000
0020
0000
0000
1030
0000
0000
1100
0000
0001
0000
0100
0000
0010
0000
,
1000
0000
0000
1000
0000
0000
0001
0000
0000
0001
0000
0000
1000
0000
0000
0001
0000
0000
0100
0000
0010
0100
0000
0010
,
0100
0000
0000
0001
1000
0000
0100
0000
0000
0000
1000
0000
0020
0000
0000
0000
,
0130
0000
0000
0000
0000
0000
0002
0000
0000
0000
0000
0000
0000
0000
0000
2003
0000
0000
0000
0000
0000
0000
0000
0000
3010
0000
0000
0000
0000
0000
1000
0000
0000
0000
0100
0000
1000
0000
0000
0000
0100
0000
1000
0000
0000
0000
0000
0000
,
0001
1000
0000
1000
0001
0000
0000
0000
0010
0100
0000
0110
0000
0000
0001
1000
,
0001
0000
0000
0000
0000
0000
0010
0000
0000
0000
0000
0000
0100
0000
0000
0000
1000
0000
0000
0000
0000
1000
0000
0000
0001
0000
0000
0000
0000
0000
0100
0000
0000
0000
0000
0000
1010
0000
0000
0000
0000
0000
1000
0000
0000
0000
0000
0000
,
0001
0000
0000
1000
0000
0000
0010
0000
0000
0000
0000
0000
0100
0000
0000
0000
0000
0000
0001
0000
0000
1000
0000
0000
0000
0000
0000
0000
0010
0000
0000
0000
0000
0000
0000
0000
0101
0000
0000
0000
0000
0000
1000
0000
0000
0000
0000
0000
,
0000
0000
0000
0100
0000
1000
0000
0000
0010
0100
0000
0000
0001
0000
0000
1000
0000
0010
1000
0000
0010
1000
0000
0000
,
1001
0000
0110
0000
1001
0000
0000
0000
0001
0010
0001
0010
0000
0000
0100
0000
,
0000
0000
0000
1000
0000
0000
0010
0000
0100
0000
0000
0100
0001
0000
0000
0001
0000
0010
0000
0000
0010
0100
0000
0000
,
0110
0000
0000
0000
0000
0000
0001
0000
1000
0000
0000
0010
0000
0000
1000
0000
0000
0100
0000
0000
0010
0000
0000
0001
,
0000
0000
0000
0000
1000
0000
0000
0000
0000
0000
0001
0000
0000
0000
0000
0000
0100
0000
0000
0000
0000
0000
0010
0000
0000
0000
0000
0000
1000
0000
0000
0000
0000
0000
0001
0000
0000
0000
0000
0100
0000
0000
0010
0000
0000
0000
0000
0000
,
1000
0000
0100
0010
0100
0010
0000
0011
0000
0011
0000
0000
0000
0001
1000
0000
,
1100
0000
0000
0001
0100
0000
0000
0010
1000
0010
1000
0010
1000
0000
0001
0000
,
0100
0000
0000
0000
0000
0000
0001
0000
0000
1000
0000
0000
0001
0000
0000
1000
0000
0000
0001
0000
0000
0000
0000
0000
0010
0000
0000
0000
0100
0000
0000
0000
0000
0000
1000
0000
0000
0000
0000
0000
0020
0000
0000
0000
0000
0000
0000
0000
,
0130
0000
0001
0000
0000
0010
0000
0000
0000
0001
0000
2000
0000
0000
0010
0000
0000
0000
3001
0000
1000
0100
0000
0000
,
1000
0000
0100
0000
0010
0000
0001
0000
0000
0000
0100
0000
0010
0000
0000
0000
1000
0000
0001
0000
0000
0010
0000
0000
,
0001
0000
0000
0000
0100
0000
0001
0000
0000
0000
0000
0000
1001
0000
0000
0000
0000
0000
1001
0000
0000
0000
0000
0000
0010
0000
0000
0000
0000
0000
1000
0000
0000
0000
0000
0000
0010
0000
0000
0000
0000
0000
0100
0000
0000
0001
0000
0000
,
1000
0000
0200
0000
0000
0320
0000
0000
0032
0000
0000
2003
0000
0000
3002
0000
,
0000
0000
0000
0203
0000
0000
0000
0000
0000
0000
0000
0000
0310
0000
0000
0000
0000
0000
1000
0000
0000
0000
0000
0000
0000
0000
0000
0000
0001
0000
0010
0000
0000
0000
0001
0000
0010
0000
0000
0000
0001
0000
0010
0000
0000
0000
0001
0000
,
0010
0000
0000
0000
0000
0000
0000
0000
0000
0000
1100
0000
0000
0000
0000
0000
0000
0000
0000
0000
0000
0000
0000
0000
0001
0000
0000
1000
0000
0000
0001
0000
0000
0000
0000
0000
0100
0000
0000
0000
0000
0000
0010
0000
0000
0000
0000
0000
,
1010
0000
0000
0000
0000
0000
0101
0000
0000
0000
0000
0000
0011
0000
0000
1000
0000
0000
0100
0000
0010
0100
0000
0010
,
0100
0000
2000
0000
0000
3002
0000
0000
0023
0000
0000
0032
0000
0000
0203
0000
,
0000
0000
0000
0320
0000
0000
0000
0000
0000
0000
0000
0000
1030
0000
0000
0000
0000
0000
0001
0000
0000
0000
0000
0000
0000
0000
0000
0000
1000
0000
0100
0000
0000
0000
1000
0000
0100
0000
0000
0000
1000
0000
0100
0000
0000
0000
1000
0000
,
0100
0000
0000
0000
0000
0000
0020
0000
0000
0000
0000
0000
0000
0000
0000
0031
0000
0000
0000
0000
0000
0000
0000
0000
0110
0000
0000
0000
0000
0000
0000
0000
0000
0000
1000
0000
0001
0000
0000
0000
0000
0000
0100
0000
0000
0000
0000
0000
,
0010
0000
0000
0010
0000
0000
0100
0000
0000
0100
0000
0000
0010
0000
0000
0100
0000
0000
0001
0000
1000
0001
0000
1000
,
0001
0000
0000
0000
0011
0000
0000
0000
1000
0100
1000
0100
1000
0000
0001
0000
,
1001
0000
0100
0010
0100
0010
0100
0000
1000
0001
0000
1000
0001
0000
0100
0000
,
0010
0000
1000
0001
1000
0001
1000
0000
0100
0010
0000
0100
0010
0000
0001
0100
,
0010
0000
1000
0001
1000
0001
1000
0000
0100
0010
0000
0010
0001
0000
0101
0000
,
1010
0000
0100
0000
0100
0000
0100
0000
0001
1000
0000
0001
1000
0000
0010
0000
,
0110
0000
0000
0001
0100
0000
0020
0000
0000
1000
0000
1030
0000
0000
0001
0000
,
0010
0001
0000
0001
0100
0000
0000
0010
1000
0000
0100
1000
0001
0000
0000
0000
,
1000
0010
0000
1000
0010
0000
0100
0000
0001
1000
0000
0001
1000
0000
0000
0000
,
1100
0000
0000
0000
0011
0000
0000
0000
1000
0010
1000
0010
1000
0000
0001
0000
,
1001
0000
0000
0001
1000
0000
0000
0000
0010
0100
0000
0110
0000
0000
0001
1000
,
0001
0000
0000
0000
;

//---------------dance-single - ----------------
#NOTES:
     dance-single:
     :
     Challenge:
     15:
     :
0000
0000
0000
0000
,
0000
0000
0000
0000
,
0000
0000
0000
0000
,
0000
0000
0000
0000
,
0000
0000
0000
0000
,
1001
0000
0010
0000
0100
0000
0001
0000
1000
0100
1000
0100
1000
0000
0001
0000
,
0010
0000
0110
0000
0001
0100
0001
0000
1000
0010
1000
0010
1000
0000
0001
0000
,
1010
0000
0101
0000
1000
0000
1100
0000
0001
0010
0001
0010
0001
0000
0000
0000
,
0100
0000
0000
0110
0000
0000
1001
0000
0000
0110
0000
0000
1000
0001
1000
0001
1000
0001
1000
0001
1000
0001
1000
0001
,
0100
0000
0000
0000
0000
0000
0100
0000
0000
0000
0000
0001
1000
0000
0000
0101
0000
0000
1000
0000
0000
0011
0000
0000
,
1001
0000
0010
0000
1000
0100
0000
0100
0010
0000
0010
0001
0000
0001
1000
0000
,
1000
0000
0000
0010
0000
0000
0000
0000
0000
0010
0000
0000
0100
0000
0000
0000
0000
0000
0001
0000
0000
0000
0000
0000
1000
0000
0000
0000
0100
0000
0010
0000
0000
0000
0010
0000
0001
0000
0000
0000
0001
0000
1000
0000
0000
0000
1000
0000
,
0010
0000
0000
0000
0000
0000
1000
0000
0000
0000
0001
0000
0100
0000
0000
0000
0000
0000
0000
0000
0000
0000
0000
0000
0001
0000
0000
1000
0000
0000
0100
0000
0000
0000
0000
0000
0010
0000
0000
0000
0000
0000
0001
0000
0000
0000
1000
0000
,
0010
0000
0000
1010
0000
0000
0100
0000
0000
0011
0000
0000
1100
0000
0000
0101
0000
0000
1000
0000
0010
0100
0000
0001
,
1000
0000
0100
0000
0010
0001
0000
0001
0100
0000
0100
0010
0000
0010
1000
0000
,
1000
0000
0000
0100
0000
0000
0000
0000
0000
0100
0000
0000
1000
0000
0000
0000
0000
0000
0001
0000
0000
0000
0000
0000
0100
0000
0000
0000
0010
0000
1000
0000
0000
0000
1000
0000
0100
0000
0000
0000
0100
0000
0010
0000
0000
0000
0010
0000
,
0001
0000
0000
0000
0000
0000
0101
0000
0000
0000
0000
0000
1000
0000
0000
0010
0000
0000
0100
0000
0000
0001
0000
0000
0010
0000
0000
0000
0000
0000
0100
0000
0000
0000
1000
0000
0001
0000
0000
0000
0000
0000
0100
0000
0000
0000
0010
0000
,
1000
0000
0000
1100
0000
0000
0001
0000
0000
0101
0000
0000
1001
0000
0000
0110
0000
0000
1000
0000
0100
0010
0000
0001
,
0100
0000
0001
1000
0100
0000
0010
0000
0001
1000
0010
0000
0101
0000
0000
0000
,
1000
0000
0000
0000
0000
0000
1100
0000
0000
0000
0000
0000
0010
0000
0000
0100
0000
0000
0000
0000
0000
0100
0000
0000
0001
0000
0000
0000
0000
0000
1000
0000
0000
0000
1000
0000
0010
0000
0000
0000
0010
0000
0100
0000
0000
0000
0000
0000
,
0001
0010
1000
0010
0001
0000
0000
0000
0100
0010
0000
0110
0000
0000
1000
0100
,
0001
0000
0000
0010
0000
0000
0001
0000
1000
0000
0000
1000
0010
0000
0000
1010
0000
0000
0101
0000
0000
1000
0000
0000
,
1001
0000
1000
0100
0000
0000
0110
0000
0000
0001
0000
1000
0010
0000
0000
0000
0000
0000
0101
0000
0000
1000
0000
0000
,
0010
0000
0000
0100
0000
0001
0000
0000
0001
1000
0000
0000
0100
0000
0000
0010
0000
0010
0001
0000
0001
1000
0000
0000
,
1100
0000
0000
0110
0000
0000
0011
0000
0000
0000
0000
0000
1000
0000
0010
1000
0000
0001
0100
0000
0000
0010
0000
0000
,
0000
1000
0100
0010
0001
0100
0000
0011
0000
1000
0001
0010
0000
0000
0000
0000
,
1001
0000
0000
0000
0000
0001
0010
0000
0200
0000
0000
2300
0000
0000
3020
0000
0000
0230
0000
0000
0302
0000
0000
2003
,
0000
0000
3020
0000
0000
0230
0000
0000
2300
0000
0000
3200
0000
0000
0302
0000
0000
0023
0000
0000
0031
1000
0000
0000
,
0010
0000
1000
0100
1000
0001
0000
0011
0000
1100
0000
0000
0001
0100
1000
0000
,
0010
0000
0000
0000
0000
0000
0000
0000
1000
0000
0000
0000
0100
0000
0000
0000
0000
0000
0000
0000
0010
0000
0000
0000
0001
0000
0000
0100
0000
0000
1000
0000
0000
0100
0000
0000
0001
0000
0000
0000
0000
0000
0010
0000
0000
0000
0000
0000
,
0110
0000
0000
0001
0000
0001
0100
0000
0100
0010
0000
0000
1000
0000
0001
0000
0000
1100
0000
0000
0102
0000
0000
0000
,
1003
0000
0010
0000
0000
0110
0000
0000
0000
0001
0000
2000
0000
0000
0010
0000
0000
0000
3001
0000
0100
0000
0010
0000
,
1000
0000
0100
0000
0010
0000
0001
0000
0010
0000
0100
0000
1000
0000
0010
0000
0100
0000
0001
0000
0000
1000
0000
0000
,
0010
0000
0000
0000
0010
0000
0100
0000
0000
0000
0000
0000
0110
0000
0000
0000
0000
0000
1001
0000
0000
0000
0000
0000
1000
0000
0000
0100
0000
0000
0001
0000
0000
0100
0000
0000
1000
0000
0000
0000
0000
0000
0010
0000
0000
0100
0000
0000
,
0001
0000
0011
0000
0000
0110
0000
0000
1100
0000
0000
1010
0000
0000
1001
0000
,
0000
0000
0000
0101
0000
0000
0000
0000
0000
0000
0000
0000
0011
0000
0000
0000
0000
0000
1000
0000
0000
0000
0000
0000
0001
0000
0000
0000
0100
0000
0010
0000
0000
0000
0010
0000
1000
0000
0000
0000
1000
0000
0001
0000
0000
0000
0001
0000
,
0010
0000
0000
0000
0000
0000
0001
0000
0000
0000
1000
0000
0100
0000
0000
0000
0000
0000
0000
0000
0000
0000
0000
0000
1000
0000
0000
0010
0000
0000
0100
0000
0000
0000
0000
0000
0001
0000
0000
0000
0000
0000
1000
0000
0000
0000
0100
0000
,
0010
0000
0000
1001
0000
0000
0100
0000
0000
1010
0000
0000
0101
0000
0000
1100
0000
0000
0010
0000
1000
0001
0000
0100
,
0010
0000
1000
0000
0100
0010
0000
0010
0001
0000
0001
1000
0000
1000
0010
0000
,
0100
0000
0000
0001
0000
0000
0000
0000
0000
1000
0000
0000
0100
0000
0000
0000
0000
0000
0010
0000
0000
0000
0000
0000
0001
0000
0000
0000
1000
0000
0010
0000
0000
0000
0010
0000
0100
0000
0000
0000
0100
0000
0001
0000
0000
0000
0001
0000
,
1000
0000
0000
0000
0000
0000
0110
0000
0000
0000
0000
0000
0010
0000
0000
0001
0000
0000
1000
0000
0000
0000
0000
0000
0101
0000
0000
0000
0000
0000
0010
0000
0000
0000
1000
0000
0100
0000
0000
0000
0000
0000
1000
0000
0000
0000
0001
0000
,
0100
0000
0000
0011
0000
0000
0100
0000
0000
1010
0000
0000
1001
0000
0000
0110
0000
0000
1000
0000
0010
0100
0000
0001
,
0010
0000
0000
1001
0000
0000
0010
0000
0000
1001
0000
0000
0001
1000
0001
1000
0001
1000
0001
0000
0000
1000
0000
0000
,
1100
0000
1000
0010
0100
0010
1000
0000
0001
0100
0010
0100
0001
0000
0011
0000
,
0010
0000
0001
1000
0100
1000
0001
0000
0100
0010
0100
0010
1000
0000
0001
1000
,
0100
0000
1000
0010
0001
0010
1000
0000
0100
1000
0001
0100
0001
0000
0010
0000
,
0011
0000
0000
1100
0000
0000
0011
0000
0000
1100
0000
0000
1000
0001
1000
0001
1000
0001
1000
0001
1000
0001
1000
0001
,
0100
0010
1000
0100
0001
0000
0011
0000
1000
0001
0000
1010
0000
0100
0010
0000
,
0001
0100
0010
0100
0001
0000
1000
0100
0010
0001
1000
0001
0010
0000
0000
0000
,
0100
1000
0001
1000
0010
0000
0101
0000
1000
0010
0100
0001
0010
0000
0000
0000
,
0011
0000
0000
0101
0000
0000
1010
0000
0000
1100
0000
0000
1000
0001
1000
0001
1000
0001
1000
0001
1000
0001
1000
0001
,
0100
0010
0000
0100
0010
0000
0000
0000
1000
0001
0000
1001
0000
0000
0100
0001
,
2000
0002
3003
0000
;
