#TITLE:Modern Days of Camelot City;
#ARTIST:DJ ANDREA;
#BANNER:Modern Days of Camelot City-bn.png;
#BACKGROUND:Modern Days of Camelot City-bg.png;
#JACKET:Modern Days of Camelot City-jacket.png;
#MUSIC:Modern Days Of Camelot City.ogg;
#SAMPLESTART:80.914;
#SAMPLELENGTH:20;
#DISPLAYBPM:175;
#BPMS:0=175;
#BGCHANGES:;

//---------------dance-single - ----------------
#NOTES:
     dance-single:
     :
     Beginner:
     5:
     :
0000
0000
0000
0000
,
0000
0000
0000
0000
,
0000
0000
0000
0000
,
0000
0000
0000
0000
,
0000
0000
0000
0000
,
0000
0000
0000
0000
,
0001
0000
1001
0000
,
0000
0000
1001
1001
,
0000
0000
1001
0000
,
0000
0000
0010
0010
,
0010
0000
0110
0000
,
0000
0000
0110
0110
,
0000
0000
0110
0000
,
0000
0000
0110
0110
,
0000
0000
1001
0000
,
0000
0000
0110
0110
,
0000
0000
1001
0000
,
0100
0100
0100
0000
,
0010
0010
0010
0000
,
1000
0000
0001
0000
,
0010
0000
0001
0001
,
0001
0000
0100
0000
,
0010
0000
1000
1000
,
1000
0000
0001
0000
,
0100
0100
0100
0000
,
0010
0010
0010
0000
,
0110
0000
1001
0000
,
1000
1000
1000
0000
,
0010
0000
1001
0000
,
0100
0100
0000
0001
,
0001
0000
1000
0000
,
0110
0000
0110
0000
,
1001
0000
1001
0000
,
0110
0000
1001
0000
,
1000
1000
1000
0000
,
0001
0000
0010
0000
,
0001
0001
0000
0000
,
0100
0000
0010
0000
,
1000
1000
1000
0000
,
0100
0000
1000
0000
,
0010
0010
0000
0000
,
1000
0000
0001
0000
,
0100
0100
0100
0000
,
0010
0000
1001
0000
,
0000
0000
1001
0000
,
0000
0000
1001
0000
,
0000
0000
1001
1001
,
0000
0000
0110
0000
,
0000
0000
0110
0000
,
0000
0000
0110
0110
,
0000
0000
0000
0000
,
0001
0000
0001
0000
,
0001
0000
0001
0000
,
1000
0000
1000
0000
,
1000
0000
1000
0000
,
0010
0000
0010
0000
,
0100
0000
0100
0000
,
0020
0000
0030
0000
,
0200
0000
0300
0000
,
0010
0010
0010
0000
,
1000
1000
0000
0000
,
0001
0000
1001
0000
,
0010
0000
0100
0000
,
0010
0000
0100
0000
,
1001
0000
0110
0000
,
1001
0000
0110
0000
,
0001
0001
0001
0000
,
0110
0000
0110
0000
,
1000
0000
0010
0010
,
0010
0000
0100
0100
,
0100
0000
0001
0000
,
1000
0000
1000
0000
,
0010
0000
0010
0000
,
0010
0000
1001
0000
,
0001
0000
1000
0000
,
0001
0001
0001
0000
,
0010
0000
0000
0000
;

//---------------dance-single - ----------------
#NOTES:
     dance-single:
     :
     Easy:
     8:
     :
0000
0000
0000
0000
,
0000
0000
0000
0000
,
0000
0000
0000
0000
,
0000
0000
0000
0000
,
0000
0000
0000
0000
,
0000
0000
0000
0000
,
0001
0100
1001
0000
,
0001
0100
1001
1001
,
1000
0100
1001
0000
,
1000
0100
1001
1001
,
0010
1000
0110
0000
,
0010
1000
0110
0110
,
0001
0010
0110
0000
,
0001
0010
0110
0110
,
1000
0001
1001
0000
,
1000
0001
1001
1001
,
0010
0100
0110
0000
,
0200
0320
2030
3002
,
0013
0010
0010
0010
,
0001
0100
0001
0010
,
0100
1000
0010
0100
,
0001
0010
0001
0100
,
1000
0001
1000
0100
,
0010
0010
0010
0001
,
0100
1000
0100
0001
,
0010
0010
0001
0100
,
2000
3020
0230
0302
,
0013
0000
0001
1000
0001
0000
0100
0010
,
0100
0001
1010
0001
,
1000
0100
1000
0000
0010
0000
0100
0001
,
0100
0000
0110
0000
0001
0010
0001
0000
,
2000
3010
0200
0301
,
2000
3001
0200
0310
,
1010
1010
0101
0101
,
0010
0001
0100
1000
,
0001
1000
0100
0000
,
0100
0000
0100
1000
0000
0000
0000
0000
,
0001
1000
0010
0000
,
0100
0000
0100
0001
0010
0000
0000
0000
,
0001
0100
1000
0000
,
0010
0000
0010
1000
0000
0000
0000
0000
,
0100
1000
0001
0000
,
0010
0000
0010
0001
1000
0000
0000
0000
,
0010
0100
1001
0010
,
1000
0001
1001
0100
,
0001
0010
1001
0010
,
1000
0100
1001
1001
,
0010
0001
0110
0001
,
0100
0010
0110
1000
,
0100
0010
0110
0110
,
0002
2003
3020
0230
,
0301
1000
1000
0010
,
1000
0001
0100
0001
,
0001
0010
0010
1000
,
0010
0001
0010
0100
,
0100
1000
0100
1000
,
0001
0001
0010
0001
,
0100
0100
1000
0100
,
0100
0010
0010
1000
,
0010
0100
0010
0100
0010
0100
0010
0000
,
0110
0110
0001
0100
,
1000
0010
1010
0001
,
0100
0100
0100
0100
,
0001
0000
0010
0000
0001
0000
1000
0010
,
2000
3100
0020
0031
,
2000
3001
0020
0130
,
1000
0001
1100
0010
,
0101
0010
1100
0010
,
0001
0000
0001
0000
1000
0001
1000
0001
,
1000
1000
1100
0101
,
0010
0010
0011
1010
,
1000
0001
1000
0000
0110
0000
0001
1000
,
0001
0010
1000
0100
,
0001
0100
1000
0010
,
1000
0001
1000
0000
0100
0010
0100
0000
,
0002
0023
0230
2300
,
3010
0000
0000
0000
;

//---------------dance-single - ----------------
#NOTES:
     dance-single:
     :
     Medium:
     13:
     :
0000
0000
0000
0000
,
0000
0000
0000
0000
,
0000
0000
0000
0000
,
0000
0000
0000
0000
,
0000
0000
0000
0000
,
0000
0000
0000
0000
,
0001
0100
0001
1000
0100
1000
0000
0010
,
1000
0100
1000
0010
0000
0100
0001
0000
,
1000
0010
1000
0001
0010
0001
0000
0100
,
0001
0010
0001
0100
0000
0010
1000
0000
,
0010
0000
0000
1000
0000
0000
0100
0000
1001
0000
0000
0000
0000
0000
0000
0000
,
0010
0000
0000
0001
0000
0000
0100
0000
1001
0000
0000
0000
1001
0000
0000
0000
,
1000
0000
0000
0010
0000
0000
0001
0000
1001
0000
0000
0000
0000
0000
0000
0000
,
0100
0000
0000
0001
0000
0000
1000
0000
1001
0000
0000
0000
1001
0000
0000
0000
,
0010
0000
0000
0001
0000
0000
0100
0000
0110
0000
0000
0000
0000
0000
0000
0000
,
1000
0000
0000
0100
0000
0000
0010
0000
0110
0000
0000
0000
0110
0000
0000
0000
,
0001
0000
0000
1000
0000
0000
0010
0000
0110
0000
0000
0000
0000
0000
0000
0000
,
1000
0000
1000
0010
0000
0010
0100
0000
0100
0001
0000
0001
,
0010
0100
0010
0100
0010
0100
0010
0000
,
0110
1001
0110
0110
,
0010
0000
0001
0000
0100
0000
0000
0000
0010
0000
1000
0001
1000
0000
0100
0000
,
0001
0000
0100
0000
1000
0000
0000
0000
1100
0000
0000
0000
0011
0000
1000
0001
,
1000
0000
0100
0000
0100
0000
0000
0000
0010
0000
0000
0001
0000
0000
1000
0000
,
0001
0000
0100
0000
0010
0000
0000
0000
1000
0000
0000
0010
0000
0000
0100
0000
,
0001
0010
0001
1000
0010
1000
0001
0010
,
0001
0000
0100
0000
0010
0000
0000
0000
1000
0000
0000
0010
1000
0000
0001
0000
,
0100
0010
0100
0020
0000
0000
0130
0010
0100
0020
0000
0000
,
1030
0000
0000
0000
1000
0000
0001
0010
0001
0000
0100
0000
0010
0000
1000
0001
,
1000
0100
0100
0000
1010
0100
0001
0001
,
0010
0000
0001
0000
0100
0000
0000
0000
1010
0000
0000
0000
0101
0000
0000
1000
,
0001
0000
0000
0000
0011
0000
0000
0000
1000
0100
1000
0000
0010
0000
0010
0000
,
0020
0000
0000
0000
1030
0000
0000
1000
0002
0000
0000
0000
1003
0000
0000
1000
,
0020
0000
0000
0000
1030
0000
0000
1000
0002
0000
0000
0000
0103
0000
0010
0000
,
1000
0100
0001
0000
1000
0100
0001
0000
,
0010
0000
0001
0000
1000
0010
1000
0000
0001
0000
0100
0000
0100
0000
0000
0000
,
0010
1000
0001
1000
0010
0000
0000
0000
,
0100
0000
0100
0001
0000
0000
0000
0000
,
0010
0001
0100
0001
0010
0000
0000
0000
,
0100
0000
0100
1000
0001
0000
0000
0000
,
1000
0001
0010
0001
1000
0000
0000
0000
,
0100
0000
0100
0010
0000
0000
0000
0000
,
0001
1000
0100
1000
0001
0000
0000
0000
,
0100
0000
0100
0010
1000
0000
0000
0000
,
1100
0000
0001
0000
1001
0000
0010
0100
,
0000
0100
0001
0010
1001
0000
0110
0000
,
1000
0000
0100
0000
1001
0010
1000
0001
,
0100
0000
0000
0100
0000
0000
0100
0000
1001
0000
0000
0000
1001
0000
0000
0000
,
0010
0000
1000
0000
0110
0000
0001
0100
,
0000
0001
1000
0010
0110
0000
1001
0000
,
0001
0010
0110
0110
,
0001
0000
0001
0100
0000
0100
0010
0000
0010
1000
0000
1000
,
0001
0000
0000
0001
0000
0000
1000
0000
0000
1000
0000
0010
,
0100
0000
0000
0100
0000
0000
0001
1000
0001
1000
0000
1000
,
0100
0000
0000
0100
0000
0000
0010
0000
0000
0010
0000
0001
,
1000
0000
0000
0010
0000
0000
1000
0000
1000
0000
1000
0000
,
0001
0010
2000
0000
3010
1000
0200
0000
,
1300
0010
0002
0000
0103
0001
0020
0000
,
0031
0100
0010
1000
0001
0010
0100
1000
,
0001
1000
0010
0100
0010
1000
0001
0100
,
0010
0100
0010
0100
0010
0100
0010
0000
,
0101
0000
0000
0000
1100
0000
0000
0000
0001
0000
0001
0000
1000
0000
0010
0100
,
0010
0000
1000
0000
1010
0100
0001
1000
,
1100
0011
0101
1010
,
1001
0000
0000
0000
0110
0000
0000
0000
1001
0000
0000
0000
0010
0000
1000
0001
,
2000
0000
0000
0000
3001
0000
0000
0001
0200
0000
0000
0000
0301
0000
0000
0001
,
1000
0100
0010
0000
0010
0001
0100
0000
,
0110
0000
0000
0000
0101
0000
0000
0000
1000
0010
0000
0000
0100
0000
0000
0000
,
0001
0010
1000
0000
0001
0100
1000
0000
,
1100
0000
0101
0000
1000
0001
1000
0001
,
0010
0000
0001
0100
1000
0000
1001
0010
,
1000
0000
0100
0010
0001
0000
0011
0000
,
1000
0000
0001
0000
0100
0000
0010
0000
1000
0000
0001
0000
1000
0000
0010
0100
,
0010
0000
1000
0000
0001
0100
1000
0000
,
0001
0000
0100
0000
0010
0000
0000
0000
1000
0001
0000
0000
0100
0000
0000
0000
,
0010
0010
0010
0000
0100
0100
0100
0000
,
0002
0000
2003
0000
3001
0100
1000
0000
,
0010
0000
0000
0000
;

//---------------dance-single - ----------------
#NOTES:
     dance-single:
     :
     Hard:
     16:
     :
0000
0000
0000
0000
,
0000
0000
0000
0000
,
0000
0000
0000
0000
,
0000
0000
0000
0000
,
0000
0000
0000
0000
,
0000
0000
0000
0000
,
0001
0000
1000
0010
0000
1000
0010
0000
1001
0000
0000
0000
0000
0000
0000
0000
,
0001
0000
1000
0010
0000
1000
0010
0000
1001
0000
0000
0000
1001
0000
0000
0000
,
1000
0000
0001
0100
0000
0001
0100
0000
0110
0000
0000
0000
0000
0000
0000
0000
,
1000
0000
0000
0000
0000
0000
0001
0000
0000
0100
0000
0000
0000
0000
0000
0001
0000
0000
0100
0000
0000
0000
0000
0000
0010
0000
0000
0000
1000
0000
0000
0000
0010
0000
0000
0000
1000
0000
0000
0000
0010
0000
0000
0000
1000
0000
0000
0000
,
0001
0000
0010
0100
0000
0010
0100
0000
1100
0000
0000
0000
0000
0000
0001
0000
,
1000
0000
0010
0100
0000
0010
0100
0000
0101
0000
0001
0000
0101
0000
0001
0000
,
0010
0000
0001
1000
0000
0001
1000
0000
1100
0000
0000
0000
0000
0000
0010
0000
,
0100
0000
0001
0010
0000
0001
0010
0000
0011
0000
1000
0000
0011
0000
1000
0000
,
0100
0000
1000
0010
0000
0010
0100
0000
0110
0000
0001
0000
0000
0000
1000
0000
,
0001
0000
0010
0001
0000
0001
1000
0000
1100
0000
0100
0000
1100
0000
0100
0000
,
0010
0000
0001
1000
0000
0010
0100
0000
1001
0000
0010
0000
0000
0000
0100
0000
,
0001
0010
0100
1000
0100
0010
0001
0010
0100
1000
0100
0010
,
0001
0000
0001
0000
1000
0000
1000
0000
0001
0000
0001
0000
1000
0001
0000
0000
,
1010
0001
0100
0010
1000
0100
1000
0001
,
0011
0000
0011
0000
0011
0000
0000
0000
0100
0000
0001
1000
0001
0000
0100
0000
,
0100
0000
0010
0000
1000
0000
0000
0000
1100
0000
0000
0000
1100
0000
0001
0100
,
0020
0000
1000
0000
1000
0000
0100
0000
0130
0000
0000
1000
0001
0000
0100
0010
,
0100
0000
0001
0000
0011
0000
0000
0000
1100
0000
0001
0100
0000
0010
1000
0010
,
1000
0100
1000
0100
1000
0000
0010
0100
0001
0000
0010
0000
0001
1000
0001
1000
,
0001
0000
0010
0000
1001
0000
0000
0000
0110
0000
0001
0010
0100
0000
1000
0010
,
0100
0001
0100
1000
0100
0001
0100
0001
0100
1000
0100
0001
,
0010
0000
0000
0000
0010
0000
0010
0001
0100
0000
0100
0000
0010
1000
0010
1000
,
0001
0100
0100
0000
2010
0100
3001
0001
,
0010
0001
0010
0100
0000
0100
1000
0000
0000
1000
0001
1000
,
0010
0000
0000
0000
0101
0000
0000
0000
1000
0100
0001
0000
0010
0000
0001
0000
,
0200
0000
0000
0000
0310
0000
1000
0001
2000
0000
0010
0000
3010
0000
1000
0001
,
0200
0000
0000
0010
0300
0000
0100
0001
2000
0000
0000
0000
3000
0000
1000
0001
,
0100
0010
1000
0010
0100
0000
0001
1000
0010
1000
0001
0000
,
0100
0000
0100
0000
0001
0010
0001
0000
1000
0000
1000
0000
1100
0000
0000
0000
,
0011
0001
1000
0001
0010
0000
0000
0000
,
0100
0000
0100
1000
0000
0000
0000
0000
,
0010
1000
0010
1000
0001
0000
0000
0000
,
0100
0000
0100
0001
0010
0000
0000
0000
,
1000
0000
0000
0100
0000
0000
0001
0000
0000
0100
0000
0000
1000
0000
0000
0000
0010
0000
0000
0000
0100
0000
0001
0000
,
1000
0000
0000
0000
0000
0000
1000
0000
0000
0001
0000
0000
0100
0000
0000
0000
0010
0000
0000
0000
1000
0000
0001
0000
,
0100
0010
0001
0010
1000
0100
0100
0000
,
1000
0000
0000
0000
0010
0000
1000
0000
0001
0000
0100
0000
0100
0000
0001
0010
,
0100
1000
0001
0100
1001
0010
1000
0001
,
0010
0001
0100
0010
1001
1000
0100
0000
,
0010
0001
0100
0010
1001
0100
1000
0001
,
0010
0000
0001
0100
0000
0001
0100
0000
1001
0000
0000
0000
1001
0000
0000
0000
,
0010
1000
0010
1000
0110
0001
0010
0100
,
1000
0010
1000
0100
0110
0001
1000
0100
,
0010
0001
1000
0001
0110
1000
0110
0001
,
1000
0000
0000
0100
0000
0000
0010
0000
0000
0100
0000
0000
1000
0000
0000
0010
0000
0000
0100
0000
0000
0010
0000
0000
1000
0000
0000
0000
0100
0000
0000
0000
0010
0000
0000
0000
0001
0000
0000
0000
0000
0000
0001
0000
0000
0000
0000
0000
,
0010
0000
0000
0001
0000
0000
0100
0000
0000
0000
0000
0000
0010
0000
0000
1000
0000
0000
0100
0000
0000
0000
0010
0000
,
0001
0000
0000
0100
0000
0000
1000
0000
0000
0100
0000
0000
0001
0000
0010
0000
0100
0000
1000
0000
0000
0000
0010
0000
,
1000
0000
0000
0100
0000
0000
0001
0000
0000
0100
0000
0000
1000
0000
0000
0010
0000
0000
0100
0000
0000
0000
0001
0000
,
0010
0000
0000
0100
0000
0000
1000
0000
0000
0001
0000
0000
0011
0000
0000
0000
1100
0000
0000
0000
0011
0000
0000
0000
,
1000
1000
0010
0010
0100
0100
0001
0001
,
0010
0010
0001
0001
1000
1000
0100
0100
,
1000
0010
1000
0010
0100
0001
0100
0001
1000
0100
1000
0100
0010
0001
0010
0001
,
0100
1000
0001
0010
1000
0001
0010
0001
0100
0001
0100
0010
1000
0010
0100
1000
,
0001
0000
0001
0000
1000
0000
1000
0000
0001
0000
0001
0000
1000
0001
0000
0000
,
1010
0000
0000
0000
0101
0000
0000
0000
0010
0000
0010
0000
1000
0001
1000
0001
,
1000
0000
0100
0000
0010
0000
0100
0000
1000
0000
0000
0000
0102
0000
0000
0010
0000
0000
1003
0000
0000
1000
0000
0000
,
1100
0000
0000
0000
0000
0000
0000
0000
0000
0000
0000
0000
1000
0000
0000
0000
0100
0000
0000
0000
0010
0000
0000
0000
0001
0000
0000
0000
0010
0000
0000
0000
0100
0000
0000
0000
1000
0000
0000
0000
0000
0000
0001
0000
0000
0100
0000
0000
,
0001
0010
0100
0010
0001
0000
0000
0000
0110
0000
0000
0000
1001
0000
0010
0100
,
0002
0000
0010
0000
0013
0000
0001
1000
0020
0000
0100
0000
0130
0000
1000
0001
,
0010
0000
0000
0000
0000
0000
0000
0000
0000
0000
0000
0000
0010
0000
0000
0000
0000
0000
0000
0000
0000
0000
0000
0000
0001
0000
0000
0000
0100
0000
0000
0000
0010
0000
0000
0000
1000
0000
0000
0100
0000
0000
1000
0000
0000
0000
0000
0000
,
0001
0000
0100
0000
1000
0000
0000
0000
0001
0010
0001
0010
0100
0000
0000
0000
,
1000
0000
0010
0000
0100
0000
0001
0000
0000
0000
0000
0000
1000
0000
0100
0000
0010
0000
0001
0000
0000
1000
0000
0000
,
1100
0000
0101
0000
0020
0032
2003
3020
,
0130
0001
0100
0001
1000
0100
1000
0100
0010
0000
0000
0000
0010
0000
0001
0000
,
1000
0000
0000
0100
0000
0000
1000
0000
0000
0000
0000
0000
0001
0000
0000
0000
0000
0000
0001
0000
0000
0000
0000
0000
0001
0000
0000
0000
0100
0000
0000
0000
0010
0000
0000
0000
1000
0000
0000
0000
0000
0000
0000
0000
0000
0000
0000
0000
,
1001
0000
0100
0000
0001
0000
0100
0000
1001
0000
0000
0000
0010
0000
1000
0001
,
1000
0100
1000
0100
0000
0000
0001
0100
0001
0100
0000
0000
,
1000
0000
0000
0000
0100
0000
0000
0000
0001
0000
0000
0000
0100
0000
0000
0000
0000
0000
0000
0000
0000
0000
0000
0000
0010
0000
0000
0100
0000
0000
0010
0000
0000
0100
0000
0000
0010
0000
0000
0000
0000
0000
0000
0000
0000
0000
0000
0000
,
0001
0100
0001
0100
0000
0000
1000
0100
1000
0100
0000
0000
,
2000
0000
3020
0000
2030
0000
3020
0000
2030
0000
3020
0000
2030
0000
3001
0100
,
0010
0000
0000
0000
;
