#TITLE:Missing Out;
#ARTIST:ockeroid;
#BANNER:Missing Out-bn.png;
#BACKGROUND:Missing Out-bg.png;
#JACKET:Missing Out-jacket.png;
#MUSIC:Missing Out.ogg;
#SAMPLESTART:16.269;
#SAMPLELENGTH:20;
#DISPLAYBPM:130;
#BPMS:0=130;
#STOPS:31.5=1.5;
#BGCHANGES:;

//---------------dance-single - ----------------
#NOTES:
     dance-single:
     :
     Beginner:
     1:
     :
0000
0000
0000
0000
,
0000
0000
0000
0000
,
0000
0000
0000
0000
,
0000
0000
0000
0000
,
1000
0000
0000
0000
,
0000
0000
0000
0000
,
0001
0000
0000
0000
,
1000
0000
0000
0000
,
0010
0000
1000
0000
,
0100
0000
0000
0000
,
1000
0000
0001
0000
,
0100
0000
0000
0000
,
0010
0000
0100
0000
,
0001
0000
0000
0000
,
0010
0000
0001
0000
,
1000
0000
0000
0000
,
1000
0000
0100
0000
,
1000
0000
0000
0000
,
0001
0000
0100
0000
,
0001
0000
0000
0000
,
0001
0000
0010
0000
,
0001
0000
0000
0000
,
1000
0000
0010
0000
,
1000
0000
0001
0000
,
0100
0000
0000
0000
,
0010
0000
0000
0000
,
1000
0000
0000
0000
,
0001
0000
0000
0000
,
1000
0000
0000
0000
,
0100
0000
0000
0000
,
0010
0000
0000
0000
,
0001
0000
0000
0000
,
0100
0000
0100
0000
,
0010
0000
0010
0000
,
1000
0000
0100
0000
,
1000
0000
0000
0000
,
0001
0000
0010
0000
,
0001
0000
0100
0000
,
0010
0000
1000
0000
,
0001
0000
0000
0000
,
1000
0000
0010
0000
,
1000
0000
0000
0000
,
0001
0000
0010
0000
,
0001
0000
0000
0000
,
1000
0000
0100
0000
,
1000
0000
0000
0000
,
0001
0000
0100
0000
,
0001
0000
0000
0000
,
0010
0000
0001
0000
,
0100
0000
0000
0000
,
0010
0000
1000
0000
,
0100
0000
0000
0000
,
1000
0000
0010
0000
,
0001
0000
0000
0000
,
0100
0000
0001
0000
,
1000
0000
0010
0000
,
0100
0000
0000
0000
;

//---------------dance-single - ----------------
#NOTES:
     dance-single:
     :
     Easy:
     7:
     :
0000
0000
0000
0000
,
0000
0000
0000
0000
,
0000
0000
0000
0000
,
0000
0000
0000
0000
,
2000
0000
0000
0000
,
0002
0003
0200
3300
,
0002
0000
0000
0000
,
2000
0000
0000
3003
,
0001
0010
0001
0100
,
1000
0010
0010
0000
,
1000
0100
1000
0001
,
0100
0010
0010
0000
,
1000
0100
1000
0010
,
1000
0001
0001
0000
,
0010
0001
0010
0100
,
2000
0001
0001
3000
,
1000
0001
1000
0100
,
0010
0001
0001
0000
,
0100
0001
0010
0001
,
1000
0100
0100
0000
,
1000
0010
0100
0001
,
0010
0100
0100
0000
,
1000
0010
1000
0001
,
0200
0000
0020
0330
,
2001
0010
0001
3100
,
0000
0001
1000
0100
,
0000
1000
0020
0030
,
2000
3000
0002
0003
,
1002
0100
1000
0013
,
0000
1000
0100
0001
,
0010
0100
1000
0000
,
0020
0000
0000
0030
,
0110
0001
0100
0001
,
0010
0100
1000
0010
,
1000
0001
1000
0001
,
2000
0000
0200
3300
,
0110
0010
0100
0010
,
0100
1000
0010
1000
,
0001
0001
0010
0001
,
0100
0000
0100
0010
,
1000
0100
1000
0010
,
2000
0001
0020
3030
,
0100
0001
0010
0001
,
2000
0100
0020
3030
,
0001
1000
0001
0010
,
0200
0001
2000
3300
,
0010
0100
0010
1000
,
0002
0100
0200
0303
,
0020
2030
3002
2003
,
3200
0010
0002
0303
,
0200
1000
0320
0230
,
2300
0001
0010
3000
,
0002
0023
0001
1000
,
0100
0032
2000
3003
,
0020
1000
0100
1000
,
0002
0030
0200
0003
,
0020
0000
0000
0000
,
0000
0000
0000
0000
,
0000
0000
0000
0000
,
0000
0000
0000
0000
,
0300
0000
0000
0000
,
0000
0000
0000
0000
,
0000
0000
0000
0000
,
0030
0000
0000
0000
;

//---------------dance-single - ----------------
#NOTES:
     dance-single:
     :
     Medium:
     9:
     :
0000
0000
0000
0000
,
0000
0000
0000
0000
,
0000
0000
0000
0000
,
0000
0000
0000
0000
,
2200
0000
0000
0000
0300
0001
0000
0002
,
0000
0003
0200
3300
,
0022
0000
0000
0000
0030
1000
0000
2000
,
0000
0000
0000
3003
,
0000
1000
0010
0100
0002
0000
0013
0001
,
0000
0200
0000
0000
0000
0000
0000
0000
,
0000
0000
0000
0000
0300
0000
0000
0000
0100
0000
0000
0001
0000
0000
1000
0000
,
0000
0020
0000
0000
0000
0000
0000
0000
,
0030
0100
0010
1000
0002
0000
1003
0100
,
0000
0020
0000
0000
0000
0000
0000
0000
,
0030
0000
0002
0000
0000
2003
0000
0000
3200
0000
0000
2300
0000
0000
3020
0200
,
0000
0000
0000
0000
0000
0000
0000
0330
,
0000
0010
1000
0100
2000
0000
3010
0100
,
0000
0002
0000
0000
0000
0000
0000
0000
,
0000
0000
0000
0000
0003
0000
0100
0000
0002
0000
0000
2003
0000
0000
3020
0000
,
0000
0000
0200
0000
0000
0000
0000
0000
0000
0000
0000
0000
0000
0000
0000
0330
,
0000
1000
0010
1000
0002
0000
0103
0010
,
0000
0000
2000
0000
0000
0000
0000
0000
0000
0000
0000
0000
0000
3000
0000
0000
,
0000
0000
0020
0000
0000
2030
0000
0000
3200
0000
0000
0320
0000
0000
0032
0000
,
0000
0000
0000
2003
0000
0000
3000
0000
,
1001
0010
1000
0200
,
0000
0000
1000
0000
0000
1000
0000
0300
2000
0000
0000
0000
0002
3000
0000
0000
,
0003
0000
0010
0000
0000
0001
0000
0000
0200
0000
0000
0000
0000
0300
0010
0000
,
2000
0000
0002
3003
,
0100
0010
1000
0000
0001
0000
1000
0100
,
0000
0000
0010
0000
0000
0010
0000
0000
0010
0000
0000
0000
0001
0000
0000
0000
,
0100
0010
1000
0000
0001
0100
0000
0200
,
0020
0000
0000
0000
0000
0000
0000
0000
0000
0000
0000
0300
0030
0000
0000
0000
,
0120
0032
0203
2300
,
3020
2030
3002
0203
,
0301
0010
0002
0000
2003
0000
3200
0000
,
2300
0000
0010
0000
0002
0000
3003
0100
,
0010
1000
0020
0000
2030
0000
3002
0000
,
0023
0230
2300
3002
,
0013
0001
2000
0000
3020
0000
1030
0001
,
0200
0000
0000
0000
0000
0000
0000
0000
0000
0300
0000
0000
0001
0000
0000
0000
2000
0000
0000
0000
0000
0000
0100
0000
0000
0000
0000
0000
3010
0000
0000
0000
,
0000
1000
0001
0010
0002
0000
0103
0010
,
0000
0200
0000
0000
0000
0000
0000
0000
,
0000
0000
0000
0000
0000
0000
0000
0000
0002
0000
0300
0023
0000
0000
0230
0000
,
0000
2300
0000
0000
0000
0000
0000
0000
0001
0000
0000
0000
0000
0000
3100
0000
,
1000
0010
1000
0100
0020
0000
0031
1000
,
0000
0002
0000
0000
0000
0000
0000
0003
,
0000
0000
0020
0000
0000
0032
0000
0000
0203
0000
0000
0320
0000
0000
2030
0002
,
0000
0000
0003
0000
0020
0030
0000
0001
,
3001
1000
0100
1000
0020
0000
0130
0002
,
0000
0000
2000
0000
0000
0000
0000
0003
0010
0000
0000
0000
0100
0000
0000
0000
,
3001
0000
1000
0000
0000
0000
0020
0000
2030
0000
0000
3200
0000
0000
2300
0000
,
0000
0002
0000
3000
0103
0010
0000
0100
,
0010
1000
0100
1000
0002
0000
0103
0002
,
0000
0000
0000
0020
0000
0000
0000
0000
0000
0000
0003
0000
1030
0000
0000
0010
0000
0000
0100
0000
0000
0000
0000
0000
,
0000
0000
2000
0000
0000
3200
0000
0000
0320
0000
0000
0032
0000
0000
0203
0000
,
0020
0000
0000
0000
0000
0000
0000
0000
0000
0000
0000
0000
0000
0030
0000
0000
0000
0000
0000
0000
0000
0000
0000
0000
0002
0000
0000
0000
0000
0000
0000
0000
0000
0000
0000
0000
0000
0000
0000
0000
0003
0000
0000
0000
0000
0000
0000
0000
0000
0000
0000
0000
0000
0000
0000
0000
0000
0000
0000
0000
0300
0000
0000
0000
,
0020
0000
0000
0000
,
0000
0000
0000
0000
,
0000
0000
0000
0000
,
0000
0000
0000
0000
,
0000
0000
0000
0000
,
0000
0000
0000
0000
,
0000
0000
0000
0000
,
0030
0000
0000
0000
;

//---------------dance-single - ----------------
#NOTES:
     dance-single:
     :
     Hard:
     11:
     :
0000
0000
0000
0000
,
0000
0000
0000
0000
,
0000
0000
0000
0000
,
0000
0000
0000
0000
,
2200
0000
0000
0000
0300
0001
0000
0002
,
0000
0003
0200
3300
,
0012
0020
0000
0000
0030
1000
0000
2000
,
0000
0000
0000
3003
,
0001
0100
1000
0100
0001
0010
0001
1000
,
0000
1100
0001
0000
0102
0100
1003
0001
,
0010
0001
0000
0100
0010
1000
0001
1000
,
0000
1010
0001
0000
0022
0000
0003
0130
,
0010
0001
0100
1000
0100
0001
1000
0010
,
0000
0101
1000
0000
1010
0001
0100
0010
,
1000
0000
0002
0000
0000
0000
0103
0000
0020
0000
0000
2030
0000
0000
3100
0020
,
0000
0000
0001
0000
0031
0000
0000
0000
1001
0000
0100
0000
0000
0000
0010
1000
,
0010
0100
1000
0100
0001
0010
0001
1000
,
0000
1100
0001
0000
0011
0100
1000
0010
,
0100
0000
0001
0000
0000
0000
0010
0000
0002
0000
0000
0203
0000
0000
0320
0000
,
0000
1030
0100
0000
0110
0001
1000
0010
,
0100
0010
1000
0100
0001
0100
1000
0001
,
0000
0011
1000
0000
0101
0100
0001
1000
,
0010
0000
2000
0000
0000
3002
0000
0000
0023
0000
0000
0032
0000
0000
0103
0000
,
0010
1000
0001
0200
0010
0000
0301
0000
,
1000
0000
0001
0100
1000
0100
0001
0000
,
0010
0000
0010
0000
0000
0001
0000
0000
2000
0000
0100
0000
3200
0000
0000
0000
,
1300
0000
0001
0000
0000
0010
0000
0000
0001
0000
0000
0000
0100
0000
0010
0000
,
1000
0100
0001
0000
0010
0001
0100
0000
,
0110
0001
1000
0100
0001
0100
1000
2001
,
0000
0000
0010
0000
0000
0001
0000
0000
3100
0000
1000
0000
0001
0000
0000
0000
,
0011
0001
0100
0000
0100
0010
1000
0001
,
2010
0000
0001
0000
0001
0000
3001
0100
,
0010
1000
0100
0000
1000
0010
0100
0001
,
0010
1000
0010
0001
0010
1000
0010
0001
,
0100
0010
1000
0000
0001
0010
0001
0100
,
2000
0010
0010
0000
3001
2000
0000
0100
,
3100
0001
1000
0001
0010
1000
0100
0010
,
1000
0010
0001
1000
0100
0010
0100
0001
,
0100
0010
1000
0001
1000
0001
0100
0010
,
0100
0000
0001
0000
0100
0000
0010
0000
2000
0000
0000
3002
0000
0000
1003
0000
,
0001
0100
1000
0100
0001
0010
0001
1000
,
0000
1010
0100
0000
1001
0001
0010
1000
,
0100
0001
0100
0010
0100
0001
0100
2000
,
0000
0001
3001
0000
0202
0000
0300
0010
,
0013
0001
1000
0100
0001
0100
1000
0010
,
0000
0101
0010
0000
0110
0001
1000
0100
,
1000
0000
0002
0000
0000
0023
0000
0000
0032
0000
0000
0203
0000
0000
0310
2000
,
0000
0100
3100
0000
2001
0010
0000
0100
,
3100
1000
0010
1000
0100
0010
0001
0100
,
0010
0001
0010
0100
0010
1000
0010
0100
,
0001
0000
0010
0000
0001
0000
1000
0000
0100
0000
0000
0010
0000
0000
0001
0000
,
1000
0010
1000
0000
0110
0001
0100
0000
,
0010
1000
0100
0001
0100
0010
0100
0001
,
0100
1000
0010
0000
1010
0001
0200
0010
,
0310
0000
1010
0000
0000
1100
0000
0000
0101
0000
0000
0011
0000
0000
1000
0000
,
0010
0100
1000
0100
0001
0010
1000
0000
,
0020
0200
0000
0000
0000
0000
0000
0000
,
0000
0000
0000
0000
,
0000
0000
0000
0000
,
0000
0000
0000
0000
,
0030
0000
0000
0000
,
0000
0000
0000
0000
,
0000
0000
0000
0000
,
0300
0000
0000
0000
;
