#TITLE:Miss Independent;
#SUBTITLE:;
#ARTIST:Kelly Clarkson;
#TITLETRANSLIT:;
#SUBTITLETRANSLIT:;
#ARTISTTRANSLIT:;
#GENRE:;
#CREDIT:;
#BANNER:Miss Independent-bn.png;
#BACKGROUND:Miss Independent-bg.png;
#LYRICSPATH:;
#CDTITLE:;
#MUSIC:Miss Independent.ogg;
#OFFSET:0.000000;
#SAMPLESTART:51.818001;
#SAMPLELENGTH:20.000000;
#SELECTABLE:YES;
#DISPLAYBPM:176.000000;
#BPMS:0.000000=176.000000
;
#STOPS:
;
#BGCHANGES:;
#KEYSOUNDS:;
#ATTACKS:;

//---------------dance-single - ----------------
#NOTES:
     dance-single:
     :
     Beginner:
     5:
     0.223705,0.291209,0.274725,0.000000,0.000000,171.000000,141.000000,30.000000,0.000000,0.000000,0.000000,0.223705,0.291209,0.274725,0.000000,0.000000,171.000000,141.000000,30.000000,0.000000,0.000000,0.000000:
0000
0000
0000
0000
,
0000
0000
0000
0000
,
0000
0000
0000
0000
,
0000
0000
0000
0000
,
1000
0000
1000
0000
,
1000
0000
0000
0000
,
0001
0000
0001
0000
,
1001
0000
1001
0000
,
0010
0000
0000
0000
,
1000
1000
1000
1000
,
0000
0000
0000
0000
,
0001
0001
0001
0001
,
0000
1000
0000
0000
,
0100
0100
0100
0000
,
1000
0000
1000
0000
,
1001
0000
1001
0000
,
0010
0000
0000
0000
,
0100
0100
0100
0000
,
0000
0000
0000
0001
,
0001
0000
1000
1000
,
0000
0010
0000
0100
,
0100
0100
0000
0000
,
0010
0010
0010
0000
,
0110
0000
0110
0000
,
0001
0000
0000
0100
,
0100
0100
0100
0000
,
0000
0000
0000
1000
,
1000
1000
1000
1000
,
1000
0000
0000
0001
,
0001
0000
0000
0000
,
0100
0100
0100
0000
,
0110
0000
0110
0000
,
0001
0001
0001
0000
,
0010
0000
0000
0000
,
1000
1000
1000
0000
,
0001
0001
0000
0000
,
0100
0100
0100
0000
,
0010
0000
0000
0000
,
0110
0000
0000
0000
,
1001
0000
0000
0000
,
0001
0000
0010
0000
,
0001
0000
0100
0000
,
1000
0000
0010
0000
,
1000
0000
0100
0000
,
1001
0000
0000
0000
,
0110
0000
0000
0000
,
1001
0000
0000
0000
,
0110
0000
0000
0000
,
0010
0000
0100
0000
,
0010
0000
0100
0000
,
0001
0000
1000
0000
,
0001
0000
1000
0000
,
1001
0000
0000
0000
,
0110
0000
0000
0000
,
1001
0000
0000
0000
,
0110
0000
0110
0000
,
0001
0000
0010
0000
,
0100
0100
0100
0000
,
1000
0000
0001
0000
,
1000
1000
1000
0000
,
0110
0000
0000
0000
,
1001
0000
0000
0000
,
0110
0000
0000
0000
,
1001
0000
0000
0000
,
1000
0000
0100
0000
,
0001
0001
0001
0000
,
0010
0000
0001
0000
,
0100
0100
0100
0000
,
0110
0000
0000
0000
,
1001
0000
0000
0000
,
0110
0000
0000
0000
,
1001
0000
1001
0000
,
1000
0000
0010
0000
,
0100
0000
0000
0000
,
0001
0000
1000
0000
,
0100
0000
0000
0000
,
1000
0000
0001
0000
,
0010
0000
0000
0000
,
0100
0000
0100
0000
,
0110
0000
1001
0000
;

//---------------dance-single - ----------------
#NOTES:
     dance-single:
     :
     Easy:
     7:
     0.327054,0.401671,0.128205,0.567766,0.000000,250.000000,236.000000,14.000000,62.000000,0.000000,0.000000,0.327054,0.401671,0.128205,0.567766,0.000000,250.000000,236.000000,14.000000,62.000000,0.000000,0.000000:
0000
0000
0000
0000
,
0000
0000
0000
0000
,
0000
0000
0000
0000
,
0000
0000
0000
0000
,
1000
0000
0001
0000
0100
0000
0000
0100
,
0000
0000
0000
0001
1000
0000
1000
0000
,
0010
1000
0001
0100
,
0220
0330
2002
3003
,
1000
0000
0010
0000
0100
0000
0000
0100
,
0000
0000
0000
0001
0010
0000
0010
0000
,
0001
0000
0100
0000
0010
0000
0000
0010
,
0000
0000
0000
1000
0001
0000
0001
0000
,
0010
0000
1000
0000
0001
0000
0000
0001
,
0000
0000
0000
0010
0100
0000
0100
0000
,
1000
0001
0100
0010
,
0220
0330
2002
3003
,
1000
0000
0010
0000
0100
0000
0000
0001
,
0000
0000
0000
1000
0100
0000
0100
0000
,
0010
0000
0001
0000
0100
0000
0000
0010
,
0000
0000
0000
1000
0001
0000
0001
0000
,
0010
0000
0001
0000
0100
0000
0000
0010
,
0000
0000
0000
1000
0001
0000
0001
0000
,
1000
0100
0010
0001
,
0220
0330
2002
3003
,
0010
0000
1000
0000
0001
0000
0000
0010
,
0000
0000
0000
0001
0100
0000
0100
0000
,
1000
0000
0100
0000
1000
0000
0000
0010
,
0000
0000
0000
0100
0001
0000
0001
0000
,
0010
0000
0001
0000
0010
0000
0000
0100
,
0000
0000
0000
0100
1000
0000
1000
0000
,
0001
0100
0010
1000
,
0220
0330
2002
3003
,
1000
0000
0001
0000
0010
0000
0000
0010
,
0000
0000
0000
1000
0100
0000
0100
0000
,
1000
0000
0010
0000
0100
0000
0000
0100
,
0000
0000
0000
0001
1000
0000
1000
0000
,
0010
0000
0100
0000
0010
0000
0000
1000
,
0000
0000
0000
0001
0100
0000
0100
0000
,
0220
0000
0330
0001
,
2002
0000
0000
3003
,
1000
0001
0010
0100
,
1000
0010
0200
0300
,
0010
1000
0001
1000
,
0100
0010
0002
0003
,
0000
0200
0000
0020
0000
0000
0330
0000
,
0000
2000
0000
0002
0000
0000
3003
0000
,
0000
0002
0000
2000
0000
0000
3003
0000
,
0000
0020
0000
0200
0000
0000
0330
0000
,
0001
0010
0001
0100
,
1000
0010
2000
3000
,
0100
0010
0001
0100
,
1000
0001
0020
0030
,
0000
0002
0000
0020
0000
0000
0033
0000
,
0000
0200
0000
2000
0000
0000
3300
0000
,
0000
0002
0000
2000
0000
0000
3003
0000
,
0110
0001
1001
0100
,
1000
0010
0100
0001
,
0010
0100
2000
3000
,
0100
1000
0010
0100
,
0001
1000
0002
0003
,
0000
2000
0000
0020
0000
0000
3030
0000
,
0000
0200
0000
0002
0000
0000
0303
0000
,
0000
0020
0000
0002
0000
0000
0033
0000
,
0000
2000
0000
0200
0000
0000
3300
0000
,
0010
1000
0100
0010
,
0100
1000
0002
0003
,
0100
0001
1000
0100
,
1000
0010
0002
0003
,
0000
0200
0000
0002
0000
0000
0303
0000
,
0000
2000
0000
0002
0000
0000
3003
0000
,
0000
0020
0000
0200
0000
0000
0330
0000
,
0000
0002
0000
2003
0000
3010
0000
0000
,
1000
0000
0100
0000
0010
0000
0000
0010
,
0000
0000
0000
0001
0100
0000
0100
0000
,
0001
0000
0010
0000
1000
0000
0000
1000
,
0000
0000
0000
0100
0010
0000
0010
0000
,
0100
0000
0010
0000
0001
0000
0000
0001
,
0000
0000
0000
0010
1000
0000
1000
0000
,
0100
1000
0001
0010
,
0220
0330
2002
3003
;

//---------------dance-single - ----------------
#NOTES:
     dance-single:
     :
     Medium:
     10:
     0.473574,0.511218,0.512821,0.714286,0.000000,362.000000,306.000000,56.000000,78.000000,0.000000,0.000000,0.473574,0.511218,0.512821,0.714286,0.000000,362.000000,306.000000,56.000000,78.000000,0.000000,0.000000:
// measure 0
0000
0000
0000
0000
,  // measure 1
0000
0000
0000
0000
,  // measure 2
0000
0000
0000
0000
,  // measure 3
0000
0000
0000
0000
,  // measure 4
1000
0000
0001
0000
0100
0000
0010
0100
,  // measure 5
0000
0000
0000
0001
0010
0100
1000
0000
,  // measure 6
0010
0100
0001
1000
,  // measure 7
2100
3001
0102
1003
,  // measure 8
0001
0000
0100
0000
1000
0000
0000
0010
,  // measure 9
0000
0010
0000
1000
0002
0000
0203
0000
,  // measure 10
0310
0000
1000
0000
0100
0000
0000
0001
,  // measure 11
0000
0001
0000
1000
0200
0000
0320
0000
,  // measure 12
0031
0000
1001
0000
0100
0000
0010
1000
,  // measure 13
0002
0000
2003
0000
3020
0000
0000
0230
,  // measure 14
0000
0001
1000
0310
,  // measure 15
1020
1030
0021
0031
,  // measure 16
0100
0000
0010
0000
1000
0000
0000
0001
,  // measure 17
0000
0001
1000
0000
0200
0000
0000
0000
,  // measure 18
1300
0010
0001
0100
,  // measure 19
0110
0000
1000
0002
0000
0000
0013
0000
,  // measure 20
0100
1001
0010
1000
,  // measure 21
0001
0010
0100
0000
0000
0000
0000
2000
,  // measure 22
0000
3020
0000
0230
0000
0301
1000
0000
,  // measure 23
2100
3010
0102
0013
,  // measure 24
1000
0001
0011
0100
,  // measure 25
0010
0000
1000
0002
0000
1003
0100
0000
,  // measure 26
0010
0001
0100
0110
,  // measure 27
0010
1000
0002
0000
0103
0000
1001
0000
,  // measure 28
1000
0100
0000
0000
0010
0000
0001
1000
,  // measure 29
0010
0000
0000
0100
0001
0100
0000
0020
,  // measure 30
0000
2030
0000
3002
0000
0103
0010
0000
,  // measure 31
2010
3100
0021
0130
,  // measure 32
1000
0001
1000
0010
0000
0100
0001
0000
,  // measure 33
0022
0000
0033
1000
0001
1000
0001
0000
,  // measure 34
1000
0010
0100
0010
1000
0000
0001
0010
,  // measure 35
0000
0001
1000
0200
0000
0000
0300
0000
,  // measure 36
1000
0001
0100
0000
0100
0000
0010
2000
,  // measure 37
0000
3002
0000
0013
0100
0010
0100
0000
,  // measure 38
0220
0000
0000
0000
0330
1000
0001
2000
,  // measure 39
0002
0000
0000
3003
,  // measure 40
1000
0010
0000
1000
0010
0000
0100
0001
,  // measure 41
0000
0100
0001
0000
2200
0000
3300
0000
,  // measure 42
0010
0001
0000
0010
0001
0000
1000
0100
,  // measure 43
0000
1000
0100
0000
0202
0000
0303
0000
,  // measure 44
0000
1100
0000
0202
0000
0000
0303
0000
,  // measure 45
0000
0011
0000
2020
0000
0000
3030
0000
,  // measure 46
0000
1100
0000
0022
0000
0000
0033
0000
,  // measure 47
0000
0101
0000
2020
0000
0000
3030
0000
,  // measure 48
0001
1000
0000
0001
1000
0000
0010
0100
,  // measure 49
0000
0010
0100
0000
0220
0000
0330
0000
,  // measure 50
0010
1000
0000
0010
1000
0000
0001
0100
,  // measure 51
0000
0001
0100
0000
2002
0000
3003
0000
,  // measure 52
0000
1100
0000
0022
0000
0000
0033
0000
,  // measure 53
0000
0101
0000
2200
0000
0000
3300
0000
,  // measure 54
0000
1010
0000
0202
0000
0000
0303
0000
,  // measure 55
0000
2000
0000
0002
0000
0000
3003
0000
,  // measure 56
0010
0001
0000
0001
0100
0000
0100
1000
,  // measure 57
0000
1000
0010
0000
0022
0000
0033
0000
,  // measure 58
0001
0010
0000
0010
1000
0000
1000
0100
,  // measure 59
0000
0100
0001
0000
2002
0000
3003
0000
,  // measure 60
0000
1100
0000
0102
0000
0010
0000
0103
,  // measure 61
0000
0011
0000
2010
0000
3001
0000
0000
,  // measure 62
0000
0110
0000
1002
0000
0010
0000
0103
,  // measure 63
0000
0011
0000
1100
0000
0101
0000
0000
,  // measure 64
0010
1000
0000
1000
0001
0000
0001
0100
,  // measure 65
0000
0100
0010
0000
0210
0000
0301
1000
,  // measure 66
0001
0010
0000
0010
0100
0000
0100
1000
,  // measure 67
0000
1000
0001
0000
2020
0000
3030
0000
,  // measure 68
0000
0011
0000
2100
0000
0001
0000
3100
,  // measure 69
0000
0011
0000
0110
0000
1100
0000
0000
,  // measure 70
0000
1001
0000
0120
0000
2030
0000
0000
,  // measure 71
0000
3002
0000
2003
0000
3020
0000
0230
,  // measure 72
0001
0000
1000
0000
0301
0000
0100
0010
,  // measure 73
0000
0000
0000
1000
0001
1000
0001
0000
,  // measure 74
0010
0000
0100
0000
1000
0000
0001
0100
,  // measure 75
0000
0000
0000
0010
1000
0010
1000
0000
,  // measure 76
0100
0000
1000
0000
0001
0000
0100
0010
,  // measure 77
0000
0000
0000
0100
0001
0100
0001
0000
,  // measure 78
1000
0001
0100
0010
,  // measure 79
2100
3001
0102
1003
;

//---------------dance-single - ----------------
#NOTES:
     dance-single:
     :
     Hard:
     13:
     0.646258,0.657280,0.347985,0.173993,0.000000,494.000000,456.000000,38.000000,19.000000,0.000000,0.000000,0.646258,0.657280,0.347985,0.173993,0.000000,494.000000,456.000000,38.000000,19.000000,0.000000,0.000000:
0000
0000
0000
0000
,
0000
0000
0000
0000
,
0000
0000
0000
0000
,
0000
0000
0000
0000
,
1000
0100
0001
0100
1000
0000
0010
0010
,
0000
0100
0000
0001
1000
0001
1000
0000
,
0010
1000
0100
0010
0001
0000
0001
0100
,
2010
3001
0012
1003
,
0001
0010
1000
0010
0001
0000
0100
0100
,
0000
0010
0000
1000
0001
0100
0010
0000
,
1000
0100
0001
0100
1000
0000
0010
0010
,
0000
1000
0000
0100
0010
0001
0100
0000
,
0010
1000
0001
1000
0100
0000
0010
0010
,
0000
0001
0000
0100
0001
1000
0010
0000
,
1000
0010
0100
0001
0010
0000
0100
1000
,
1200
0310
0201
0310
,
0100
0001
0100
1000
0010
0000
1000
1000
,
0000
0001
0000
0010
0001
0100
1000
0000
,
0010
0001
0010
1000
0100
0000
1000
1000
,
0000
0001
0000
1000
0001
1000
0100
0000
,
0001
0010
1000
0010
0001
0000
0100
0100
,
0000
0010
0000
0100
0010
1000
0001
0000
,
1000
0001
0010
0001
0100
0000
1000
0010
,
1001
0000
0100
0010
1000
0001
0010
0000
,
0100
0001
0100
1000
0001
0000
0100
0100
,
0000
0010
1000
0001
1000
0100
0010
0000
,
0001
0100
1000
0100
0010
0000
1000
1000
,
0000
0001
0010
0100
0001
0100
1000
0000
,
0010
1000
0001
0010
0100
0000
0100
0100
,
0000
1000
0010
0100
0001
0010
1000
0000
,
0100
0001
0010
0001
1000
0000
1000
0100
,
0012
1003
1200
0301
,
0100
1000
0001
1000
0100
0000
0010
0010
,
0000
0001
0010
0100
1000
0001
0100
0000
,
0010
0001
0010
1000
0010
0000
0100
0100
,
0000
0001
1000
0100
0001
0100
0010
0000
,
0001
1000
0100
0001
0100
0000
1000
1000
,
0000
0001
0100
0010
0001
0010
1000
0000
,
0220
0000
0000
0000
0330
1000
0001
1000
,
0200
0000
0000
0300
,
1000
0100
0000
0100
0001
0000
1000
0010
,
0000
0010
0001
0000
0200
0010
0310
0000
,
0100
0001
0000
0001
0010
0000
0010
1000
,
0000
1000
0100
0000
0002
1000
1003
0000
,
0010
1010
0000
0101
1000
0001
0100
0000
,
0001
0011
0000
1100
0100
1000
0010
0000
,
0100
0110
0000
1001
1000
0010
0001
0000
,
0010
0001
0010
0100
0010
1000
0010
0000
,
0001
0100
0000
0100
1000
0000
0001
0010
,
0000
0010
1000
0000
2000
0100
3100
0000
,
1000
0100
0000
0100
0001
0000
0001
0010
,
0000
0010
1000
0000
0020
0100
0130
0000
,
0001
1010
0000
1100
0010
1000
0100
0000
,
0010
0101
0000
0011
0001
1000
0100
0000
,
1000
1001
0000
0110
0100
0001
0010
0000
,
1000
0001
0010
0100
1000
0010
0100
0000
,
1000
0010
0100
0001
0010
0100
1000
0001
,
0000
0010
0001
0000
2100
0001
3001
0000
,
0010
1000
0010
0001
0010
1000
0100
0010
,
0000
0001
0100
0000
2001
0010
3010
0000
,
1000
0011
0000
1010
0010
0100
0001
0000
,
0010
1001
0000
0110
1000
0100
0001
0000
,
0100
0101
0000
1100
0001
0010
1000
0000
,
0100
0001
0100
0010
0100
1000
0100
0000
,
1000
0001
1000
0100
0010
0001
0100
0010
,
0000
0010
1000
0000
0102
0100
0103
0000
,
0001
0010
1000
0010
0100
1000
0001
0100
,
0000
0100
0010
0000
1020
1000
1030
0000
,
0001
0011
0000
0101
1000
0100
0010
0000
,
0100
1001
0000
1010
0010
1000
0001
0000
,
0010
1100
0000
0110
0001
1000
0100
0000
,
1000
0010
0100
0001
1000
0100
0001
0000
,
1000
0001
0010
1000
0010
0000
0100
0100
,
0000
1000
0000
0010
0100
0010
0100
0000
,
0001
0010
1000
0010
0001
0000
1000
1000
,
0000
0001
0000
1000
0100
0010
0001
0000
,
0100
0010
0100
1000
0100
0000
0001
0001
,
0000
1000
0000
0001
0010
0001
0100
0000
,
1000
0001
0010
0100
1000
0000
0010
0100
,
0102
1003
2010
3001
;
