#TITLE:Mighty Guy;
#ARTIST:CHIHOMI;
#BANNER:Mighty Guy-bn.png;
#BACKGROUND:Mighty Guy-bg.png;
#JACKET:Mighty Guy-jacket.png;
#MUSIC:Mighty Guy.ogg;
#OFFSET:0.6;
#SAMPLESTART:53.246;
#SAMPLELENGTH:20;
#DISPLAYBPM:156;
#BPMS:0=156;
#BGCHANGES:;

//---------------dance-single - ----------------
#NOTES:
     dance-single:
     :
     Beginner:
     2:
     :
0000
0000
0000
0000
,
1000
0000
0001
0000
,
0200
0000
0300
0000
,
0010
0000
0010
0000
,
2000
0000
3000
0000
,
0001
0000
0010
0000
,
0001
0000
1000
0000
,
0010
0000
0200
0000
,
0000
0000
0300
0000
,
0002
0000
0003
0000
,
2000
0000
3000
0000
,
0020
0000
0030
0000
,
1000
0000
0001
0000
,
2000
0000
3000
0000
,
0200
0000
0300
0000
,
0020
0000
0030
0000
,
0001
0000
1000
0000
,
0002
0000
0000
0000
,
0000
0000
0003
0000
,
0010
0000
0010
0000
,
0001
0000
1000
0000
,
0010
0000
0100
0000
,
0010
0000
1000
0000
,
0001
0000
0001
0000
,
0100
0000
0010
0000
,
1000
0000
0001
0000
,
0010
0000
0001
0000
,
0100
0000
0010
0000
,
0100
0000
0010
0000
,
1000
0000
0100
0000
,
2000
0000
3000
0000
,
0001
0000
0010
0000
,
0001
0000
0100
0000
,
0010
0000
0010
0000
,
0020
0000
0030
0000
,
1000
0000
0100
0000
,
0020
0000
0030
0000
,
0001
0000
1000
0000
,
0002
0000
0003
0000
,
1000
0000
1000
0000
,
0010
0000
0100
0000
,
0010
0000
1000
0000
,
0002
0000
0003
0000
,
0010
0000
0001
0000
,
0200
0000
0300
0000
,
0010
0000
1000
0000
,
0200
0000
0300
0000
,
0010
0000
0100
0000
,
0010
0000
0001
0000
,
1000
0000
0020
0000
,
0000
0000
0030
0000
,
2000
0000
3000
0000
,
0002
0000
0003
0000
,
0020
0000
0030
0000
,
0001
0000
0100
0000
,
0020
0000
0030
0000
,
0200
0000
0300
0000
,
0002
0000
0003
0000
,
1000
0000
0010
0010
;

//---------------dance-single - ----------------
#NOTES:
     dance-single:
     :
     Easy:
     6:
     :
0000
0000
0000
0000
,
1000
0001
0100
0000
,
0002
2000
0000
3003
,
0010
1000
0100
0010
,
0002
0000
0000
0003
,
1000
0010
0100
0001
,
0010
0100
1000
0001
,
0200
0000
0020
0000
,
0000
0000
0000
0330
,
1000
0010
1000
0001
,
0010
0100
1000
0010
,
1000
0001
0010
0100
,
1000
0010
1000
0001
,
0100
0001
0010
0100
,
1000
0010
0100
0010
,
1000
0100
0010
0001
,
0100
0010
1000
1001
,
2000
0000
0000
0000
,
0002
3003
0100
0110
,
0010
1000
0001
0000
,
0010
0001
0100
0000
,
0001
0010
0001
1000
,
0100
0010
0001
0000
,
0100
0001
0010
0000
,
0001
1000
0100
0000
,
1000
0010
0100
0001
,
0010
0100
1000
0000
,
0001
1000
0001
0100
,
0020
0030
1000
1000
,
0100
0010
0001
0100
,
0002
0000
0000
0003
,
1000
0001
0010
0001
,
0200
0300
0010
0010
,
1000
0010
1000
0001
,
0200
0000
0010
0310
,
1000
0001
1000
0100
,
0010
0001
0000
0100
,
0001
0010
0001
1000
,
0020
0000
0000
0030
,
1000
0001
1000
0100
,
0010
0001
0100
0010
,
1000
0100
1000
0001
,
2000
0000
0001
3001
,
0010
0001
0100
0001
,
1000
0010
0000
0100
,
0001
0010
0001
0100
,
2000
0000
0000
3000
,
0010
1000
0001
0010
,
0100
0010
0001
0100
,
2000
0000
0002
0000
,
0000
0000
0000
3003
,
0010
0001
0100
1000
,
0010
1000
0100
0010
,
0001
0100
0001
0010
,
0100
1000
0010
0100
,
0001
0010
0001
0100
,
1000
0001
1000
0010
,
0100
0001
0010
0100
,
1000
0010
0110
1001
;

//---------------dance-single - ----------------
#NOTES:
     dance-single:
     :
     Medium:
     9:
     :
0000
0000
0000
0000
,
2000
0000
3002
0000
0203
0000
0301
1000
,
0000
1000
0200
0000
0000
0000
0300
1000
,
0001
0000
0000
0020
0000
0230
0000
2300
,
0000
3000
0000
1100
0000
0101
0000
1000
,
0001
0000
0010
0000
0001
0000
0100
0001
,
1000
0000
0010
0000
0100
0000
0010
1000
,
0002
0000
0003
0100
0020
0000
0030
1000
,
0002
0000
0003
0100
0010
0100
0010
0100
,
0002
0000
0000
0000
0003
1000
0001
0200
,
0000
0000
0000
0000
0300
0010
1000
0002
,
1000
0000
0000
0000
0003
0010
0001
0200
,
0000
0320
0000
2030
0000
3001
1000
0100
,
0020
0000
0000
0000
0030
0001
1000
0020
,
0000
0000
0000
0000
0030
1000
0100
0020
,
0100
0000
0000
0000
0030
0001
1000
0002
,
0000
0023
0000
0032
0000
2003
0000
3020
,
0000
0000
0000
0000
0000
0000
0030
0100
,
0020
0000
0030
0000
1000
0001
0010
0100
,
2000
0000
3010
0100
0000
0010
0000
1000
,
0001
0010
0001
2000
0000
3200
0000
0300
,
0010
0000
0000
0000
0001
0000
0000
0000
1000
0000
0000
0000
0010
0000
0000
0100
,
0010
0000
1000
0200
0000
0320
0000
0031
,
1000
0010
1000
0002
0000
0203
0000
0300
,
0001
0010
0001
2000
0000
3200
0000
0310
,
0001
0000
1000
0002
0000
0013
0001
0100
,
0000
0010
1000
0002
0000
1003
0000
0100
,
1000
0000
0010
0100
0000
0101
0000
2200
,
0000
0300
0001
3100
,
0020
0000
0130
0001
0000
0011
0000
1020
,
0000
0001
0000
1000
0000
0031
0000
0010
,
0100
0000
0001
1000
0000
1001
0000
0220
,
0000
0300
1000
0130
,
1000
0000
0001
0010
0000
0001
1000
0020
,
0000
0230
0000
0301
1000
0001
1000
0000
,
0020
0000
2030
0000
3002
0000
0013
0001
,
0000
1000
0020
0000
0030
1000
0100
0010
,
0000
0001
1000
0001
0000
0010
0100
2000
,
0000
3000
0000
1010
0000
0011
0000
0001
,
2000
0000
0000
0000
3200
0000
0000
0000
0320
0000
0000
0000
0031
0000
0000
1000
,
0001
0000
0100
0010
0000
0000
2000
0000
,
3200
0000
0000
0000
1300
0000
0000
0001
1000
0000
0010
0000
0100
0000
0002
0000
,
0000
2003
0000
3010
0100
0010
0100
0000
,
0002
0000
2003
0000
3200
0000
0310
0001
,
0000
1000
0020
0000
0030
0100
0001
0010
,
0000
0001
1000
0010
0000
1000
0001
0200
,
0000
0300
0000
0110
0000
1001
0000
1000
,
0002
0000
0000
0000
2003
0000
0000
0000
3002
0000
0000
0000
0103
0000
0000
0010
,
0100
0000
0001
1000
0000
0000
0020
0000
,
0230
0000
0300
0002
2000
0000
0003
0000
,
0001
0100
0001
3010
,
2000
0000
0010
0000
3100
0001
1000
0002
,
0000
0000
0010
0000
1003
0010
1000
0200
,
0001
0000
0010
0000
1300
0010
0100
0002
,
0000
2003
0000
3020
0000
1030
0100
0010
,
0002
0000
1000
0000
0103
0010
1000
0020
,
0000
0000
0001
0000
1030
0010
0100
0002
,
0010
0000
1000
0000
0013
0001
1000
0200
,
0000
2300
0000
3002
0000
0103
0010
0100
;

//---------------dance-single - ----------------
#NOTES:
     dance-single:
     :
     Hard:
     12:
     :
0000
0000
0000
0000
,
2000
0000
3020
0000
0230
0000
0301
1000
,
0000
1000
0200
0000
0000
1300
0001
0200
,
0000
0310
1000
0002
0000
0013
0100
2000
,
0000
3000
0000
1100
0000
0101
0000
1000
,
2000
0000
0000
0000
3002
0000
0000
0000
0023
0000
0000
0000
0031
0000
0000
1000
,
0002
0000
1003
0020
0000
1030
0001
0011
,
0012
0000
0103
1010
2010
0000
3100
1001
,
1001
0000
1000
0010
1000
0001
0010
0100
,
1000
0000
0000
0010
1000
0000
0001
0000
0010
0000
0100
0000
1000
0000
0010
0000
,
0100
0000
0000
0001
1000
0000
0001
0000
0010
0000
0100
0000
1000
0000
0010
0000
,
0100
0000
0000
0001
0010
0000
0001
0000
1000
0000
0010
0000
0100
0000
0001
0000
,
0010
0001
1000
0010
1000
0100
0010
0001
,
0100
0000
0010
1000
0000
0000
0001
0000
0010
0000
0001
0000
1000
0000
0010
0000
,
0100
0000
0001
0010
0000
0000
0100
0000
1000
0000
0010
0000
0100
0000
0001
0000
,
0010
0000
0001
1000
0000
0000
0001
0000
0100
0000
0010
0000
1000
0000
0100
0000
,
0010
0001
1000
0001
0100
0010
1000
1100
,
0000
0101
0000
0000
0001
0000
0000
1000
0000
0000
0001
0000
0000
1000
0000
0000
,
0010
0000
0000
0010
0000
0000
0010
0000
1000
0001
1000
0000
0100
0000
1000
0001
,
1000
0000
0000
0010
0100
0000
0001
0000
0000
0010
0001
0000
1000
0000
0100
0000
,
1000
0000
0001
0000
1000
0000
0010
0000
0000
0100
0010
0000
0100
0000
0001
0000
,
0020
0000
0000
0000
0032
0000
0000
0000
1003
0000
0000
0000
1001
0000
0000
0010
,
0200
0000
0301
0011
0000
1000
2000
0000
,
3010
0000
1000
0000
0010
0000
0100
0000
0000
0001
1000
0000
0001
0000
0100
0000
,
0010
0000
1000
0000
0001
0000
0100
0000
0000
0001
0010
0000
0100
0000
1000
0000
,
0020
0000
1030
0002
0000
0103
0010
2000
,
0000
0000
3100
0000
1000
0000
0002
0000
0000
0000
0103
0000
0010
1000
0010
0000
,
1000
0000
0000
0001
1000
0000
0010
0000
0000
0000
0100
0000
0001
0000
1000
0000
,
0100
0010
0000
0100
0010
0000
0000
0000
0001
1000
0000
0001
1000
0000
0000
0000
,
0010
0000
0000
1000
0001
0000
0010
0000
0000
0000
0100
0000
1000
0000
0002
0000
,
0000
0000
0013
0000
0001
0000
0100
0000
0000
0000
0200
0000
0000
0000
0301
1000
,
0001
0000
0000
0010
0001
0000
0100
0000
0000
0000
0010
0000
1000
0000
0001
0000
,
0000
0000
0000
1000
0100
0000
0000
0000
2000
0000
0000
0000
3002
0000
0000
0000
,
0013
0000
0000
0001
1000
0000
0100
0000
0000
0000
1000
0000
0010
0000
0200
0000
,
0000
0302
0000
1003
1000
0001
0100
0000
,
0100
0010
0000
0000
0010
1000
0000
0000
0110
0000
0000
0000
1000
0000
0001
0000
,
0000
0100
0202
0000
0303
1000
0001
0200
,
0000
0310
1000
0002
0000
0013
0100
2000
,
0000
3010
1000
1010
0000
0011
0000
0100
,
0200
0000
0000
0000
0302
0000
0000
0000
2003
0000
0000
0000
3010
0000
0000
1000
,
0200
0000
1300
0010
0000
0100
0001
0000
,
1001
0000
0000
0000
0110
0000
0000
0001
1000
0000
0100
0000
1000
0000
0002
0000
,
0000
2003
0000
3010
0010
1000
0001
0000
,
0001
0010
0000
0000
0010
0100
0000
0000
1100
0000
0000
0000
1000
0000
0001
0000
,
0000
1000
2020
0000
3030
0100
1000
0002
,
0000
0013
0001
2000
0000
3001
1000
0200
,
0000
0310
0001
1001
0000
0110
0000
1000
,
2000
0000
0000
0000
3020
0000
0000
0000
0230
0000
0000
0000
0301
0000
0000
0010
,
0001
0100
0010
2000
0000
3001
0100
0000
,
0020
0000
0000
0000
0000
0000
1030
0001
2000
0000
0000
0000
0000
0000
0000
0000
,
3100
1000
0010
1000
0100
1000
0001
0100
,
0010
0000
0000
1000
0001
0000
0010
0000
0001
0000
0100
0000
1000
0000
0100
0000
,
0010
0000
0000
1000
0100
0000
0010
0000
0001
0000
0100
0000
0001
0000
1000
0000
,
0001
0000
0000
0010
0001
0000
0100
0000
0010
0000
1000
0000
0100
0000
1000
0000
,
0010
0001
0010
1000
0100
1000
0001
0100
,
0010
0000
1000
0100
0000
0000
1000
0000
0001
0000
0010
0000
0001
0000
0100
0000
,
1000
0000
0100
0001
0000
0000
0010
0000
0001
0000
1000
0000
0010
0000
0100
0000
,
0001
0000
0010
0100
0000
0000
1000
0000
0010
0000
1000
0000
0100
0000
0001
0000
,
0100
0010
0100
1000
0001
0100
1001
1001
;
