#TITLE:Metal Optional X;
#ARTIST:J-Mi & Midi-D;
#BANNER:Metal Optional X-bn.png;
#BACKGROUND:Metal Optional X-bg.png;
#JACKET:Metal Optional X-jacket.png;
#MUSIC:Metal Optional X.ogg;
#OFFSET:-0.125;
#SAMPLESTART:39.84;
#SAMPLELENGTH:20;
#DISPLAYBPM:133;
#BPMS:0=133;
#BGCHANGES:;

//---------------dance-single - ----------------
#NOTES:
     dance-single:
     :
     Beginner:
     3:
     :
0000
0000
0000
0000
,
0000
0000
0000
0000
,
0000
0000
0000
0000
,
1000
0000
0001
0000
,
1001
0000
0000
0000
,
0010
0000
0000
0000
,
1000
0000
1000
0000
,
0100
0000
0010
0000
,
0001
0000
1000
0000
,
0010
0000
0010
0000
,
0110
0000
0000
0000
,
0001
0000
0001
0000
,
1000
0000
1000
0000
,
0010
0000
0100
0000
,
0001
0000
1000
0000
,
0100
0000
0100
0000
,
0010
0000
0010
0000
,
0001
0000
0100
0000
,
0010
0000
1000
0000
,
0100
0000
0000
0110
,
0000
0000
0000
0000
,
1001
0000
0000
0000
,
0001
0000
0010
0000
,
0001
0000
1000
0000
,
0100
0000
0010
0000
,
0001
0000
0100
0000
,
0001
0000
0010
0000
,
0100
0000
0010
0000
,
0001
0000
0100
0000
,
0010
0000
1000
0000
,
0100
0000
0000
1001
,
0000
0000
0000
0000
,
0110
0000
0000
0000
,
0001
0000
0010
0000
,
0001
0000
0100
0000
,
0010
0000
0010
0000
,
1000
0000
0001
0000
,
0010
0000
0100
0000
,
1000
0000
0010
0000
,
1000
0000
0100
0000
,
0010
0000
0001
0000
,
0100
0000
0000
0110
,
0000
0000
0000
0000
,
1001
0000
0000
0000
,
0001
0000
0010
0000
,
0100
0000
0010
0000
,
0100
0100
0100
0000
,
1000
1000
1000
0000
,
0010
0000
1000
0000
,
0100
0000
0010
0000
,
0100
0000
1000
0000
,
0010
0000
0100
0000
,
0001
0000
0000
1001
,
0000
0000
0000
0000
,
0110
0000
0000
0000
,
0001
0000
0010
0000
,
0100
0000
1000
0000
,
0001
0001
0001
0000
,
0010
0010
0010
0000
,
0001
0000
0100
0000
,
0010
0000
1000
0000
,
0100
0000
0010
0000
,
0100
0000
1000
0000
,
0010
0000
0000
0110
,
0000
0000
0000
0000
,
1001
0000
0000
0000
,
1001
0000
0010
0000
,
0110
0000
0001
0000
,
0010
0000
0100
0000
,
1000
0000
0110
0000
,
1001
0000
0000
0000
;

//---------------dance-single - ----------------
#NOTES:
     dance-single:
     :
     Easy:
     8:
     :
0000
0000
0000
0000
,
0000
0000
0000
0000
,
0000
0000
0000
0000
,
0010
0000
1000
0001
0000
0000
0110
0000
,
1002
1000
0100
1000
,
0010
0000
0100
0000
0010
0000
1003
0001
,
0100
0000
0001
2000
0000
0000
3000
0000
,
1100
0000
0020
0200
0000
0000
0330
0000
,
2000
0000
0000
3002
0000
0000
0103
0000
,
0101
0000
0011
0000
,
1010
0001
0100
0001
,
0010
0000
0000
0011
0000
0000
0000
0001
,
1000
0000
0000
1100
0000
0000
0000
0000
,
0020
0000
0000
2000
0000
0000
3030
0001
,
0200
0000
0000
0302
0000
0000
0023
0000
,
0031
1000
0000
0110
0000
0000
0000
0001
,
0100
0000
0000
1010
0000
1000
0100
0000
,
1010
0000
0000
0101
0000
0001
1000
0000
,
0110
0000
0000
2001
0000
0000
3020
0000
,
2030
0000
0000
3002
0000
0000
0023
0000
,
1000
0000
0000
0002
0000
0000
0030
0000
,
0203
0000
0010
0000
0001
0000
0310
1000
,
0100
0000
1000
0010
0000
0000
0000
0100
,
0001
0000
0010
0001
0000
0000
1000
0010
,
0100
0000
0001
1000
0000
0000
0000
0010
,
1000
0000
0100
0020
0000
0000
0032
0000
,
1003
0000
0010
0100
0001
0000
0011
0000
,
0100
0000
1000
0001
0100
0000
1010
0000
,
0010
0000
1000
0100
1000
0000
0110
0000
,
0001
0000
0000
2100
0000
0000
3200
0000
,
1300
0010
1000
0002
0000
0000
0203
0000
,
0010
0000
0000
0002
0000
0000
0300
0000
,
2003
0100
0001
3100
,
1001
0000
0010
0000
1000
0000
0100
0010
,
0001
0000
0100
0010
0000
0000
1000
0001
,
2000
0000
3100
0020
0000
0000
0031
0000
,
0200
0000
0301
2000
0000
3001
0020
0000
,
0031
0000
0100
0010
1000
0000
0000
0100
,
1000
0000
0000
0110
0000
0001
1000
0001
,
0010
0000
0000
1100
0000
0000
1000
0000
,
0011
0000
0000
0102
0000
0000
2003
0000
,
3200
0000
0000
0320
0000
0000
0032
0000
,
1003
0000
0000
0220
0000
0000
0300
0000
,
0001
0100
0001
1030
,
0010
0000
0001
0000
0100
0010
1000
0001
,
0100
0000
0010
0000
1000
0100
1000
0001
,
0020
0000
0031
2000
0000
0000
3000
0000
,
1010
0000
1000
0200
0000
0310
0002
0000
,
0103
0000
0001
0000
0010
0001
1000
0010
,
0100
0000
0010
0000
1000
0001
0010
0100
,
1000
0000
0010
0000
1000
0100
0010
0001
,
0100
0000
0000
1002
0000
0000
0203
0000
,
0301
0010
0001
2000
0000
0000
3020
0000
,
0100
0000
0000
2000
0000
0000
0030
0000
,
3200
0000
0001
0000
0010
0000
1300
0100
,
1000
0000
0010
0100
0000
0001
1000
0001
,
0100
0000
0000
0101
0000
0010
1000
0001
,
0100
0010
0100
0020
0000
0000
0030
0000
,
1010
0000
1000
0002
0000
1003
0200
0000
,
0310
0001
0100
0001
0000
0000
0000
1000
,
0010
0000
0000
1001
0000
0000
0011
0000
,
1000
0000
0000
0010
0000
0000
0100
0001
,
1000
0000
0000
2100
0000
0000
3002
0000
,
0023
0000
0000
0032
0000
0000
2003
0000
,
3020
0000
0000
0200
0000
0000
0330
0000
,
0110
1001
0110
1001
,
0110
1000
0010
0100
,
0001
0010
0001
1000
,
0010
0000
1000
0001
0000
0101
0000
0001
,
0010
0000
0100
2000
0000
0000
3000
0000
,
2002
0000
0000
0000
,
0000
0000
0000
0000
,
3003
0000
0000
0000
;

//---------------dance-single - ----------------
#NOTES:
     dance-single:
     :
     Medium:
     11:
     :
0000
0000
0000
0000
,
0000
0000
0000
0000
,
0000
0000
0000
0000
,
0001
0000
0100
0010
0000
1000
0001
0000
,
1001
0000
0010
1000
0000
0100
0010
0001
,
0100
0000
0010
1000
0000
0001
1000
0100
,
0010
0000
0001
2000
0000
0000
3000
0000
,
1100
0000
0001
0200
0000
0310
1000
0000
,
1000
0010
1000
0002
0000
0013
0100
0000
,
0110
0001
0101
1000
,
1001
0001
1000
0001
1000
0001
1000
0100
,
0010
0001
1000
0001
0000
0100
0100
0000
,
0110
0000
1000
0001
0000
0010
0100
0000
,
2000
0000
3010
0200
0000
0301
0010
0100
,
2000
0000
3001
0020
0000
0031
0200
0000
,
0310
1000
0100
0010
0000
0001
0001
0000
,
0011
0000
1000
1100
0000
0010
0100
0000
,
0101
0000
0010
0110
0000
0001
1000
0000
,
0020
0000
1030
2001
0000
3001
0100
0000
,
0010
1000
0100
0020
0000
0031
2000
0000
,
3010
0000
0000
2020
0000
0000
0030
0000
,
3001
1000
0001
1000
0001
1000
0001
0100
,
0010
1000
0100
0010
0001
0100
1000
0000
,
0001
0010
0001
0100
0010
1000
0001
0000
,
0010
0000
0001
0100
0000
0001
1000
0000
,
1001
0000
0100
0120
0000
0031
2000
0000
,
3010
1000
0100
0010
0000
0001
1000
0000
,
0001
0100
0001
0010
0000
0100
1000
0000
,
0010
0000
1000
0001
0000
0010
0100
0000
,
1000
0001
0100
0201
0000
0310
2000
0000
,
3100
0010
0001
0021
0000
0031
2001
0000
,
3010
0000
0000
0202
0000
0000
0003
0000
,
0301
0010
0001
1000
0001
0010
0001
1000
,
0100
0010
0001
0100
0001
0010
0100
0000
,
1000
0010
1000
0001
0010
0100
1000
0000
,
0010
0100
0010
2000
0000
3001
0100
0000
,
0001
0010
0001
0200
0000
0310
2000
0000
,
3100
0000
1000
0001
1000
0010
0100
0001
,
0010
0000
0001
0100
0010
1000
0001
0010
,
0001
0000
0100
0010
1000
0100
0010
0001
,
0100
0010
1000
0001
0000
0010
0200
0000
,
1300
0001
1000
1010
0000
0100
0110
0000
,
0001
0000
0000
0022
0000
0000
0030
0000
,
1003
0100
0010
0001
1000
0100
0010
0001
,
1001
0000
0010
1000
0001
1000
0100
0010
,
0110
0000
0001
0010
0001
1000
0010
0100
,
0001
1000
0001
0010
0000
0000
0100
1000
,
0010
0100
0010
0210
0000
0301
0200
0000
,
0310
1000
0100
1000
0001
0010
0100
0000
,
1000
0000
0010
1000
0100
0010
0001
0000
,
1100
0000
0010
0100
0000
0001
1000
0100
,
0010
0001
1000
1020
0000
0130
0020
0000
,
1030
0100
1000
0001
0100
0001
0012
0000
,
2003
0000
3000
2002
0000
0000
3000
0000
,
0013
0001
1000
0010
1000
0001
0010
0100
,
1000
0000
0010
0100
0000
0010
1000
0001
,
0010
0000
0001
1000
0000
0100
1000
0010
,
0100
0000
0001
1000
0000
0001
0100
0000
,
0011
0000
1000
2010
0000
3001
0200
0000
,
0310
1000
0010
0100
0001
0010
0001
1000
,
0100
0010
0001
0100
0001
1000
0010
0100
,
0001
0010
0001
1000
0010
1000
0100
0010
,
0001
0100
0001
0102
0000
1003
1200
0000
,
0310
0001
0100
0010
1000
0001
0021
0000
,
0032
0000
0003
2200
0000
0000
3000
0000
,
1300
0010
0100
0010
0100
0001
1000
0001
,
0010
0000
0001
0100
0010
1000
0100
0010
,
0110
0000
1000
0010
1000
0100
0010
0001
,
0101
0000
1000
2010
0000
3002
0000
0013
,
0001
1000
0100
0210
0000
1300
1100
0000
,
2002
0000
0000
0000
,
0000
0000
0000
0000
,
3003
0000
0000
0000
;

//---------------dance-single - ----------------
#NOTES:
     dance-single:
     :
     Hard:
     14:
     :
0000
0000
0000
0000
,
0000
0000
0000
0000
,
0000
0000
0000
0000
,
1010
0000
0100
1001
0000
0010
0110
0000
,
0101
1000
1000
0001
0001
0010
0001
0100
,
0010
1000
1000
0100
0100
0010
0001
1000
,
0020
1000
1030
0002
0010
0013
0001
0100
,
0110
0010
1000
2100
0000
0001
3002
0000
,
0013
0001
0100
2010
0000
3001
0200
0000
,
0320
1000
1030
0000
0200
1000
1300
0000
,
1001
0000
0001
0000
0100
0000
0010
0000
0100
0000
0001
0000
1000
0100
1000
0000
,
0010
0100
0001
0011
1000
0001
0100
0010
,
1000
0000
0100
0000
0010
0000
0110
0000
1000
0000
0001
0000
0100
0000
0010
1000
,
0020
0100
0130
0101
1000
0001
1000
0010
,
0200
0001
0301
1010
1000
0001
0200
0000
,
0310
1000
0001
1100
1000
0010
0100
0001
,
0010
0100
1000
0110
0001
0010
0001
1000
,
0010
0100
0001
1010
0100
0010
1000
0100
,
2000
0010
3010
0102
0000
1003
0002
0000
,
0013
0001
0100
1001
0000
1000
0011
0000
,
0100
0000
1000
0002
0100
0100
0103
0000
,
0110
0000
0001
0000
0100
0000
0001
0010
0001
0000
1000
0010
1000
0000
0100
0000
,
1000
0010
1000
1100
0001
0010
0100
1000
,
0010
0000
0100
0000
0010
0000
1010
0000
1000
0000
0001
0000
0010
0100
0010
0100
,
0010
0001
1000
0101
0100
0010
1000
0001
,
0011
0100
1000
2001
0000
3001
0200
0000
,
0310
1000
0001
0011
0100
0010
0001
1000
,
0100
1000
0010
0110
0100
0001
1000
0001
,
0010
0100
1000
1010
1000
0001
0010
0100
,
1000
0010
0100
2001
0000
3001
2000
0000
,
3010
0100
0001
0012
0000
1003
0210
0000
,
1300
0010
1000
0002
0100
0100
0103
0000
,
0110
0000
0001
1000
0001
0000
1000
0001
1000
0000
0001
1000
0001
0000
0100
0010
,
0100
0001
0010
1100
1000
0010
1000
0001
,
0010
0000
0100
0000
1000
0000
0011
0000
0100
0000
0001
0000
1000
0000
0100
1000
,
0020
0000
0100
0000
0130
0000
1010
0000
0000
0000
0001
0000
1000
0000
0100
0010
,
0002
0100
0103
0012
0000
1003
0002
0000
,
0013
0100
1000
0110
0100
0001
0010
0100
,
0001
0100
1000
1001
0010
1000
0100
0010
,
1000
0010
0001
0101
0010
0001
1000
0010
,
0110
1000
0001
2010
0000
3100
0020
0000
,
0031
0100
1000
1010
0010
0100
0102
0000
,
1000
0000
1003
0021
0100
0100
0130
0000
,
0110
0000
0001
0100
0010
0000
1000
0001
1000
0000
0100
0010
0001
0000
1000
0100
,
1000
0010
1000
0001
0010
0100
1000
0010
,
0100
0000
1000
0000
0100
0000
0001
0000
0010
0000
0100
0000
1000
0000
0010
1000
,
0002
0010
0013
0002
1000
1003
0010
0100
,
0110
1000
0100
2001
0000
3001
0200
0000
,
0310
1000
0010
0100
0010
1000
0100
0010
,
0001
1000
0001
0010
1000
0010
0100
0010
,
0001
0100
0010
1000
0100
0010
0001
1000
,
0010
0100
0001
0012
0000
1003
0120
0000
,
0031
0100
1000
1200
0000
0310
0021
0000
,
0031
0000
1000
0200
0010
0001
0301
0000
,
0110
0000
1000
0000
0010
0000
0100
0001
0100
0000
0001
0010
0100
0000
1000
0001
,
1000
0010
1000
0001
0010
0100
2000
0001
,
3001
0000
0100
0000
0010
0000
1000
0000
0100
0000
0010
0000
0001
0000
1000
0010
,
0100
0001
0010
1001
0100
0010
1000
0100
,
1000
0010
0100
2010
0000
3001
0201
0000
,
0301
0010
0001
0100
1000
0100
0010
1000
,
0100
0010
0001
0100
0001
0010
1000
0010
,
0001
0100
0010
1000
0100
0010
0001
1000
,
1001
0001
0100
0021
1000
0031
0200
0000
,
1300
0010
0100
0210
0000
0301
2010
0000
,
3001
0000
0010
1200
1000
1000
0310
0000
,
0110
0000
0001
1000
0010
0000
0100
0010
1000
0000
0100
0010
0001
0000
1000
0001
,
0100
0000
0010
0000
1000
0000
0101
0000
0010
0000
1000
0000
0100
0010
0001
0000
,
0100
0000
0001
0000
0010
0000
0110
0000
1000
0000
0001
0000
1000
0010
0100
0001
,
1000
0100
1000
0002
0100
0103
0010
1000
,
1100
1000
0001
0012
0000
1003
0110
0000
,
2002
0000
0000
0000
,
0000
0000
0000
0000
,
3003
0000
0000
0000
;
