#TITLE:Me Too;
#ARTIST:Meghan Trainor;
#BANNER:Me Too-bn.png;
#BACKGROUND:Me Too-bg.png;
#JACKET:Me Too-jacket.png;
#MUSIC:Me Too.ogg;
#OFFSET:1.426;
#SAMPLESTART:39.25;
#SAMPLELENGTH:20;
#LASTBEATHINT:0.864;
#DISPLAYBPM:124;
#BPMS:0=124,67=119,68=124,103=119,104=124,143=119,144=124,163=119,164=124,179=119,180=124,203=119,204=124,223=119,224=124;
#BGCHANGES:;

//---------------dance-single - ----------------
#NOTES:
     dance-single:
     :
     Beginner:
     4:
     :
0000
0000
0000
0000
,
0000
0000
0000
0000
,
0000
0000
0000
0000
,
0000
0000
0000
0000
,
0010
0010
0010
0000
,
1000
0000
0010
0000
,
1000
1000
1000
0000
,
0000
0000
0110
0000
,
0001
0001
0001
0000
,
0100
0000
0010
0000
,
0100
0100
0100
0000
,
0000
0000
1001
0000
,
0001
0001
0001
0001
,
0000
1000
0000
1000
,
0000
0010
0000
0010
,
0000
0100
0000
0100
,
0000
0001
0000
0001
,
0000
0010
0000
0010
,
0000
0100
0000
0100
,
0000
1000
0000
0001
,
0000
0000
0110
0000
,
1000
0000
0010
0000
,
0100
0100
0100
0000
,
0001
0001
0001
0000
,
1000
1000
0000
0010
,
0010
0000
0100
0000
,
0001
0001
0001
0000
,
0010
0010
0010
0000
,
0001
0001
0000
1001
,
0000
0000
0100
0000
,
1000
0000
0001
0000
,
0100
0000
0010
0000
,
1000
0000
0001
0000
,
1000
0000
0100
0000
,
0010
0000
0001
0000
,
0100
0000
0110
0000
,
0010
0000
1001
0000
,
1000
0000
0110
0000
,
0010
0010
0010
0010
,
0000
1000
0000
0100
,
0000
1000
0000
0100
,
0000
0010
0000
0001
,
0000
0010
0000
0001
,
0000
0100
0000
0010
,
0000
1000
0000
0001
,
0000
0010
0000
0100
,
0000
0000
1001
0000
,
0010
0000
0010
0000
,
1000
1000
1000
0000
,
0100
0100
0100
0000
,
0010
0010
0000
0001
,
0001
0000
0100
0000
,
0010
0010
0010
0000
,
1000
1000
1000
0000
,
0001
0001
0000
0100
,
0100
0100
0100
0000
,
0010
0010
0010
0000
,
1000
1000
1000
0000
,
0001
0001
0001
0000
,
0010
0010
0010
0000
,
0001
0001
0001
0000
,
1000
1000
1000
0000
,
0000
1001
0000
0110
;

//---------------dance-single - ----------------
#NOTES:
     dance-single:
     :
     Easy:
     7:
     :
0000
0000
0000
0000
,
0000
0000
0000
0000
,
0000
0000
0000
0000
,
0000
0000
0000
0000
,
0020
0230
0302
2003
,
3010
1000
0100
0001
,
0010
0010
0010
0000
,
0001
0100
0110
0000
,
0020
0230
0302
2003
,
3100
0010
0001
1000
,
0100
0100
0100
0000
,
1000
0010
1001
0000
,
0020
0230
0302
2003
,
3100
0010
0001
0100
,
0010
0000
1000
0000
0001
0000
1000
0010
,
0100
0001
0001
0010
,
0001
0000
0100
0000
0010
0000
1000
0010
,
0100
0100
0001
1000
,
0001
0000
0010
0000
0100
0000
1000
0001
,
1000
0010
1000
0010
,
0200
0000
0300
0001
2000
0000
3010
0000
,
1001
1000
0110
0001
,
0010
0100
1100
0010
,
1000
0001
0101
0100
,
0010
1000
0100
1001
,
0110
0001
1001
0010
,
1000
0100
1100
0010
,
1000
0001
0101
0010
,
0001
0100
0000
0110
,
2000
3002
2003
3002
,
0203
0320
0230
0320
,
1030
0100
0001
0010
,
0001
0100
0010
1000
,
0010
0100
0001
1000
,
0100
1000
0010
0001
,
0100
0010
0110
1001
,
0010
1000
1100
0011
,
0100
0001
0101
1010
,
0020
0230
0302
2003
,
3010
1000
0100
1000
,
0001
0000
0200
0000
0000
0000
0310
0100
,
0010
1000
0100
0010
,
0001
0000
0100
0000
0020
0000
0030
1000
,
0001
0010
0001
1000
,
0100
0000
1000
0000
0010
0000
0100
0001
,
1000
0010
1000
0010
,
0100
0000
0001
1000
0001
0000
1001
0000
,
0110
1000
0100
0001
,
0011
0100
1100
0010
,
1000
0001
0101
0100
,
0001
0010
0001
1000
,
1001
0010
0110
0001
,
0010
0100
1100
0010
,
1000
0001
0011
0100
,
0010
1000
0100
0110
,
1001
0010
1010
0010
,
1000
0100
0011
0001
,
0100
0010
0110
0001
,
0010
0100
1000
1100
,
1001
1000
0101
0010
,
1000
0100
1100
0010
,
1000
0001
0011
0100
,
0001
0010
1000
0110
;

//---------------dance-single - ----------------
#NOTES:
     dance-single:
     :
     Medium:
     10:
     :
0000
0000
0000
0000
,
0000
0000
0000
0000
,
0000
0000
0000
0000
,
0000
0000
0000
0000
,
0010
0000
0100
0000
0010
0000
0100
0000
0010
0000
0000
0010
0000
0000
0010
0000
,
1000
0000
1010
0000
0100
0001
0010
0000
,
0001
0100
1000
0100
0001
0000
0011
0000
,
0100
1000
0010
1000
0100
0000
0110
0000
,
0001
0100
0010
0100
0001
0100
0010
0000
,
1000
0000
1100
0000
0001
0010
0100
0000
,
1000
0010
0001
0010
1000
0000
0101
0100
,
0010
1000
0001
1000
0010
0000
1001
0000
,
1000
0100
0001
0100
1000
0020
0230
0302
,
1003
2100
3002
0203
,
0310
1000
0100
0020
0000
0001
0031
1000
,
0001
0100
0102
0000
2003
0000
3020
0000
,
1030
0100
0010
0100
1000
0001
0100
0010
,
0100
0001
2001
0000
3020
0000
0230
0000
,
0301
0010
0100
1000
0002
0000
0103
0010
,
1010
0000
0011
0000
1000
0010
0100
0001
,
0010
0000
1000
0000
0010
0000
0100
0000
0110
0000
0000
0000
0001
1000
0001
1000
,
0001
0000
0001
0100
1000
0000
0001
0100
,
1000
0100
0001
0000
0011
0000
0001
0100
,
1000
0100
0001
0000
0101
0000
0001
0100
,
1000
0100
0001
0010
0100
1000
1001
0000
,
1000
0000
1000
0010
0001
0000
1000
0010
,
0001
0010
1000
0000
1100
0000
1000
0010
,
0001
0010
1000
0000
1010
0000
1000
0010
,
0001
0010
1000
0100
0010
0000
0110
0000
,
0001
0000
0100
0000
1000
0000
0100
0000
0001
0000
0000
0001
0000
0000
0001
0000
,
1000
0000
0100
0000
0001
0000
0100
0000
1000
0000
0000
1000
0000
0000
1000
0000
,
0010
0000
1000
0000
0001
0000
1000
0000
0010
0000
0000
0010
0000
0000
0010
0000
,
0100
0000
0001
0000
1000
0000
0001
0000
0100
0000
0000
0100
0000
0000
0100
0000
,
0001
0000
0010
0000
0100
0000
0010
0000
0001
0000
0000
0001
0000
0000
0001
0000
,
1000
0000
0010
0000
0100
0000
0010
0000
1000
0000
0000
1000
0000
0000
1000
0000
,
0001
0000
0100
0000
0010
0000
1000
0000
1100
0000
0000
0011
0000
0000
0100
0000
,
0001
0000
0010
0000
0100
0000
1000
0000
1010
0000
0000
0101
0000
0000
0010
0000
,
1000
0000
0001
0000
0100
0000
0010
0000
0110
0000
0000
1001
0000
0000
0100
0000
,
0001
0000
0010
0000
0001
0000
0100
0000
1000
0000
0000
1000
0000
0000
1000
0000
,
0100
1002
0023
0230
,
1300
0010
0100
0002
0000
0000
0000
1000
,
1003
0100
0120
0000
0032
0000
0023
0000
,
0031
0100
0010
2000
0000
0000
0000
0001
,
3001
0100
0201
0000
0320
0000
2030
0000
,
3100
1000
0001
0100
0020
0000
1030
0001
,
0011
0000
1100
0000
0010
1000
0001
0100
,
1000
0000
0100
0000
0001
0000
1000
0000
1010
0000
0000
0000
0001
1000
0001
1000
,
0001
0000
0001
0010
1000
0000
0001
0010
,
1000
0010
0001
0000
0110
0000
0001
0010
,
1000
0010
0001
0000
0101
0000
0001
0010
,
1000
0010
0001
0100
0010
1000
1100
0000
,
1000
0000
1000
0100
0001
0000
1000
0100
,
0001
0100
1000
0000
1001
0000
1000
0100
,
0001
0100
1000
0000
1010
0000
1000
0100
,
0001
0100
1000
0010
0100
0001
0011
0000
,
1001
0000
0100
0000
0010
0000
0100
0000
0001
0000
0000
1000
0000
0000
0001
0000
,
0010
0000
0100
0000
1000
0000
0100
0000
0010
0000
0000
0001
0000
0000
1000
0000
,
0010
0000
1000
0000
0001
0000
0010
0000
0100
0000
0000
1000
0000
0000
0001
0000
,
0100
0010
0100
0001
1000
0000
0110
0000
,
1001
0000
1000
0000
0010
0000
0100
0000
0010
0000
0000
1000
0000
0000
0001
0000
,
0010
0000
0001
0000
0010
0000
0100
0000
1000
0000
0000
0001
0000
0000
0100
0000
,
0001
0000
0010
0000
0001
0000
1000
0000
0100
0000
0000
0010
0000
0000
0100
0000
,
1000
0001
0100
0001
0010
0100
0110
0000
;

//---------------dance-single - ----------------
#NOTES:
     dance-single:
     :
     Hard:
     13:
     :
0000
0000
0000
0000
,
0000
0000
0000
0000
,
0000
0000
0000
0000
,
0000
0000
0000
0000
,
0010
0000
0010
0000
0100
0000
0100
0000
0020
0000
0230
0000
0301
1000
0001
1000
,
0001
0000
0101
0000
1000
0100
0010
0000
,
0001
0000
0001
0000
0001
0000
1000
0010
1000
0000
0000
1000
0000
0000
1000
0000
,
0001
0000
0100
0000
0010
0000
0110
0000
1001
0000
0000
0010
1000
0000
0001
0000
,
0010
0000
0010
0000
0100
0000
0100
0000
0020
0000
0230
0000
1300
0001
1000
0001
,
1000
0000
1010
0000
0100
0001
0010
0000
,
0001
0000
0100
0000
0001
0000
1000
0100
1000
0000
0000
1000
0000
0000
1000
0000
,
0010
0000
0100
0000
0001
0000
0110
0000
1001
0000
0000
0010
1000
0000
0001
0000
,
0010
0000
0010
0000
0100
0000
0100
0000
1000
0010
1000
0000
0001
0100
0001
0100
,
0001
0000
0000
0000
0011
0000
0001
0100
0010
0000
1000
0000
0100
0000
1000
0010
,
1000
0000
0100
0000
0010
0000
0001
1000
0001
0000
0100
0000
0010
0000
1010
0000
,
0101
0000
0010
0000
0001
0000
1000
0010
1000
0000
0100
0000
0001
0000
0100
0010
,
0100
0000
1000
0000
0010
0000
1000
0000
0001
0100
0001
0000
0010
0100
0010
0100
,
0010
0000
0001
0000
1000
0000
0010
1000
0100
0000
0010
0000
0001
0000
1000
0100
,
0010
0000
0100
0000
1000
0000
0010
0100
0001
0000
1000
0000
0001
0000
0100
0000
,
0101
0000
0000
0000
1100
0000
0001
1000
0001
0000
0010
0000
0100
0000
1000
0010
,
0100
0000
0002
0000
1003
0000
1010
0000
1001
0000
0000
0000
0010
0100
0010
0100
,
0010
0000
1000
0000
1000
0000
0001
0000
0001
0000
1000
0100
0000
0100
0010
0000
,
0001
0000
0100
0000
1000
0000
0100
0000
0001
0000
0010
0100
0000
0100
1000
0000
,
0001
0000
0100
0000
1000
0000
0100
0000
0001
0000
1000
0010
0000
0010
0100
0000
,
0010
0000
0010
0000
0100
0000
0100
0000
0020
0000
0230
0000
0301
1000
0001
1000
,
0001
0000
0010
0000
1000
0000
0010
0000
0001
0000
0100
0010
0000
0010
1000
0000
,
0001
0000
1000
0000
1000
0000
0100
0000
0100
0000
1000
0010
0000
0010
0100
0000
,
0001
0000
0100
0000
0100
0000
0010
0000
0010
0000
1000
0001
0000
0001
0100
0000
,
0010
0010
0100
0200
0310
0000
0110
0000
,
0002
0000
2003
0000
3020
0000
2030
0000
3200
0000
0000
0320
0000
0000
0032
0000
,
0203
0000
0302
0000
2003
0000
3020
0000
0230
0000
0000
0320
0000
0000
2030
0000
,
3001
0000
0100
0000
1000
0000
0100
0000
0001
0000
0000
0010
0001
0000
1000
0000
,
0100
0000
0001
0000
0100
0000
1000
0000
0010
0000
0000
0100
0001
0000
1000
0000
,
0100
0000
0001
0000
0100
0000
1000
0000
0010
0000
0000
0100
0001
0000
1000
0000
,
0010
0000
0010
0000
0100
0000
0100
0000
0020
0000
0230
0000
0301
1000
0001
1000
,
0001
0000
0010
0000
1000
0000
0010
0000
0001
0000
0000
1100
0000
0000
1000
0000
,
0100
0000
0001
0000
0100
0000
1000
0000
0010
0000
0000
0101
0000
0000
0010
0000
,
1000
0000
0100
0000
0001
0000
0100
0000
1000
0000
0000
0011
0000
0000
0001
0000
,
0010
0000
0010
0000
0100
0000
0100
1000
0001
1000
0000
0010
1000
0001
1000
0001
,
1000
2100
3002
0203
,
0310
0000
1000
0000
0100
0000
0020
0000
0000
0000
0031
1000
0001
0000
0101
0000
,
1100
0010
0002
0000
2003
0000
3020
0000
,
0130
0001
0000
0100
0001
0000
0100
0001
0000
0100
0001
0000
0010
0000
1100
0000
,
0101
0000
1000
0000
0010
0000
0100
0010
0100
0000
0001
0000
0010
0000
0001
1000
,
0100
0000
1000
0000
0010
0000
0100
0001
0010
0000
0100
0000
0110
0000
1000
0000
,
1100
0000
0110
0000
0011
0000
0100
0001
0010
0000
0001
0000
1000
0000
0010
0000
,
1000
0000
0001
0000
0100
0000
1010
0000
0101
0000
0000
0000
1000
0001
1000
0001
,
1000
0000
1000
0100
0001
0000
0001
0100
,
1000
0000
0100
0000
0001
0000
0010
0000
0100
0000
1000
0001
0000
0001
0100
0000
,
0010
0000
0010
0000
1000
0000
1000
0000
0001
0000
0010
0100
0000
0100
1000
0000
,
0001
0000
0001
0000
0100
0000
0100
0000
0010
1000
0010
0100
0002
0000
0000
0000
,
0013
0000
0001
0000
0100
0000
1000
0000
0100
0000
0001
0010
0000
0010
0100
0000
,
0001
0000
0100
0000
1000
0000
0100
0000
0010
0000
0001
1000
0000
1000
0010
0000
,
0100
0000
0010
0000
1000
0000
0100
0000
0001
0000
0100
1000
0000
1000
0010
0000
,
0100
0101
0001
1100
1000
0010
1001
0000
,
1001
0010
1000
0100
0001
0100
0010
0100
,
0001
0100
1000
0100
0001
0100
0010
0100
,
0001
0100
1000
0010
0100
1000
0100
0001
,
0010
1000
0010
0100
0010
0001
1001
0000
,
1001
0000
0010
0000
1000
0000
0100
0000
1000
0000
0001
0100
0000
0001
0010
0000
,
0100
0001
0100
1000
0010
0100
0001
1000
,
0100
0001
0100
0010
1000
0010
0001
0100
,
0010
0000
1000
0000
0001
0000
1000
0000
0010
0100
0010
0000
0110
0000
0000
0000
;
