#TITLE:Material Girl;
#SUBTITLE:;
#ARTIST:Madonna;
#TITLETRANSLIT:;
#SUBTITLETRANSLIT:;
#ARTISTTRANSLIT:;
#GENRE:;
#CREDIT:;
#BANNER:Material Girl-bn.png;
#BACKGROUND:Material Girl-bg.png;
#LYRICSPATH:;
#CDTITLE:;
#MUSIC:Material Girl.ogg;
#OFFSET:0.000000;
#SAMPLESTART:41.263000;
#SAMPLELENGTH:20.000000;
#SELECTABLE:YES;
#DISPLAYBPM:135.000000:138.000000;
#BPMS:0.000000=137.000000
,24.000000=136.000000
,56.000000=138.000000
,72.000000=135.000000
,80.000000=136.500000
,84.000000=137.500000
,104.000000=135.500000
,120.000000=136.750000
,204.000000=137.750000
,220.000000=137.250000
,232.000000=135.250000
,248.000000=136.250000
;
#STOPS:
;
#BGCHANGES:;
#KEYSOUNDS:;
#ATTACKS:;

//---------------dance-single - ----------------
#NOTES:
     dance-single:
     :
     Hard:
     12:
     0.523775,0.578316,0.325182,0.609716,0.077231,451.000000,411.000000,40.000000,75.000000,0.000000,0.000000,0.523775,0.578316,0.325182,0.609716,0.077231,451.000000,411.000000,40.000000,75.000000,0.000000,0.000000:
0000
0000
0000
0000
,
0000
0000
0000
0000
,
0000
0000
0000
0000
,
0000
0000
0000
0000
,
0020
0000
1030
0001
0010
0100
0100
0000
,
1000
0001
0100
0000
1020
1000
1030
0000
,
0002
0000
0000
0000
0103
0000
0010
0000
1000
0000
0001
0000
1000
0010
1000
0010
,
2000
0000
3001
0100
0001
0010
0010
0000
,
0100
1000
0010
0200
0000
0301
0010
0002
,
0000
1003
0100
0020
0000
0031
1000
0200
,
0000
1300
2100
0000
3001
0001
0100
0020
,
1000
0000
0130
0001
1000
0010
0010
0000
,
0100
0001
1000
0002
0000
0013
0100
2000
,
0000
3010
0100
0002
0000
1003
0001
0011
,
0000
1100
0000
0101
0000
1010
0000
1001
,
0000
0110
0001
0000
1000
0100
0010
0000
,
0001
0100
0010
2000
0000
3100
1000
0002
,
0000
0013
0001
0200
0000
0310
1000
0002
,
0000
0013
0012
0000
0103
0100
0010
1000
,
0001
0000
1010
0001
0100
0010
0010
0000
,
1000
0100
0010
0200
0000
0301
0100
2000
,
0000
3010
0100
0002
0000
0013
0000
0011
,
0000
0110
0000
1100
0000
0101
0000
1001
,
0000
0000
1010
0000
0100
0000
0001
0000
1000
0100
1000
0000
0001
0000
1000
0100
,
2000
0001
3001
0010
0100
1000
0010
0100
,
0002
0000
0000
0013
0100
0000
1000
0000
0010
0000
0100
0000
0001
0000
2000
0000
,
0000
0000
0010
0000
3010
0000
0100
0000
0002
0000
0000
1003
0100
0000
0010
0000
,
0001
0000
1001
0200
0000
0310
1000
0001
,
0020
0100
0130
1000
0010
0100
0001
1000
,
0200
0000
0000
0310
0001
0000
0100
0000
0010
0000
1000
0000
0001
0000
0020
0000
,
0000
0000
0100
0000
0130
0000
1000
0000
0002
0000
0000
1003
0010
0000
0100
0000
,
2001
0000
3010
1000
0002
0100
0103
0000
,
0010
1000
1100
0000
0201
0001
0301
0000
,
0021
0000
0000
0000
0130
0000
2000
0000
0001
0000
0000
0000
3010
0000
0100
0001
,
0200
0000
1300
0100
0001
0010
0010
0000
,
0100
1000
0001
0200
0000
0310
1000
0002
,
0000
1003
0001
0020
0000
0130
1000
0002
,
0000
0103
0201
0000
0310
0010
1000
0002
,
0010
0000
1003
0001
1000
0100
0100
0000
,
0010
0001
1000
0002
0000
0013
0100
2000
,
0000
3010
1000
0200
0000
0310
0001
0101
,
0000
1100
0000
1010
0000
0011
0000
0110
,
0000
1001
0010
1000
0100
0010
0010
0000
,
0001
1000
0001
0200
0000
1300
0100
0020
,
0000
1030
0001
2000
0000
3100
0010
0002
,
0000
0103
0120
0000
1030
1000
0001
0010
,
0100
0000
0011
1000
0010
0100
0100
0000
,
0001
1000
0001
0020
0000
0130
1000
0020
,
0000
1030
0001
0200
0000
0310
1000
1100
,
0000
1010
0000
1001
0000
0101
0000
0011
,
1000
0001
1000
0000
0100
0000
0100
0000
0010
0001
0100
0000
0110
0000
0000
0000
,
2000
0010
3010
0100
1000
0100
0001
0010
,
0200
0000
0000
0301
0100
0000
1000
0000
0010
0000
0100
0000
0001
0000
0020
0000
,
0000
0000
0100
0000
0130
0000
0010
0000
0002
0000
0000
1003
0010
0000
0100
0000
,
0001
0000
1100
0020
0000
0130
0010
1000
,
0002
0100
0103
0010
0001
0010
1000
0100
,
0020
0000
0000
0031
1000
0000
0010
0000
0100
0000
1000
0000
0100
0000
0002
0000
,
0000
0000
1000
0000
1003
0000
0100
0000
0020
0000
0000
0031
0100
0000
0010
0000
,
2010
0000
3001
2000
0100
0100
3100
0000
,
0020
0001
0031
0100
1000
0100
0001
0010
,
0200
0000
0000
0301
0100
0000
0010
0000
0001
0000
0100
0000
0010
0000
2000
0000
,
0000
0000
0100
0000
3100
0000
1000
0000
0020
0000
0000
0130
0001
0000
1000
0000
,
0100
0000
0011
2000
0000
3001
1000
0010
,
0200
0001
0301
0100
1000
0100
0010
1000
,
0200
0000
0000
0310
1000
0000
0010
0000
0001
0000
0100
0000
0010
0000
2000
0000
,
0000
0000
0100
0000
3100
0000
1000
0000
0002
0000
0000
0103
0010
0000
1000
0000
,
2002
0000
0000
0000
,
0000
0000
0000
3003
;

//---------------dance-single - ----------------
#NOTES:
     dance-single:
     :
     Medium:
     9:
     0.377444,0.440622,0.341441,0.333312,0.000000,325.000000,283.000000,42.000000,41.000000,0.000000,0.000000,0.377444,0.440622,0.341441,0.333312,0.000000,325.000000,283.000000,42.000000,41.000000,0.000000,0.000000:
0000
0000
0000
0000
,
0000
0000
0000
0000
,
0000
0000
0000
0000
,
0000
0000
0000
0000
,
0010
0000
1000
0002
1000
0000
0103
0000
,
0001
1000
0001
0000
1001
0000
0000
0000
,
0010
0000
1000
0100
2000
0000
3010
0100
,
0002
0010
1000
1003
,
0010
0100
0000
0001
0000
1000
0000
0100
,
0000
0010
0000
0001
0000
1000
0000
2010
,
0000
0000
3001
0000
1000
0100
0000
0010
,
0001
0101
1000
1100
,
0001
1000
0000
0010
0000
0100
0000
0001
,
0000
0010
0000
0100
0000
1000
0000
1100
,
0000
0101
0000
1010
0000
0011
0000
1001
,
0000
0110
0000
0000
1000
0001
0100
0000
,
0010
1000
0000
0001
0000
1000
0000
0100
,
0000
0010
0000
0001
0000
0100
0000
0210
,
0000
0000
0301
0000
1000
0000
0100
0010
,
0001
0000
1000
0001
0000
0000
0000
0000
,
0100
0010
0000
1000
0000
0001
0010
0100
,
0000
1000
0000
0001
0000
0100
0000
0101
,
0000
1100
0000
0011
0000
1010
0000
0110
,
0000
1001
0000
0000
1000
0100
0010
0001
,
0200
0000
0000
0310
0000
0010
1000
0001
,
2000
0000
0100
3100
0000
0000
1000
0002
,
0000
0100
0103
0000
2001
0000
3010
0100
,
0000
0000
0002
1000
0000
1003
0100
0010
,
0002
0000
0000
1003
0000
0001
0010
0100
,
2000
0000
0010
3010
0000
0000
1000
0200
,
0000
1000
1300
0000
1002
0000
0013
0100
,
1000
0000
0010
0200
0010
0000
0301
0000
,
1000
0100
0010
0000
0110
0000
0000
0000
,
0001
0000
0010
0001
1000
0000
1000
0010
,
0200
1000
0010
0301
,
1000
0001
0000
0010
0000
0001
0000
0100
,
0000
0010
0000
1000
0000
0001
0000
2100
,
0000
0000
0010
0000
3001
0000
1000
0010
,
0100
1010
0100
0011
,
1000
0001
0000
1000
0000
0010
0000
0100
,
0000
0001
0000
0010
0000
0100
0000
1100
,
0000
0011
0000
1010
0000
0101
0000
1001
,
0000
0110
0000
0000
0001
1000
0100
0000
,
0010
0001
0000
0100
0000
0010
0000
1000
,
0000
0001
0000
1000
0000
0100
0000
0021
,
0000
0000
0031
0000
0100
0010
0000
1000
,
0001
0000
0100
0010
0000
0000
0000
0000
,
1000
0100
0000
0010
0000
0001
0000
0010
,
0000
0100
0000
1000
0000
0001
0000
0101
,
0000
1001
0000
1010
0000
1100
0000
0110
,
0000
0011
0000
0000
0001
0010
0100
1000
,
0020
0000
0000
0130
0000
0010
1000
0001
,
0020
0000
0100
0130
0000
0000
1000
0020
,
0000
0100
0130
0000
0102
0000
1003
0001
,
0000
0000
0020
0100
0000
0130
1000
0001
,
2000
0000
0000
3010
0000
1000
0001
0100
,
0020
0000
1000
1030
0000
0000
0001
0200
,
0000
0001
0301
0000
1020
0000
0130
0001
,
2000
0000
0000
0002
0000
0000
3003
0000
,
2020
0000
0030
3001
0000
1000
0100
0010
,
0200
0000
1000
1300
0000
0000
0010
0200
,
0000
0010
0310
0000
0201
0000
0310
1000
,
0000
0000
0002
0010
0000
1003
0010
0100
,
0002
0000
0000
1003
0000
0001
0010
0100
,
2000
0000
0010
3010
0000
0000
0100
0002
,
0000
1000
1003
0000
2100
0000
3010
0100
,
2002
0000
0000
0000
,
0000
0000
0000
3003
;

//---------------dance-single - ----------------
#NOTES:
     dance-single:
     :
     Easy:
     7:
     0.263630,0.330466,0.178850,0.292664,0.000000,227.000000,205.000000,22.000000,36.000000,0.000000,0.000000,0.263630,0.330466,0.178850,0.292664,0.000000,227.000000,205.000000,22.000000,36.000000,0.000000,0.000000:
0000
0000
0000
0000
,
0000
0000
0000
0000
,
0000
0000
0000
0000
,
0000
0000
0000
0000
,
0020
0000
0000
0200
0000
0000
0330
0000
,
0001
1000
0001
0000
1001
0000
0000
0000
,
2000
0000
0000
3002
0000
0000
1003
0100
,
0020
0000
0000
0030
,
0001
0010
0100
1000
,
0010
0100
0001
1000
,
0020
1000
0100
0031
,
1000
0001
0010
0100
,
1000
0010
1000
0001
,
0010
0100
1000
0010
,
1001
0100
1001
0100
,
1001
0010
1000
0001
,
0010
0001
0100
0010
,
1000
0001
1000
0100
,
0002
0010
1000
0013
,
0100
0000
1000
0001
0000
0000
0000
0000
,
0010
0001
0100
0010
,
1000
0100
0001
0010
,
0110
0010
0110
1000
,
0110
0001
0100
0100
,
0020
0000
0000
1030
0000
0000
0000
0000
,
0002
0000
0000
0103
0000
0000
0000
0000
,
1000
0000
0010
0000
0200
0000
0000
0301
,
0000
0011
0000
1100
,
0002
0000
0000
1003
0000
0000
0000
0000
,
0020
0000
0000
0130
0000
0000
0000
0000
,
0001
0000
1000
0000
0020
0000
0130
0030
,
0002
0000
0000
2000
0000
0000
3003
0000
,
0010
0100
0010
0000
0110
0000
0000
0000
,
2000
0000
0000
3020
0000
0000
1030
0001
,
0200
0000
0000
0300
,
0010
0100
0001
0010
,
1000
0100
1000
0010
,
0200
1000
0010
0301
,
0100
0001
1000
0100
,
1000
0010
1000
0100
,
0010
0001
0100
0010
,
0110
0100
0110
0010
,
0110
1000
0100
0001
,
0010
0001
0100
0010
,
1000
0001
0010
1000
,
0200
0001
0010
1300
,
0001
0000
0100
0010
0000
0000
0000
0000
,
1000
0010
0001
0100
,
0010
0100
0001
1000
,
1001
0001
1001
1000
,
1001
0100
0010
1000
,
0002
0000
0000
0013
0000
0000
0000
0000
,
0200
0000
0000
1300
0000
0000
0000
0000
,
0010
0000
0100
0000
0002
0000
0000
1003
,
0000
1100
0000
0011
,
0200
0000
0000
0310
0000
0000
0000
0000
,
2000
0000
0000
3001
0000
0000
0000
0000
,
0100
0010
2000
3001
,
0100
0000
0000
0220
0000
0000
0330
0000
,
0020
0000
0000
1030
0000
0000
0000
0000
,
0002
0000
0000
0103
0000
0000
0000
0000
,
0010
0000
1000
0000
0200
0000
0000
0301
,
0000
0011
0000
1100
,
0020
0000
0000
1030
0000
0000
0000
0000
,
0002
0000
0000
0103
0000
0000
0000
0000
,
0010
0001
2000
3100
,
2002
0000
0000
0000
,
0000
0000
0000
3003
;

//---------------dance-single - ----------------
#NOTES:
     dance-single:
     :
     Beginner:
     3:
     0.156784,0.220311,0.130073,0.040648,0.000000,135.000000,119.000000,16.000000,5.000000,0.000000,0.000000,0.156784,0.220311,0.130073,0.040648,0.000000,135.000000,119.000000,16.000000,5.000000,0.000000,0.000000:
// measure 0
0000
0000
0000
0000
,  // measure 1
0000
0000
0000
0000
,  // measure 2
0000
0000
0000
0000
,  // measure 3
0000
0000
0000
0000
,  // measure 4
0010
0000
0010
0000
,  // measure 5
1000
1000
1000
0000
,  // measure 6
0010
0000
0100
0000
,  // measure 7
0002
0000
0003
0000
,  // measure 8
0010
0000
0010
0000
,  // measure 9
0001
0000
0001
0000
,  // measure 10
1000
0000
0001
0000
,  // measure 11
0100
0000
0000
0000
,  // measure 12
0010
0000
0100
0000
,  // measure 13
0001
0000
1000
0000
,  // measure 14
1001
0000
1001
0000
,  // measure 15
1001
0000
0000
0000
,  // measure 16
0100
0000
0010
0000
,  // measure 17
0100
0000
1000
0000
,  // measure 18
0010
0000
0100
0000
,  // measure 19
0001
0001
0000
0000
,  // measure 20
0010
0000
0001
0000
,  // measure 21
1000
0000
0100
0000
,  // measure 22
0110
0000
0110
0000
,  // measure 23
0110
0000
0000
0000
,  // measure 24
0001
0000
0001
0000
,  // measure 25
1000
1000
0000
0000
,  // measure 26
0010
0000
0100
0100
,  // measure 27
0000
0110
0000
0000
,  // measure 28
1000
0000
0001
0000
,  // measure 29
0010
0010
0000
0000
,  // measure 30
0001
0000
0100
0100
,  // measure 31
0100
0000
0010
0000
,  // measure 32
1000
1000
1000
0000
,  // measure 33
0100
0000
0010
0000
,  // measure 34
0002
0000
0003
0000
,  // measure 35
0100
0000
0001
0000
,  // measure 36
0100
0000
0010
0000
,  // measure 37
1000
0000
0100
0000
,  // measure 38
1000
0000
0000
0000
,  // measure 39
0001
0000
0010
0000
,  // measure 40
0100
0000
1000
0000
,  // measure 41
1001
0000
1001
0000
,  // measure 42
1001
0000
0000
0000
,  // measure 43
0010
0000
0010
0000
,  // measure 44
1000
0000
0001
0000
,  // measure 45
1000
0000
0100
0000
,  // measure 46
0010
0010
0000
0000
,  // measure 47
0001
0000
0100
0000
,  // measure 48
0010
0000
1000
0000
,  // measure 49
0110
0000
0110
0000
,  // measure 50
0110
0000
0000
0000
,  // measure 51
1000
0000
1000
0000
,  // measure 52
0100
0100
0000
0000
,  // measure 53
1000
0000
0001
0001
,  // measure 54
0000
1001
0000
0000
,  // measure 55
0100
0000
0010
0000
,  // measure 56
0100
0100
0000
0000
,  // measure 57
0001
0000
1000
0000
,  // measure 58
0020
0000
0030
0000
,  // measure 59
0100
0000
0010
0000
,  // measure 60
1000
1000
0000
0000
,  // measure 61
1000
0000
0001
0001
,  // measure 62
0000
0110
0000
0000
,  // measure 63
0100
0000
0010
0000
,  // measure 64
0100
0100
0000
0000
,  // measure 65
0001
0000
1000
0000
,  // measure 66
2002
0000
0000
0000
,  // measure 67
0000
0000
0000
3003
;
