#TITLE:Master Exploder;
#SUBTITLE:;
#ARTIST:Tenacious D;
#TITLETRANSLIT:;
#SUBTITLETRANSLIT:;
#ARTISTTRANSLIT:;
#GENRE:;
#CREDIT:;
#BANNER:Master Exploder-bn.png;
#BACKGROUND:Master Exploder-bg.png;
#LYRICSPATH:;
#CDTITLE:;
#MUSIC:Master Exploder.ogg;
#OFFSET:0.000000;
#SAMPLESTART:79.599998;
#SAMPLELENGTH:20.000000;
#SELECTABLE:YES;
#DISPLAYBPM:150.000000;
#BPMS:0.000000=150.000000
;
#STOPS:
;
#BGCHANGES:0.000=Master Exploder.avi=1.000=0=0=1=====,
99999=-nosongbg-=1.000=0=0=0 // don't automatically add -songbackground-
;
#KEYSOUNDS:;
#ATTACKS:;

//---------------dance-single - ----------------
#NOTES:
     dance-single:
     :
     Hard:
     14:
     0.640360,0.705682,0.258741,0.440559,0.269231,641.000000,604.000000,37.000000,63.000000,0.000000,0.000000,0.640360,0.705682,0.258741,0.440559,0.269231,641.000000,604.000000,37.000000,63.000000,0.000000,0.000000:
// measure 0
0000
0000
0000
0000
,  // measure 1
0000
0000
0000
0000
,  // measure 2
0000
0000
0000
0000
,  // measure 3
0000
0000
0000
0000
,  // measure 4
2000
0000
0000
0000
3001
0100
0000
0000
0002
0000
0000
0000
1003
0100
1000
0000
,  // measure 5
0010
0000
0100
0001
0100
0000
0010
0000
0100
0000
0000
0001
1000
0000
1000
0000
,  // measure 6
0020
0000
0000
0000
1030
0100
0000
0000
0200
0000
0000
0000
1300
0010
1000
0000
,  // measure 7
0001
0010
0100
0001
0100
1000
0010
1000
,  // measure 8
0002
0000
0000
0000
0013
0001
0010
0000
0100
1000
0100
0000
1000
0001
1000
0000
,  // measure 9
0010
0000
0100
0000
0001
0000
0010
0000
0001
1000
0001
0000
0100
0000
0000
0000
,  // measure 10
0012
1000
1000
1000
1000
0000
0000
0010
,  // measure 11
0010
0010
0000
1000
0000
0100
0103
0001
,  // measure 12
2000
0010
0010
0010
0010
0000
0000
0100
,  // measure 13
3200
0010
0000
0001
0000
1000
1000
1000
,  // measure 14
2300
0010
0010
0000
3002
0010
0010
0000
,  // measure 15
0233
1000
1000
0000
0302
0010
0010
0000
,  // measure 16
0023
0230
2300
3002
,  // measure 17
0203
0302
0013
2031
,  // measure 18
3100
0000
1000
0001
1000
0000
0001
0100
0001
0000
0000
0000
0000
0000
0100
0010
,  // measure 19
0100
0001
0000
1100
0000
0001
1000
0100
,  // measure 20
0010
0000
0001
0100
0001
0000
1000
0100
1000
0000
0000
0000
0000
0000
0010
0100
,  // measure 21
0010
1000
0000
0101
0000
1000
0100
0010
,  // measure 22
0001
0100
0001
0010
0100
0000
0000
0100
,  // measure 23
1000
0001
1000
0010
0100
0000
0000
0001
,  // measure 24
2010
0000
0100
3100
1000
0000
0000
0010
,  // measure 25
1002
0000
0000
0103
0000
0000
0110
0000
0000
0000
1000
0000
0001
0000
0000
0000
,  // measure 26
0010
0001
0100
1000
0100
0001
0010
0000
,  // measure 27
1100
0000
0001
0000
0000
0000
0000
0000
0200
0000
0000
0310
0000
0000
2010
0000
,  // measure 28
0001
0000
0001
0000
0001
0000
0001
0000
3001
0000
0000
0000
0000
0000
1000
0010
,  // measure 29
1000
0100
0000
1001
0000
0001
0010
1000
,  // measure 30
0020
0100
0100
0100
0100
0000
0000
1000
,  // measure 31
1000
1000
0000
0100
0000
0001
0001
0001
,  // measure 32
0001
0001
0001
0001
0001
0000
0000
0100
,  // measure 33
0100
0100
0000
1000
0000
0100
0130
1000
,  // measure 34
0012
0000
0000
2003
0000
0000
3002
0000
1003
0000
0010
0000
0100
0000
0001
0000
,  // measure 35
0010
0100
1000
0001
0100
0001
1000
0010
,  // measure 36
0100
0100
0001
0010
0001
0100
1000
0100
,  // measure 37
0002
1000
1003
0020
0000
0130
0102
0000
,  // measure 38
1003
0000
0001
0100
0001
0000
1000
0010
1000
0000
0000
0000
0000
0000
1000
0001
,  // measure 39
1000
0010
1000
0100
1000
0010
0100
0001
,  // measure 40
2000
0000
3020
0000
2030
0000
3002
0000
0203
0000
0000
0000
0300
0000
0010
0100
,  // measure 41
0010
2000
0000
3002
0000
0103
0110
0000
,  // measure 42
0001
0000
0000
0001
0100
0000
0000
0100
0010
0000
0000
0010
1000
0000
0000
1000
,  // measure 43
0100
0000
0000
0100
0010
0000
0000
0010
0001
0000
0000
0001
1000
0000
0000
1000
,  // measure 44
0010
0000
0000
1010
0000
0000
0001
0000
1000
0000
0000
0101
0000
0000
0100
0000
,  // measure 45
1001
0000
0000
0010
1000
0000
0100
0000
1000
0000
0010
0000
0100
0001
0100
0001
,  // measure 46
0100
0000
0010
1000
0001
0000
0010
0100
1000
0000
0000
0000
0000
0000
0001
1000
,  // measure 47
0010
0100
0001
1100
0000
0001
0010
0001
,  // measure 48
1000
0000
0010
0100
0001
0000
1000
0010
0100
0000
0000
0000
0000
0000
0001
0010
,  // measure 49
0100
1000
0001
0011
0000
1000
0010
0100
,  // measure 50
0001
1000
0010
1000
0100
0010
0001
0000
,  // measure 51
0100
0001
1000
0010
2010
0000
3001
0000
,  // measure 52
1000
0001
0100
0010
1000
0100
0010
0001
,  // measure 53
0200
0000
0000
0302
0300
0000
2033
0000
0000
0000
3010
0000
0100
0000
0001
0000
,  // measure 54
0010
0001
0100
0001
1000
1000
1000
1000
,  // measure 55
0010
0100
0000
0010
0110
0001
1000
0100
,  // measure 56
0020
0001
0001
0001
0001
0000
0000
0100
,  // measure 57
0230
0001
0000
0010
0000
1000
1000
1300
,  // measure 58
0001
0000
1000
0010
0100
0000
0001
0010
0100
0000
0000
0000
0000
0000
1000
0010
,  // measure 59
1000
0100
0010
1001
0000
0001
1000
0100
,  // measure 60
2100
0000
0000
0000
3001
1000
0000
0000
0021
0000
0000
0000
0031
0100
0001
0000
,  // measure 61
0010
0000
0100
1000
0001
0000
0100
0000
0010
0000
0000
0010
1000
0000
0001
0000
,  // measure 62
1020
0000
0000
0000
0130
0010
0000
0000
0201
0000
0000
0000
0301
0010
0001
0000
,  // measure 63
1000
0001
1000
0010
0001
0010
0100
0001
,  // measure 64
0020
0000
0000
0000
0130
1000
0100
0000
1000
0010
1000
0000
0001
0010
0001
0000
,  // measure 65
1000
0001
1000
0010
0100
0001
0010
0100
,  // measure 66
2001
0000
0000
0000
3010
1000
0000
0000
0201
0000
0000
0000
0301
0100
0001
0000
,  // measure 67
0010
0001
1000
0010
0100
1000
0100
0001
,  // measure 68
0010
0000
0001
1000
0010
0000
0100
0001
0010
0000
0000
0000
0000
0000
0100
1000
,  // measure 69
0001
0000
0010
0000
0100
0000
1000
0000
0011
0000
0000
0110
0000
0000
1100
0000
,  // measure 70
0001
1000
0002
0000
0100
0000
0100
0000
0103
0000
0010
0000
1000
0000
0000
0000
,  // measure 71
0110
0001
0100
0001
1000
0100
0010
0001
,  // measure 72
0100
0010
1000
0001
1000
0100
0010
0000
,  // measure 73
0002
0000
0000
1000
0000
0000
0023
0000
0000
0000
0031
0000
0100
0000
0100
0000
,  // measure 74
0010
1000
0001
1000
0200
0010
0310
0000
,  // measure 75
0001
0100
0010
0120
0000
1030
0001
1000
,  // measure 76
0100
0010
0001
0100
0010
1000
1100
0000
,  // measure 77
0001
1000
0000
0010
2010
0000
3001
0100
,  // measure 78
0020
1000
1000
1000
1000
0000
0000
0100
,  // measure 79
0230
1000
0000
0010
0000
0001
0001
0301
,  // measure 80
0100
0000
0010
1000
0001
0000
1000
0100
0010
0000
0000
0000
0000
0000
0001
0100
,  // measure 81
0002
0010
0000
2003
0000
0100
3200
0010
,  // measure 82
0310
0001
1000
0001
1000
0001
1000
0001
0100
0000
0000
0000
0011
0000
1000
0001
,  // measure 83
2000
0010
3010
0100
0002
1000
1003
0000
,  // measure 84
0101
0100
0010
1000
0001
1000
0100
0010
,  // measure 85
0001
0000
0100
0000
1000
0000
0100
0000
0001
0000
0001
0000
0001
0000
0100
0010
,  // measure 86
1000
0100
0010
1000
0010
0001
0100
0001
,  // measure 87
1000
0010
1000
0010
0100
0001
0100
0001
1000
0000
0010
0000
1001
0000
0000
0000
;

//---------------dance-single - ----------------
#NOTES:
     dance-single:
     :
     Medium:
     11:
     0.471528,0.552273,0.398601,0.398601,0.024476,472.000000,415.000000,57.000000,57.000000,0.000000,0.000000,0.471528,0.552273,0.398601,0.398601,0.024476,472.000000,415.000000,57.000000,57.000000,0.000000,0.000000:
0000
0000
0000
0000
,
0000
0000
0000
0000
,
0000
0000
0000
0000
,
0000
0000
0000
0000
,
1000
0100
1000
0100
1000
0000
0000
0001
,
0100
0010
0000
1020
0000
1030
0100
0010
,
0001
0100
0001
0100
0001
0000
0000
1000
,
0010
0100
0000
0201
0000
0310
1000
0001
,
0100
0010
0100
0010
0100
0000
0000
0001
,
1000
0100
0000
2001
0000
3010
0100
0001
,
0020
0100
1000
0000
,
0001
0001
0000
1000
0000
0100
0100
0000
,
0032
0100
0010
0000
,
2003
0010
0000
0001
0000
0100
0100
0000
,
3020
0001
0230
1000
,
0302
0100
2003
0010
,
3200
2300
3020
0032
,
0203
0302
0023
2030
,
3001
0100
0001
0100
0001
0000
0000
0010
,
0100
1000
0000
0101
0000
0001
0010
0100
,
1000
0001
1000
0001
1000
0000
0000
0010
,
0100
0001
0000
1100
0000
0010
1000
0100
,
2000
0000
3010
0000
1001
0000
0000
0001
,
0100
0000
0110
0000
1001
0000
0000
0001
,
2000
0000
0000
0000
0010
0000
0020
0000
0000
3033
0030
0000
0000
0000
0010
0000
,
2000
0000
0000
3002
0000
0000
0103
0000
0000
0000
0000
0000
0011
0000
0000
0000
,
1100
0000
1100
0000
0001
1000
0000
0000
,
0010
0000
0100
0000
0000
0000
0000
0000
0002
0000
0000
0103
0000
0000
2010
0000
,
0000
0200
0000
0000
0000
0000
3300
0000
,
1000
0010
0000
0100
0000
0001
1000
0001
,
0020
1000
0001
0000
,
0100
0100
0000
1000
0000
0001
0001
0000
,
1000
0001
0100
0000
,
1000
1000
0000
0100
0000
0001
0031
0000
,
2000
0000
3002
0000
0103
0010
1000
0000
,
0100
0010
0001
0000
1000
0001
0100
0000
,
0100
0010
1000
0000
0100
0010
0100
0000
,
2100
0000
3001
0200
0000
0310
2000
0000
,
0100
0010
0001
0000
,
3010
1000
0000
0101
0000
1000
0100
0010
,
0001
1000
0001
1000
0001
0000
0000
1000
,
0001
0010
0000
1001
0000
1000
0100
0000
,
1002
0010
0100
0010
,
1000
0100
1000
0010
,
0100
0000
0000
0100
0000
0000
1000
0000
1000
0000
0000
0010
0000
0000
0010
0000
,
0013
0000
0001
0100
0010
1000
0100
0000
,
1001
0001
0100
0001
1000
0000
0000
0010
,
0100
0001
0000
0011
0000
1000
0001
0010
,
0100
1000
0010
1000
0100
0000
0000
0010
,
0001
0100
0000
0110
0000
1000
0010
0100
,
1001
0000
1010
0000
1100
0000
0000
0001
,
0011
0000
0101
0000
0110
0000
0000
1000
,
0020
0000
0230
0000
0302
0000
0003
1000
,
2000
0000
0000
0001
0000
0000
3100
0000
0000
0000
0000
0000
0000
0000
1000
0000
,
1010
0000
1010
0000
1000
1000
1000
1000
,
0000
0000
0000
0000
0011
0000
0001
0200
,
0000
0020
0000
0000
0000
0000
0330
0000
,
2000
0001
0010
3100
,
0002
0000
1000
1000
1003
0000
0000
0001
,
0100
0010
0000
1010
0000
0001
1000
0100
,
0010
0001
0100
0001
2000
0000
3000
0100
,
0010
0001
0000
1100
0000
0100
1000
0010
,
0100
0001
0010
0001
0100
0000
0010
1000
,
0001
1000
0000
0101
0000
0010
1000
0100
,
1000
0010
0001
0010
2000
0000
3000
0100
,
0010
0001
0000
0101
0000
3001
1000
0010
,
0100
1000
0100
0001
0100
0000
0000
0010
,
1000
0001
0000
1001
0000
1000
0100
0010
,
0001
0010
1000
0010
0001
0000
0000
0100
,
0010
1000
0000
0011
0000
0100
0001
0010
,
1000
0010
0001
0100
0010
0000
0000
0000
,
1001
0100
1000
0001
1000
0100
1000
0001
,
0010
0011
1010
0000
,
2000
0000
0000
3200
0000
0000
0310
0000
0001
0000
0000
0000
1000
0000
0001
0000
,
0100
0010
1000
0202
0000
0000
0003
0000
,
0310
0100
0001
1000
0000
0000
1000
0100
,
1100
1010
2002
3003
,
0001
0000
0100
0010
2000
0000
3100
0020
,
0000
0002
0000
0000
0000
0000
0030
0000
,
0203
0010
1000
0001
,
0310
1000
0100
0010
0001
0000
0000
0000
,
2010
0000
3001
0201
0000
0310
0110
0000
,
1001
0001
1000
0001
0100
0000
0000
0000
,
0012
1003
2100
3001
,
1010
0101
0011
1100
,
1000
0100
0010
0001
0100
0010
0110
0000
,
0101
1100
0011
1010
,
0001
1000
0010
1000
0100
0010
1001
0000
;

//---------------dance-single - ----------------
#NOTES:
     dance-single:
     :
     Easy:
     7:
     0.305694,0.368182,0.237762,0.293706,0.000000,306.000000,272.000000,34.000000,42.000000,0.000000,0.000000,0.305694,0.368182,0.237762,0.293706,0.000000,306.000000,272.000000,34.000000,42.000000,0.000000,0.000000:
0000
0000
0000
0000
,
0000
0000
0000
0000
,
0000
0000
0000
0000
,
0000
0000
0000
0000
,
1000
0100
1000
0010
,
0100
0001
0010
0100
,
1000
0010
0100
0010
,
1000
0100
0001
0010
,
0001
0100
0010
0100
,
0001
0010
0100
1000
,
0020
0000
0100
0000
,
0001
0000
1000
0000
,
0230
0000
1000
0000
,
0302
0000
0010
0000
,
2003
0000
3200
0000
,
0320
0000
0032
0000
,
2003
3002
0203
0320
,
2030
3020
0230
0302
,
0023
0100
0100
0000
,
1000
0001
0001
0130
,
0110
1000
0001
0000
,
1001
0010
0100
0010
,
1000
0001
0202
0003
,
0010
0010
0310
0000
,
1000
0100
2020
0030
,
0001
0001
3001
0000
,
0100
0100
0110
0000
,
1001
0000
1000
0001
,
0020
1000
0100
0000
,
0031
0100
0010
1000
,
0002
1000
1000
0000
,
0010
0000
0100
0000
,
0010
0010
0010
0000
,
0100
0000
0100
0000
,
1003
0010
1000
0100
,
0010
0001
1000
0010
,
1000
0100
0010
0001
,
0200
0010
1000
0002
,
0000
0000
0000
0303
,
1000
0001
1000
0010
,
0100
0100
0200
0000
,
0000
0000
0300
0110
,
2001
0010
0010
0010
,
0100
0100
0100
0100
,
3001
0011
1000
1010
,
0010
0100
0001
1000
,
0010
1000
0001
0000
,
0010
0100
0010
0001
,
0100
0010
1000
0000
,
0100
1000
0001
1000
,
0011
0011
0011
0000
,
1000
0001
0100
0000
,
1010
1010
1010
0000
,
0100
0010
0100
0000
,
1001
1001
0100
0010
,
1000
0000
1100
0001
,
0201
0020
0000
0300
,
2000
0000
0000
0030
,
3002
0010
1000
0000
,
0100
0010
1000
0103
,
0001
0010
1000
0001
,
0100
0010
1000
0100
,
1000
0010
1000
0100
,
0001
1000
0010
0100
,
0001
0010
0001
0100
,
0010
1000
0100
0010
,
0001
0100
0001
0010
,
1000
0001
1000
0100
,
1000
0010
0100
0000
,
0001
0010
0001
0100
,
1000
0010
0100
0000
,
0002
2003
3002
2003
,
3010
0101
0101
0000
,
1000
0010
0100
0001
,
1100
1100
1100
0000
,
0010
0100
0010
0000
,
0110
0110
0110
0000
,
0001
0000
1010
0100
,
2001
0200
0000
3000
,
0020
0000
0000
0330
,
0002
0100
0010
0003
,
2000
3010
0002
0103
,
0010
1000
0001
0000
,
0200
0000
0020
0330
,
1000
0001
1000
0100
,
0010
0001
0101
1100
,
0010
1000
0100
0001
,
1000
0010
0110
1001
;

//---------------dance-single - ----------------
#NOTES:
     dance-single:
     :
     Beginner:
     4:
     0.167832,0.275350,0.111888,0.104895,0.000000,168.000000,152.000000,16.000000,15.000000,0.000000,0.000000,0.167832,0.275350,0.111888,0.104895,0.000000,168.000000,152.000000,16.000000,15.000000,0.000000,0.000000:
0000
0000
0000
0000
,
0000
0000
0000
0000
,
0000
0000
0000
0000
,
0000
0000
0000
0000
,
1000
1000
1000
0000
,
0010
0000
0100
0000
,
0001
0001
0001
0000
,
0010
0000
0100
0000
,
0010
0010
0010
0000
,
0001
0000
1000
0000
,
0020
0000
0000
0000
,
0000
0000
0030
0000
,
2000
0000
3000
0000
,
0002
0000
0003
0000
,
0100
0000
0100
0000
,
0010
0000
0010
0000
,
1000
0000
1000
0000
,
0001
0000
0001
0000
,
0200
0000
0000
0000
,
0000
0000
0300
0000
,
0010
0010
0010
0000
,
1000
0000
0100
0000
,
1000
1000
1000
0000
,
0000
0000
0000
0000
,
0001
0001
0001
0000
,
0000
0000
0000
0000
,
0100
0100
0100
0000
,
0000
0000
0110
0000
,
2002
0000
0000
0000
,
3003
0000
0000
0000
,
0020
0000
0000
0000
,
0000
0000
0000
0000
,
0000
0000
0000
0000
,
0000
0000
0030
0000
,
1000
0000
1000
0000
,
0001
0000
0001
0000
,
0100
0000
0010
0000
,
0220
0000
0330
0000
,
1000
1000
1000
0000
,
0001
0000
0100
0000
,
0010
0010
0010
0000
,
1000
0000
0001
0000
,
2002
0000
0000
0000
,
0000
0000
3003
0000
,
0110
0000
1001
0000
,
1000
1000
1000
0000
,
0100
0100
0100
0000
,
0010
0000
0001
0000
,
0100
0100
0100
0000
,
0001
0000
1000
0000
,
0010
0010
0010
0000
,
0000
0000
0000
0000
,
0100
0100
0100
0000
,
0000
0000
0000
0000
,
0001
0001
0001
0001
,
0000
0000
1001
0000
,
0220
0000
0000
0000
,
0000
0000
0330
0000
,
1000
1000
1000
0000
,
0001
0000
0010
0000
,
0100
0100
0100
0000
,
1000
0000
0010
0000
,
0001
0001
0001
0000
,
0010
0000
0100
0000
,
0010
0010
0010
0000
,
0001
0000
0100
0000
,
0010
0010
0010
0000
,
1000
0000
0100
0000
,
1000
1000
1000
0000
,
0100
0000
0001
0000
,
0100
0100
0100
0000
,
0010
0000
0000
0000
,
0100
0100
0100
0000
,
0000
0000
0000
0000
,
0001
0001
0001
0000
,
0000
0000
0000
0000
,
1000
1000
1000
0000
,
0000
0000
0110
0000
,
2002
0000
0000
0000
,
0000
0000
3003
0000
,
0010
0010
0010
0000
,
0110
0000
1001
0000
,
0100
0100
0100
0000
,
1001
0000
0110
0000
,
1000
0000
0001
0000
,
0010
0000
0100
0000
,
1000
0000
0010
0000
,
0110
0000
1001
0000
;

//---------------dance-single - ----------------
#NOTES:
     dance-single:
     :
     Challenge:
     17:
     0.903097,0.951136,0.384615,0.118881,0.996503,904.000000,849.000000,55.000000,17.000000,0.000000,0.000000,0.903097,0.951136,0.384615,0.118881,0.996503,904.000000,849.000000,55.000000,17.000000,0.000000,0.000000:
// measure 0
0000
0000
0000
0000
,  // measure 1
0000
0000
0000
0000
,  // measure 2
0000
0000
0000
0000
,  // measure 3
0000
0000
0000
0000
,  // measure 4
0002
0000
0000
0000
1003
0100
0000
0000
2000
0000
0000
0000
3001
0100
0001
0000
,  // measure 5
1000
0000
0010
0100
0010
0000
1000
0000
0001
0000
0000
1000
0100
0010
0001
1000
,  // measure 6
0002
0000
0000
0000
1003
0010
0000
0000
0200
0000
0000
0000
0301
1000
0001
0000
,  // measure 7
0000
1000
0100
1000
0001
0100
0001
1000
0100
1000
0001
0100
0010
1000
0001
1000
,  // measure 8
0001
0000
0000
0000
1000
0100
1000
0100
0010
0001
0010
0001
1000
0010
1000
0010
,  // measure 9
0100
0001
0100
0001
1000
0100
0010
0001
0100
0010
1000
0001
1000
0000
0000
0000
,  // measure 10
1000
0001
1000
0001
1000
0001
1000
0001
1000
0000
0000
0000
0000
0000
0001
0100
,  // measure 11
0001
1000
0000
1100
0000
0100
0010
0001
,  // measure 12
1000
0010
1000
0010
1000
0010
1000
0010
1000
0000
0000
0000
0000
0000
0001
0010
,  // measure 13
0001
0100
0000
0011
0000
0010
0001
1000
,  // measure 14
0001
0010
0001
0010
0001
0010
0001
0010
0001
0000
0000
0000
0000
0000
1000
0010
,  // measure 15
1000
0100
0000
2001
0000
3010
0100
0001
,  // measure 16
1000
0100
1000
0000
0001
0100
0001
0000
1000
0010
1000
0000
0001
0010
0001
0000
,  // measure 17
1000
0001
0100
0000
0001
1000
0010
0000
1000
0100
0010
0000
0001
0100
0010
0000
,  // measure 18
1000
0100
0010
0100
1000
0100
0010
0100
1000
0000
0000
0000
0000
0000
0001
1000
,  // measure 19
0010
0100
0000
1010
0000
0001
1000
0100
,  // measure 20
0010
0001
1000
0001
0010
0001
1000
0001
0010
0000
0000
0000
0000
0000
0100
1000
,  // measure 21
0010
0100
0000
1001
0000
1000
0001
0100
,  // measure 22
0010
0100
0001
0100
0010
0100
0001
0100
0010
0000
0000
0000
0000
0000
1000
0001
,  // measure 23
0100
0010
0000
0101
0000
0100
0100
0010
,  // measure 24
1000
0001
0100
0001
1000
0001
0100
0001
1000
0000
0000
0000
0000
0000
0001
1000
,  // measure 25
0100
0010
0000
1100
0000
0001
1000
0010
,  // measure 26
1000
0100
1000
0100
0010
0001
0010
0001
0100
0000
0000
0000
0000
0000
0010
1000
,  // measure 27
0001
0010
0000
1001
0000
1000
0100
0010
,  // measure 28
0001
1000
0001
1000
0010
0100
0010
0100
0001
0000
0000
0000
0000
0000
0010
0100
,  // measure 29
1000
0010
0000
0110
0000
1000
0001
0100
,  // measure 30
0010
1000
0010
1000
0001
0100
0001
0100
0010
0000
0000
0000
0000
0000
1000
0001
,  // measure 31
0010
0100
1000
0101
0000
0001
1000
1000
,  // measure 32
0100
0010
0100
0010
0001
1000
0001
1000
0010
0000
0000
0000
0000
0000
0100
0001
,  // measure 33
0010
0001
1000
2100
0000
3010
0100
0001
,  // measure 34
1000
0000
0010
0100
0010
0000
1000
0000
0001
0000
1000
0100
1000
0000
0001
0000
,  // measure 35
0010
0000
0100
0010
0100
0000
1000
0000
0010
0000
0100
0010
0100
0000
0001
0000
,  // measure 36
1000
0000
0001
0010
0100
0000
1000
0000
0001
0000
1000
0100
0010
0000
0001
0000
,  // measure 37
1000
0010
0000
0100
0001
0000
1000
0010
0000
0100
0001
0000
0010
0000
0001
0000
,  // measure 38
1000
0010
1000
0010
1000
0100
1000
0100
1000
0000
0000
0000
0000
0000
0000
0000
,  // measure 39
0001
0010
1000
0010
0100
1000
0010
0100
0010
0100
0001
1000
0001
0100
0010
0001
,  // measure 40
0010
1000
0010
1000
0010
0100
0010
0100
0010
0000
0000
0000
0000
0000
1000
0001
,  // measure 41
0010
0100
1000
1001
0000
0001
1000
0100
,  // measure 42
1001
0000
1000
0100
1000
0000
0001
0100
0001
0000
1000
0010
1000
0000
0001
0010
,  // measure 43
0001
0000
1000
0001
0100
0000
0010
1000
0100
0000
0010
0001
1000
0000
0001
0100
,  // measure 44
0010
0000
0000
1001
0000
0000
0101
0000
0011
0000
0000
0110
0000
0000
1100
0000
,  // measure 45
1010
0000
0001
1000
0001
0100
0010
0100
0001
0010
0100
1000
0010
1000
0001
0100
,  // measure 46
0001
0010
0100
1000
0001
0010
0100
1000
0010
0000
0000
0000
1000
0001
0100
0001
,  // measure 47
1000
0010
0100
2010
0000
3001
0011
0100
,  // measure 48
1000
0010
0100
0001
1000
0010
0100
0001
0020
0000
0000
0000
0130
1000
0001
1000
,  // measure 49
0100
0010
0001
0102
0000
0103
0110
1000
,  // measure 50
0001
0010
0100
0010
0001
0100
0010
0100
0001
0000
0000
0000
0000
0000
1000
0001
,  // measure 51
1000
0010
0000
0110
0000
1000
1100
0100
,  // measure 52
1000
0010
0100
0010
1000
0100
0010
0100
1000
0000
0000
0000
0000
0000
0001
0010
,  // measure 53
0001
0100
0000
1001
0000
0001
0011
0000
,  // measure 54
0001
0010
0001
0100
0001
0100
0001
0010
0001
0000
1000
0000
1000
0000
1000
0010
,  // measure 55
0100
0001
0000
0010
1001
0100
0010
1010
,  // measure 56
0001
0100
0001
1000
0001
1000
0001
0100
0010
0000
0000
0000
0000
0000
0010
1000
,  // measure 57
0100
0010
0001
1100
0000
0101
1000
0010
,  // measure 58
1000
0010
0100
0001
1000
0010
0100
0001
0010
0000
0000
0000
0000
0000
0100
1000
,  // measure 59
0001
0100
0010
1010
0000
0110
1000
0001
,  // measure 60
0002
0000
0000
0000
0013
0100
1000
0000
0020
0000
0000
1030
0001
1000
0100
0000
,  // measure 61
0010
0001
1000
0001
0100
0000
0010
0000
2000
0000
0000
3001
1000
0100
0010
0001
,  // measure 62
0200
0000
0000
0000
0310
1000
0001
0000
0020
0000
0000
0031
1000
0001
0100
0000
,  // measure 63
0001
1000
0001
0100
1000
0100
0001
1000
0001
0010
0100
0001
0100
0010
0001
0100
,  // measure 64
0020
0000
0000
0000
1033
0100
1000
0100
0001
0100
0001
0100
0010
0100
0010
0100
,  // measure 65
1000
0001
1000
0001
0100
0010
0100
0010
1000
0000
0100
0000
0010
0000
0001
0000
,  // measure 66
0200
0000
0000
0000
0310
1000
0001
0000
2000
0000
0000
3010
0100
0001
1000
0000
,  // measure 67
0001
1000
0001
0010
1000
0010
0001
1000
0010
0100
0001
0100
0010
1000
0100
0010
,  // measure 68
0001
0100
0001
1000
0010
0100
0001
1000
0100
0000
0000
0000
0010
0001
1000
0001
,  // measure 69
0100
0000
0010
0000
1000
0000
0001
0000
0011
0000
0000
0110
0000
0000
1100
0000
,  // measure 70
0001
0100
0010
1000
0001
0100
0010
1000
0100
0000
0000
0000
1001
0000
1000
0001
,  // measure 71
1000
0100
0001
1000
0010
0001
1000
0100
0001
1000
0010
0001
1000
0001
0100
0000
,  // measure 72
0001
0100
0001
0100
0010
1000
0010
1000
0001
0000
0000
0000
0001
0100
0010
1000
,  // measure 73
0001
1000
0010
1100
0000
1001
0010
0100
,  // measure 74
0001
1000
0100
0010
0100
0010
0001
1000
0010
0000
0000
0000
0100
0010
1000
0001
,  // measure 75
0010
0100
1000
0011
0000
1010
0100
0001
,  // measure 76
1000
0100
0010
0001
0100
0010
1000
0001
1000
0000
0000
0000
1000
0100
0010
0001
,  // measure 77
0100
0000
0010
0000
1000
0000
0001
0000
1010
0000
0000
0110
0000
0000
0101
0000
,  // measure 78
0001
0100
0010
1000
0100
0010
0001
0100
0010
0000
0000
0000
1000
0001
1000
0100
,  // measure 79
0010
0001
0001
0100
0000
0110
1001
0110
,  // measure 80
1000
0100
0001
0100
1000
0010
0001
0010
1000
0000
0000
0000
0100
1000
0010
1000
,  // measure 81
0001
0100
0010
1010
0100
0010
1001
1000
,  // measure 82
0001
0010
1000
0010
0001
0100
1000
0100
0001
0000
0000
0000
1000
0100
1000
0001
,  // measure 83
0100
0000
0010
0000
1000
0000
0001
0000
0011
0000
1000
0000
1001
0000
1000
0001
,  // measure 84
1000
0000
0001
0100
0010
0000
1000
0100
1000
0000
0001
0100
0001
0000
0010
0001
,  // measure 85
1000
0000
0100
0001
0100
0010
0100
1000
0100
0000
1100
0000
0101
0000
0100
0010
,  // measure 86
1000
0000
0001
0100
0010
0000
1000
0001
0010
0000
0001
1000
0100
0000
1000
0001
,  // measure 87
1000
0010
0001
0010
1000
0100
0001
0100
1000
0000
0110
0000
1001
0000
0000
0000
;
