#VERSION:0.83;
#TITLE:Master Blaster;
#SUBTITLE:(Jammin');
#ARTIST:Stevie Wonder;
#TITLETRANSLIT:;
#SUBTITLETRANSLIT:;
#ARTISTTRANSLIT:;
#GENRE:;
#ORIGIN:;
#TAGS:;
#CREDIT:;
#BANNER:Master Blaster (Jammin')-bn.png;
#BACKGROUND:Master Blaster (Jammin')-bg.png;
#PREVIEWVID:;
#JACKET:Master Blaster (Jammin')-jacket.png;
#CDIMAGE:;
#DISCIMAGE:;
#LYRICSPATH:;
#CDTITLE:;
#MUSIC:Master Blaster (Jammin').ogg;
#OFFSET:0.000000;
#SAMPLESTART:57.671001;
#SAMPLELENGTH:20.000000;
#SELECTABLE:YES;
#DISPLAYBPM:129.000000:133.000000;
#BPMS:0.000000=131.000000,
48.000000=130.000000,
64.000000=131.000000,
68.000000=129.000000,
72.000000=130.000000,
80.000000=131.000000,
96.000000=132.000000,
120.000000=130.000000,
136.000000=131.000000,
160.000000=130.000000,
164.000000=131.000000,
168.000000=132.000000,
192.000000=131.000000,
204.000000=129.000000,
216.000000=131.000000,
220.000000=133.000000,
232.000000=131.000000,
252.000000=130.000000;
#STOPS:;
#DELAYS:;
#WARPS:;
#TIMESIGNATURES:0.000000=4=4;
#TICKCOUNTS:0.000000=4;
#COMBOS:0.000000=1;
#SPEEDS:0.000000=1.000000=0.000000=0;
#SCROLLS:0.000000=1.000000;
#FAKES:;
#LABELS:0.000000=Song Start;
#BGCHANGES:;
#KEYSOUNDS:;
#ATTACKS:
;

//---------------dance-single - ----------------
#NOTEDATA:;
#CHARTNAME:;
#CHARTHASH:0:
#STEPSTYPE:dance-single;
#BANNER:;
#DESCRIPTION:;
#CHARTSTYLE:;
#DIFFICULTY:Medium;
#METER:9;
#METERF:0.000000;
#RADARVALUES:0.341056,0.422910,0.242529,0.181897,0.272845,315.000000,283.000000,32.000000,24.000000,0.000000,0.000000,0.000000,0.000000,0.000000,0.341056,0.422910,0.242529,0.181897,0.272845,315.000000,283.000000,32.000000,24.000000,0.000000,0.000000,0.000000,0.000000,0.000000;
#CREDIT:;
#DISPLAYBPM:129.000000:133.000000;
#NOTES:
0000
0000
0000
0000
,
0000
0000
0000
0000
,
0000
0000
0000
0000
,
0000
0000
0000
0000
,
0000
0000
0000
0000
,
0000
0000
0000
0000
,
0000
0000
0000
0000
,
0000
0000
0000
0000
,
0010
0000
0000
0001
0000
0001
0000
0000
0000
1000
0000
1000
,
0000
0000
0000
0001
0000
0001
0000
0000
0000
0100
0000
0100
,
0000
0000
0000
0010
0000
0010
0000
0000
0000
0001
0000
0001
,
0000
0000
0000
1000
0000
1000
0000
0000
0000
0001
0000
0001
,
0000
0000
0000
1000
0000
1000
0000
0000
0000
0100
0000
0100
,
0000
0000
0000
0010
0000
0010
0000
0000
0000
1000
0000
1000
,
0000
0000
0000
0001
0000
0001
0000
0000
0000
0100
0000
0100
,
0010
0110
1001
0110
,
0001
0100
0010
1000
,
2100
0001
0100
3010
,
1000
0001
0010
0100
,
0021
1000
0100
0031
,
0100
0010
1000
0001
,
1002
0010
0100
1003
,
0001
0000
0001
0100
0000
0100
0010
0000
0010
1000
0000
0000
,
1100
0101
1100
0101
,
0010
0000
0000
1000
0000
0000
0001
0000
0000
0010
0000
0001
,
0200
1000
0001
0310
,
1000
0000
0000
0001
0000
0000
0010
0000
0000
0100
0000
0100
,
2000
0010
0100
3001
,
0010
0000
0000
0100
0000
0000
0010
0000
0000
0001
0000
1000
,
0020
0100
0001
1030
,
0001
0000
0001
1000
0000
1000
0010
0000
0000
0100
0000
0000
,
0101
0000
0000
1010
0000
0000
0001
0000
0001
1000
0000
0000
,
0010
0000
0000
1000
0000
1000
0000
0000
0000
0100
0000
0100
,
1000
0000
1000
0001
0000
0000
0010
0000
0010
0001
0000
0000
,
0100
0000
0000
0001
0000
0001
0000
0000
0000
1000
0000
1000
,
0001
0000
0000
0011
0000
0000
1010
0000
0000
0010
0000
1000
,
0100
0000
0000
0001
0000
0001
0000
0000
0000
0010
0000
0010
,
0001
0000
0001
0100
0000
0000
0010
0000
0010
1000
0000
0000
,
0100
0000
0000
1000
0000
1000
0000
0000
0000
0001
0000
0001
,
0010
0000
0000
1001
0000
0000
0110
0000
0000
1000
0000
0001
,
0200
0000
0000
0300
0000
0001
0020
0000
0000
0030
0000
0001
,
1000
0000
0000
0100
0000
0010
0002
0000
0000
0003
0000
0100
,
0020
0000
0000
0030
0000
0100
0002
0000
0000
0003
0000
1000
,
0001
1100
1000
0101
,
0010
0000
0000
1000
0000
0000
0100
0000
0000
0010
0000
0010
,
0001
0110
1000
1010
,
0100
0000
0000
0010
0000
0000
0001
0000
0000
1000
0000
0001
,
1000
0011
0100
0101
,
0010
1000
0100
0001
,
2001
0010
0100
3001
,
0020
0000
0000
0032
0000
0000
2003
0000
0000
3010
0000
0100
,
0001
1010
0110
0101
,
1000
0000
0000
0001
0000
0001
0100
0000
0100
0010
0000
0000
,
0000
0000
0000
1000
0000
1000
0000
0000
0000
0001
0000
0001
,
1000
0000
0010
1000
0000
0000
0000
0000
0000
0100
0000
0100
,
0000
0000
0000
0010
0000
0010
0000
0000
0000
0001
0000
0001
,
0100
0000
0010
0100
0000
0000
0000
0000
0000
0001
0000
0001
,
0000
0000
0000
1000
0000
1000
0000
0000
0000
0100
0000
0100
,
2000
3002
0023
0130
,
0011
0000
0000
1010
0000
0000
0001
0000
1000
0010
0000
0000
,
1002
0010
1000
0100
,
1003
0000
1000
0001
0000
0001
0100
0000
0100
0010
0000
0000
,
0201
0010
1000
0001
,
0310
0000
0010
0001
0000
0001
0100
0000
0100
1000
0000
0000
,
2100
0010
0100
0001
,
3100
0000
0100
1000
0000
1000
0001
0000
0001
0010
0000
0000
,
0021
0100
0001
1000
,
0031
0000
0001
0100
0000
0100
0010
0000
0010
1000
0000
2000
,
0002
0000
0000
0000
,
0000
0000
0000
3003
;

//---------------dance-single - ----------------
#NOTEDATA:;
#CHARTNAME:;
#CHARTHASH:0:
#STEPSTYPE:dance-single;
#BANNER:;
#DESCRIPTION:;
#CHARTSTYLE:;
#DIFFICULTY:Challenge;
#METER:14;
#METERF:0.000000;
#RADARVALUES:0.587916,0.607933,0.257687,0.136423,1.110328,543.000000,509.000000,34.000000,18.000000,0.000000,0.000000,0.000000,0.000000,0.000000,0.587916,0.607933,0.257687,0.136423,1.110328,543.000000,509.000000,34.000000,18.000000,0.000000,0.000000,0.000000,0.000000,0.000000;
#CREDIT:;
#DISPLAYBPM:129.000000:133.000000;
#NOTES:
0000
0000
0000
0000
,
0000
0000
0000
0000
,
0000
0000
0000
0000
,
0000
0000
0000
0000
,
0000
0000
0000
0000
,
0000
0000
0000
0000
,
0000
0000
0000
0000
,
0000
0000
0000
0000
,
0010
0001
1000
0100
0000
0100
2000
0000
0000
3010
0000
0100
,
1000
0000
0001
0010
0000
0010
0100
0000
0010
0001
0000
0001
,
1000
0010
0100
0001
0000
0001
0020
0000
0000
0130
0000
0100
,
1000
0000
0001
1000
0000
0100
0010
0000
0100
1000
0000
0001
,
0100
0001
1000
0010
0000
1000
0200
0000
0000
0310
0000
0001
,
1000
0000
0001
0010
0000
0100
1000
0000
0001
1000
0000
0010
,
0100
0010
1000
0001
0000
0010
0002
0000
0000
0103
0000
0010
,
1000
0000
0000
1100
0000
0000
0110
0000
0000
0011
0000
1000
,
0001
0000
0100
0000
0010
0000
1010
0000
0010
1000
0000
0001
,
1000
0100
0010
0001
0000
0001
0100
0010
1000
0001
0000
0010
,
0100
0000
1000
0000
0001
0000
0201
0000
0000
0310
0000
1000
,
0100
1000
0010
0100
0000
0100
0001
0010
0001
1000
0000
1000
,
0010
0000
1000
0000
0001
0000
1001
0000
1000
0010
0000
0100
,
0001
0010
0001
1000
0000
0100
1000
0000
0010
0100
0001
1000
,
0010
0100
0001
0010
0100
1000
0001
0000
1000
0010
0000
0100
,
0001
0000
0010
0100
0000
0100
1000
0010
1000
0001
0000
0001
,
1000
0000
0100
0000
0010
0000
0011
0000
0000
1100
0000
0001
,
1000
0001
1000
0010
0000
0100
0010
1000
0001
0100
0000
0100
,
0010
0000
0100
0000
0001
0000
2010
0000
0000
3100
0000
1000
,
0001
1000
0001
0010
0000
0010
0100
0010
0001
1000
0000
1000
,
0010
0000
0100
0000
0001
0000
1001
0000
1000
0001
0000
0010
,
0100
1000
0001
0010
0000
0100
1000
0000
1000
0001
0100
0010
,
1000
0100
0010
0001
0100
0010
2000
0000
3002
0000
0103
0000
,
1001
0000
0000
0110
0000
0010
1000
0000
0001
1000
0000
0010
,
0100
0000
0100
0010
0000
0010
1000
0000
1000
0001
0010
0100
,
1000
0100
1000
0001
0100
0001
0010
0000
0010
0000
0010
0000
,
1100
0000
1000
0001
0000
0001
0100
0000
0100
0010
1000
0100
,
0010
0001
1000
0001
0000
0100
0010
0000
0010
1000
0000
0001
,
0010
0000
0010
0001
0000
0001
1000
0000
1000
0010
1000
0100
,
1000
0010
0100
0001
0010
0100
1000
0000
1000
0000
1000
0000
,
0101
0000
0001
0010
0000
0010
0001
0000
1000
0010
1000
0100
,
1000
0010
0100
0001
0010
0100
1000
0001
0100
0010
1000
0100
,
0020
0000
0000
0030
0001
0100
2000
0000
0000
3000
0010
0100
,
0001
0010
0100
1000
0001
0100
0020
0000
0000
0030
1000
0100
,
0002
0000
0000
0003
0010
0001
0200
0000
0000
0300
0001
0010
,
1000
0100
0001
1000
0010
0001
1000
0100
0001
1000
0010
0001
,
0100
0000
0020
0000
1030
0000
1010
0000
0001
1000
0000
0010
,
1000
0100
0010
0001
0000
1000
0001
0010
0100
1000
0000
0001
,
0100
0000
0010
0000
1000
0000
0021
0000
0000
0130
0000
0010
,
0001
0100
0001
1000
0000
0010
1000
0100
0010
0001
0000
0001
,
0100
0000
0101
0000
1100
0000
0011
0000
0110
0000
1100
0000
,
0001
1000
0100
1000
0000
0010
0100
0000
0100
0001
0010
0100
,
1000
0000
0010
1000
0000
0100
0010
0000
0001
1000
0010
0100
,
0001
0000
1000
0001
0000
0010
0100
0000
1000
0010
0000
0100
,
0001
0000
0101
0000
1001
0000
1100
0000
1000
0010
0000
0100
,
0001
0010
0001
1000
0000
0010
0100
0010
1000
0100
0000
0100
,
0010
0000
1001
0000
0100
0000
1020
0000
0000
0031
0000
1000
,
0100
0010
0001
0100
0000
0100
0001
1000
0010
1000
0000
0001
,
0010
0000
1100
0000
0001
0000
0101
0000
0100
0010
0000
1000
,
0001
1000
0010
1000
0000
0100
0010
0000
0001
0100
0010
1000
,
0001
0010
0000
0100
1000
0000
1010
0000
0101
0000
1100
0000
,
0001
0010
0100
1000
0000
0010
1000
0000
0001
1000
0000
0100
,
0010
0000
0010
0001
0000
0001
0100
0000
0100
0010
1000
0001
,
1000
0100
0010
0001
0100
0001
1000
0000
0010
0000
0100
0000
,
0110
0000
0010
1000
0000
1000
0100
0000
0100
0010
0001
1000
,
0001
0100
0010
1000
0001
1000
0100
0000
0010
0001
0000
1000
,
0001
0000
1000
0100
0000
1000
0010
0000
0100
0001
0010
0100
,
1000
0001
0010
0001
0100
0010
1000
0000
0100
0000
0001
0000
,
1001
0000
0001
0010
0000
0010
0100
0000
0100
1000
0010
0000
,
1000
0100
1000
0001
0010
0001
0100
0010
1000
0001
0000
0022
,
0000
0000
0000
0000
,
0000
0000
0000
0033
;

//---------------dance-single - ----------------
#NOTEDATA:;
#CHARTNAME:;
#CHARTHASH:0:
#STEPSTYPE:dance-single;
#BANNER:;
#DESCRIPTION:;
#CHARTSTYLE:;
#DIFFICULTY:Easy;
#METER:5;
#METERF:0.000000;
#RADARVALUES:0.188393,0.264319,0.030316,0.189476,0.000000,174.000000,170.000000,4.000000,25.000000,0.000000,0.000000,0.000000,0.000000,0.000000,0.188393,0.264319,0.030316,0.189476,0.000000,174.000000,170.000000,4.000000,25.000000,0.000000,0.000000,0.000000,0.000000,0.000000;
#CREDIT:;
#DISPLAYBPM:129.000000:133.000000;
#NOTES:
0000
0000
0000
0000
,
0000
0000
0000
0000
,
0000
0000
0000
0000
,
0000
0000
0000
0000
,
0000
0000
0000
0000
,
0000
0000
0000
0000
,
0000
0000
0000
0000
,
0000
0000
0000
0000
,
0000
0010
0000
0010
,
0000
0001
0000
0001
,
0000
1000
0000
1000
,
0000
0100
0000
0100
,
0000
1000
0000
1000
,
0000
0001
0000
0001
,
0000
0010
0000
0010
,
0001
1000
0001
1000
,
0010
1000
0100
0001
,
0020
0000
0000
0030
,
0001
0100
0010
1000
,
0002
0000
0000
0003
,
1000
0100
1000
0010
,
0200
0000
0000
0300
,
0010
1000
0100
0001
,
1000
0100
1000
0100
,
0010
0001
0100
0001
,
2000
0000
0000
3000
,
0100
0010
0001
0100
,
0020
0000
0000
0030
,
1000
0001
1000
0010
,
0200
0000
0000
0300
,
0001
0010
0001
1000
,
0010
0100
0010
0100
,
0220
0000
0000
0330
,
0001
0010
1000
0100
,
0020
0000
0000
0030
,
0001
0100
0010
1000
,
2002
0000
0000
3003
,
1000
0001
1000
0100
,
0002
0000
0000
0003
,
1000
0100
0010
0001
,
0200
0300
0020
0030
,
1000
0001
0200
0300
,
0002
0003
2000
3000
,
0010
0010
0100
0100
,
0001
0010
1000
0100
,
0010
0002
0000
0003
,
0100
0001
0010
0100
,
2000
0000
0000
3000
,
0100
1000
0001
1000
,
0010
0200
0000
0300
,
0001
0010
0001
0100
,
1000
1000
0001
0001
,
1000
0001
1000
0100
,
0001
0020
0000
0030
,
0001
1000
0001
0100
,
0020
0000
0000
0030
,
0010
1000
0100
0010
,
0001
2000
0000
3000
,
0010
1000
0001
0010
,
0100
0100
0100
0100
,
0110
0000
0001
0000
,
0100
0100
0010
1000
,
0100
0000
1000
0000
,
0001
1000
0001
0010
,
0100
0000
1000
0000
,
0010
0010
1000
0001
,
0010
0000
0100
0000
,
1000
0001
0100
0010
,
2002
0000
0000
0000
,
0000
0000
0000
3003
;

//---------------dance-single - ----------------
#NOTEDATA:;
#CHARTNAME:;
#CHARTHASH:0:
#STEPSTYPE:dance-single;
#BANNER:;
#DESCRIPTION:;
#CHARTSTYLE:;
#DIFFICULTY:Beginner;
#METER:2;
#METERF:0.000000;
#RADARVALUES:0.101776,0.128844,0.000000,0.000000,0.000000,94.000000,94.000000,0.000000,0.000000,0.000000,0.000000,0.000000,0.000000,0.000000,0.101776,0.128844,0.000000,0.000000,0.000000,94.000000,94.000000,0.000000,0.000000,0.000000,0.000000,0.000000,0.000000,0.000000;
#CREDIT:;
#DISPLAYBPM:129.000000:133.000000;
#NOTES:
0000
0000
0000
0000
,
0000
0000
0000
0000
,
0000
0000
0000
0000
,
0000
0000
0000
0000
,
0000
0000
0000
0000
,
0000
0000
0000
0000
,
0000
0000
0000
0000
,
0000
0000
0000
0000
,
0000
0010
0000
0000
,
0000
0001
0000
1000
,
0000
0001
0000
0000
,
0000
0100
0000
0010
,
0000
0100
0000
0000
,
0000
0010
0000
1000
,
0000
0001
0000
0000
,
0000
1000
0000
0000
,
0010
0000
0010
0000
,
1000
0000
0000
0000
,
0001
0000
0001
0000
,
0100
0000
0000
0000
,
0100
0000
0010
0000
,
0100
0000
0000
0000
,
0001
0000
0001
0000
,
0001
0000
0000
0000
,
1000
0000
0100
0000
,
0100
0000
0000
0000
,
0010
0000
0001
0000
,
1000
0000
0000
0000
,
0100
0000
0100
0000
,
0010
0000
0000
0000
,
0001
0000
0001
0000
,
1000
0000
1000
0000
,
0010
0000
0000
0000
,
1000
0000
1000
0000
,
0001
0000
0000
0000
,
0010
0000
0010
0000
,
0100
0000
0000
0000
,
1000
0000
1000
0000
,
0001
0000
0000
0000
,
0100
0000
0001
0000
,
1000
0000
1000
0000
,
0001
0000
0001
0000
,
0100
0000
0100
0000
,
0010
0000
0010
0000
,
1000
0000
0100
0000
,
0001
0000
0000
0000
,
0010
0000
0001
0000
,
0100
0000
0000
0000
,
1000
0000
0001
0000
,
1000
0000
0000
0000
,
0010
0000
0010
0000
,
0010
0000
0000
0000
,
0100
0000
0001
0000
,
0010
0000
0000
0000
,
0001
0000
0100
0000
,
1000
0000
0000
0000
,
1000
0000
0010
0000
,
0100
0000
0000
0000
,
0010
0000
0010
0000
,
0100
0000
0100
0000
,
0001
0000
0000
0000
,
0010
0000
0001
0000
,
0100
0000
0000
0000
,
1000
0000
1000
0000
,
0100
0000
0000
0000
,
0010
0000
0100
0000
,
1000
0000
0000
0000
,
0001
0000
1000
0000
,
0001
0000
0000
0000
;

//---------------dance-single - ----------------
#NOTEDATA:;
#CHARTNAME:;
#CHARTHASH:0:
#STEPSTYPE:dance-single;
#BANNER:;
#DESCRIPTION:;
#CHARTSTYLE:;
#DIFFICULTY:Hard;
#METER:12;
#METERF:0.000000;
#RADARVALUES:0.468817,0.502206,0.318319,0.136423,0.659376,433.000000,391.000000,42.000000,18.000000,0.000000,0.000000,0.000000,0.000000,0.000000,0.468817,0.502206,0.318319,0.136423,0.659376,433.000000,391.000000,42.000000,18.000000,0.000000,0.000000,0.000000,0.000000,0.000000;
#CREDIT:;
#DISPLAYBPM:129.000000:133.000000;
#NOTES:
// measure 0
0000
0000
0000
0000
,  // measure 1
0000
0000
0000
0000
,  // measure 2
0000
0000
0000
0000
,  // measure 3
0000
0000
0000
0000
,  // measure 4
0000
0000
0000
0000
,  // measure 5
0000
0000
0000
0000
,  // measure 6
0000
0000
0000
0000
,  // measure 7
0000
0000
0000
0000
,  // measure 8
0010
0000
0001
1000
0000
1000
0100
0000
0000
1100
0000
0000
,  // measure 9
1000
0000
1000
0010
0000
0010
0100
0000
0100
0001
0000
0001
,  // measure 10
0010
0000
0100
1000
0000
1000
0010
0000
0000
0101
0000
0000
,  // measure 11
0100
0000
0100
0001
0000
0001
1000
0000
1000
0010
0000
0010
,  // measure 12
1000
0000
0001
0100
0000
0100
0010
0000
0000
1010
0000
0000
,  // measure 13
1000
0000
1000
0001
0000
0001
0100
0000
0100
0010
0000
0010
,  // measure 14
0100
0000
0001
0010
0000
0010
0100
0000
0000
0110
0000
0000
,  // measure 15
0011
1100
0101
1001
,  // measure 16
1000
0000
0010
0000
0100
0000
0001
0000
0000
0001
0000
1000
,  // measure 17
0100
1000
0000
1010
0000
0000
0001
0000
0000
0101
0000
0000
,  // measure 18
0010
0000
0001
0000
1000
0000
0200
0000
0000
1300
0000
0001
,  // measure 19
0000
0100
0000
0001
0000
0001
1000
0000
0000
1001
0000
0000
,  // measure 20
0001
0000
0010
0000
0100
0000
1000
0000
0000
1000
0000
0010
,  // measure 21
0100
0000
0100
0001
0000
0001
1000
0000
0000
0010
0100
0010
,  // measure 22
0100
0000
0010
1000
0000
0010
1000
0000
0001
0010
0000
0100
,  // measure 23
1000
0000
0000
1100
0000
0000
0110
0000
0000
0011
0000
0001
,  // measure 24
0100
0000
0010
0000
1000
0000
0020
0000
0000
1030
0000
0001
,  // measure 25
1000
0001
0000
0101
0000
0100
0010
0000
0000
1010
0000
0001
,  // measure 26
1000
0000
0001
0000
0010
0000
0200
0000
0000
1300
0000
0001
,  // measure 27
1000
0000
0000
1001
0000
0001
0010
0000
0000
1100
0000
0100
,  // measure 28
1000
0000
0010
0000
1000
0000
0001
0000
0000
0100
0000
0010
,  // measure 29
1000
0000
1000
0001
0000
0010
0001
0000
0000
0100
0010
0100
,  // measure 30
0001
0000
0001
1000
0000
1000
0010
0000
0010
0000
0010
0000
,  // measure 31
0110
0000
0000
0101
0000
0000
0001
0000
1000
0100
0000
1000
,  // measure 32
0010
0000
1000
0200
0000
0000
0001
0000
0000
1300
0000
0000
,  // measure 33
0001
0010
0100
1000
0000
0000
0001
0000
0001
1000
0000
0000
,  // measure 34
0100
0000
1000
0002
0000
0000
0010
0000
0000
0103
0000
0000
,  // measure 35
0011
0000
0000
1100
0000
0000
0101
0000
0000
1010
0000
1000
,  // measure 36
0100
0000
1000
0020
0000
0000
0001
0000
0000
1030
0000
0000
,  // measure 37
1000
0100
0010
0001
0000
0000
0100
0000
0100
0010
0000
0000
,  // measure 38
1000
0000
0001
0020
0000
0000
1000
0000
0000
0130
0000
0000
,  // measure 39
0010
0001
1000
0010
0000
0010
0100
0000
0100
0001
0000
1000
,  // measure 40
0020
0000
0000
0030
1000
0001
2000
0000
0000
3000
0100
0010
,  // measure 41
0001
0000
0001
1000
0000
1000
0200
0000
0000
0300
1000
0010
,  // measure 42
2000
0000
0000
3000
0001
0100
0002
0000
0000
0003
0010
0001
,  // measure 43
1000
0100
1000
0001
0000
0001
0100
0000
0100
0010
1000
0010
,  // measure 44
0100
0000
0001
0000
0010
0000
0011
0000
0001
1000
0000
0010
,  // measure 45
1000
0010
0000
0110
0000
0001
1000
0000
0000
1100
0000
0100
,  // measure 46
0010
0000
0001
0000
1000
0000
0201
0000
0000
0000
0310
0000
,  // measure 47
1000
0000
0001
0100
0000
0100
0010
0000
0010
1000
0000
0001
,  // measure 48
1000
0000
0100
0000
1000
0000
0010
0000
0100
0000
0001
0000
,  // measure 49
0010
0000
0010
0100
0000
0100
1000
0000
0000
0001
1000
0001
,  // measure 50
0200
0000
0000
0310
0100
0000
0001
0000
0001
1000
0100
1000
,  // measure 51
0010
0000
0000
1100
0000
0000
0101
0000
0000
1001
0000
0100
,  // measure 52
0001
0000
1000
0000
0100
0000
1010
0000
0000
0011
0000
0001
,  // measure 53
0000
1000
0000
0010
0000
0010
1000
0000
0000
1100
0000
0001
,  // measure 54
0100
0000
0010
0000
1000
0000
1002
0000
0000
0000
0013
0000
,  // measure 55
0100
0000
1000
0001
0000
0000
0010
0000
0001
0100
0000
0000
,  // measure 56
0010
0000
1000
0000
0001
0000
0011
0000
0010
0001
0000
1000
,  // measure 57
0010
0000
0010
0100
0000
0001
1000
0000
0000
0010
1000
0001
,  // measure 58
0020
0000
0000
0230
0000
0000
1300
0000
0001
0000
0100
0000
,  // measure 59
0010
0000
0010
1000
0000
1000
0001
0000
0001
0100
0000
0100
,  // measure 60
1000
0000
1000
0010
0000
0010
0001
0000
0001
0010
0000
0010
,  // measure 61
1000
0000
1000
0100
0000
0100
0001
0000
0001
0100
0000
0100
,  // measure 62
1000
0000
0001
0100
0000
0000
0010
0000
0100
0001
0000
0000
,  // measure 63
1100
0000
0000
0011
0000
0000
0001
0000
0100
0010
0000
1000
,  // measure 64
0001
0000
0001
0100
0000
0100
1000
0000
1000
0100
0000
0100
,  // measure 65
0001
0000
0001
0010
0000
0010
1000
0000
1000
0010
0000
0010
,  // measure 66
0001
0000
1000
0100
0000
0000
1000
0000
0010
0100
0000
0000
,  // measure 67
0101
0000
0000
1100
0000
0000
0011
0000
0000
1001
0000
1000
,  // measure 68
0020
0000
0000
0000
,  // measure 69
0000
0000
0000
0030
;
