#TITLE:Manhattan Sports Club;
#ARTIST:simon;
#BANNER:Manhattan Sports Club-bn.png;
#BACKGROUND:Manhattan Sports Club-bg.png;
#JACKET:Manhattan Sports Club-jacket.png;
#MUSIC:Manhattan Sports Club.ogg;
#SAMPLESTART:43.146;
#SAMPLELENGTH:20;
#DISPLAYBPM:178;
#BPMS:0=178;
#BGCHANGES:;

//---------------dance-single - ----------------
#NOTES:
     dance-single:
     :
     Beginner:
     4:
     :
0000
0000
0000
0000
,
0000
0000
0000
0000
,
0000
0000
0000
0000
,
0000
0000
0000
0000
,
0000
0000
0000
0000
,
0000
0000
0000
0000
,
0010
0000
0000
0001
,
0001
0000
0000
1000
,
1000
0000
0010
0000
,
0100
0100
0100
0100
,
0100
0000
0001
0000
,
0010
0000
0001
0000
,
1000
0000
0010
0000
,
1000
0000
0001
0000
,
0100
0000
0010
0000
,
1000
1000
1000
0000
,
0000
0001
0001
0000
,
0000
1000
1000
0000
,
0000
0010
0000
0010
,
0000
1000
0000
0001
,
0000
0100
0100
0000
,
0000
0010
0010
0000
,
0000
1000
0000
1000
,
0000
0100
0000
0010
,
0000
0001
0001
0000
,
0000
0100
0100
0000
,
0000
0001
0000
0001
,
0000
1000
0000
0100
,
0000
1000
1000
0000
,
0000
0010
0010
0000
,
0000
0100
0000
0100
,
0000
0001
0000
0010
,
0010
0000
0001
0000
,
0100
0000
0010
0000
,
1000
0000
0100
0000
,
1000
0000
0001
0000
,
1000
0000
0010
0000
,
0100
0000
0001
0000
,
0010
0000
0100
0000
,
0110
0000
1001
0000
,
0010
0000
1000
0000
,
0100
0100
0100
0000
,
1000
0000
0001
0000
,
0010
0010
0010
0000
,
0001
0000
0100
0000
,
1000
1000
1000
0000
,
0010
0000
0100
0000
,
0110
0000
0000
1001
,
0000
0000
0000
0000
,
0010
0010
0010
0000
,
0000
1000
1000
0000
,
0000
0100
0100
0000
,
0000
1000
0000
0010
,
0000
0100
0000
0001
,
0000
0010
0010
0000
,
0000
0001
0001
0000
,
0000
0100
0000
0010
,
0000
1000
0000
0001
,
0000
1000
1000
0000
,
0001
0000
0100
0000
,
0010
0000
1000
0000
,
0100
0000
0010
0000
,
0001
0000
0100
0000
,
0001
0000
0010
0000
,
0001
0000
0100
0000
,
0010
0000
1000
0000
,
0100
0000
0100
0000
,
0100
0000
0100
0000
,
1000
0000
0001
0000
,
1000
0000
0001
0000
,
0100
0000
0010
0000
,
1000
1000
1000
0000
;

//---------------dance-single - ----------------
#NOTES:
     dance-single:
     :
     Easy:
     7:
     :
0000
0000
0000
0000
,
0000
0000
0000
0000
,
0000
0000
0000
0000
,
0000
0000
0000
0000
,
0000
0000
0000
0000
,
0000
0000
0000
0000
,
0010
0001
0100
1010
,
0101
1000
0001
1100
,
0011
0100
0010
1000
,
0001
0010
0001
0100
,
1000
1000
0001
0001
,
1000
1000
0010
0100
,
0001
0010
0001
0010
,
0001
0100
0010
1000
,
0100
0100
0100
0100
,
1000
0001
1000
1001
,
0000
0010
1000
1100
,
0000
0001
0100
0101
,
0000
0010
1000
0100
,
1000
0010
0100
0001
,
0000
1000
0100
0110
,
0000
0010
0001
1001
,
0000
0001
0010
0001
,
0100
0010
1000
0001
,
0000
1000
0001
1010
,
0000
0010
0100
0101
,
0000
0010
0001
0100
,
0010
1000
0100
1000
,
0000
0001
0010
0110
,
0000
0100
1000
0011
,
0000
0010
0001
0100
,
0010
1000
0001
1000
,
0200
0300
1000
0001
,
0010
0100
1000
0010
,
2000
3000
0001
0100
,
0001
1000
0100
0010
,
0002
0003
0010
0001
,
0100
0010
1000
0001
,
0020
0030
0001
0100
,
1010
0000
0101
0000
,
2000
3000
0010
1000
,
0100
0010
0001
0100
,
0002
0003
0010
0001
,
0100
0010
1000
0001
,
0200
0300
0010
0100
,
0010
1000
0001
0100
,
0020
0030
1000
0001
,
0011
0100
0010
1001
,
0010
0010
0010
0010
,
1000
0001
0100
0110
,
0000
0001
1000
0110
,
0000
0010
0100
1100
,
0000
0010
0100
0010
,
1000
0100
0001
0010
,
0000
0001
0100
0101
,
0000
0010
1000
1001
,
0000
0010
0001
0010
,
0001
0100
0010
1000
,
0100
0010
0001
0011
,
1000
1010
0100
1100
,
0010
0001
1000
1010
,
0100
0110
0010
1001
,
0100
0001
1000
1010
,
0001
1100
0010
0101
,
0010
0001
0100
0110
,
0001
0011
1000
0010
,
1000
1000
0001
0001
,
1000
0100
0010
0001
,
0100
0100
0010
0010
,
0100
0010
1000
0001
,
0010
0010
0010
0010
,
0001
0100
1000
1001
;

//---------------dance-single - ----------------
#NOTES:
     dance-single:
     :
     Medium:
     10:
     :
0000
0000
0000
0000
,
0000
0000
0000
0000
,
0000
0000
0000
0000
,
0000
0000
0000
0000
,
0000
0000
0000
0000
,
0000
0000
0000
0000
,
0010
0000
0001
0100
1000
0000
1010
0000
,
0101
0000
1000
0100
0001
0000
0011
0000
,
1100
0010
1001
0100
,
1010
0101
0011
1100
,
2000
3020
2030
3002
,
0023
0000
0230
0000
1300
0010
1000
0001
,
0200
0000
0310
1000
0200
0000
0310
0001
,
2000
3002
0023
0230
,
1300
0010
1000
0000
0001
0010
0001
0000
,
0100
0010
2000
0000
3001
0000
1001
0000
,
0000
1000
0010
0100
0001
0000
0011
0000
,
0000
0001
0100
0010
1000
0000
1010
0000
,
0000
1000
0100
1000
0002
0000
0103
0001
,
0020
0000
0230
0000
1300
0100
0001
0010
,
0000
0001
1000
0010
0100
0000
0110
0000
,
0000
0100
0010
1000
0001
0000
0110
0000
,
0000
0001
0010
0100
2000
0000
3010
1000
,
0200
0000
0320
0000
0031
0100
0001
1000
,
0000
0001
0100
0001
1000
0100
1100
0000
,
0000
0010
1000
0010
0100
0001
0101
0000
,
0000
0010
0001
0010
0200
0000
1300
0010
,
2000
0000
3002
0000
0013
0100
0010
0100
,
0000
0100
1000
0010
1000
0001
1001
0000
,
0000
0010
0001
0100
0001
1000
1001
0000
,
0000
0100
1000
0010
2000
0000
3001
0010
,
0002
0000
0103
0010
1000
0010
0100
0001
,
0020
0000
0030
0001
0010
0000
0001
0100
,
0010
0000
1010
0000
0101
0000
1000
0100
,
2000
0000
3000
0001
1000
0000
0001
0100
,
0010
0000
1010
0000
1100
0000
0001
1000
,
0200
0000
0300
0010
0100
0000
0010
0001
,
1000
0000
1010
0000
0011
0000
0100
0010
,
0200
0000
0300
0001
1000
0000
0001
1000
,
0020
0200
0330
0000
0002
2000
3003
0000
,
0020
0000
0030
1000
0010
0000
0100
0001
,
1000
0000
0101
0000
1010
0000
0100
1000
,
0002
0000
0003
0010
0001
0000
1000
0001
,
0100
0000
0101
0000
0011
0000
0010
0100
,
2000
0000
3000
0001
0010
0000
0010
0001
,
0100
0000
0101
0000
1100
0000
0010
1000
,
0200
0000
0300
1000
0010
0000
1000
0001
,
2000
0200
0000
0000
3300
0000
0010
0001
,
2000
3020
0230
0302
,
0013
0001
2000
0000
3020
0000
0230
0000
,
0300
0010
1000
0001
0100
0000
0101
0000
,
0000
0001
0010
0100
1000
0000
1001
0000
,
0000
0010
1000
0100
2000
0000
3001
0010
,
0002
0000
2003
0000
3100
0010
0100
1000
,
0000
0010
1000
0001
0100
0010
0110
0000
,
0000
0100
0001
0010
0001
1000
1001
0000
,
0000
0001
0010
0100
2000
0000
3010
1000
,
0200
0000
2300
0000
3001
0010
0001
0100
,
0000
0100
0001
1000
0010
0000
1010
0000
,
1000
0100
1100
0000
0010
0001
0011
0000
,
0100
0001
0010
0100
1000
0000
1001
0000
,
0010
1000
1010
0000
0001
0100
0101
0000
,
0000
0001
0010
0100
0010
0001
0011
0000
,
0100
0010
0110
0000
1000
0001
1001
0000
,
0010
1000
0010
0100
0001
1000
1001
0000
,
1000
0100
1100
0000
0001
0100
0101
0000
,
0020
0230
0320
2030
,
3200
0000
0320
0000
0031
0100
0001
0010
,
0200
0000
1300
0010
2000
0000
3100
0010
,
0002
2003
3020
0230
,
0301
0100
0001
0000
1000
0100
1000
0000
,
0010
0100
0002
0000
2003
0000
3200
0000
,
0000
0300
0000
0000
;

//---------------dance-single - ----------------
#NOTES:
     dance-single:
     :
     Hard:
     12:
     :
0000
0000
0000
0000
,
0000
0000
0000
0000
,
0000
0000
0000
0000
,
0000
0000
0000
0000
,
0000
0000
0000
0000
,
0000
0000
0000
0000
,
0010
0000
0001
0100
1000
0000
1010
0000
,
0101
0000
1000
0010
0001
0000
1100
0000
,
0011
0000
0100
0001
0010
0000
0100
1000
,
0010
0100
0010
0100
0001
1000
0001
1000
,
0200
0320
0032
2003
,
3020
0000
0230
0000
0301
0010
0001
1000
,
0020
0000
1030
0100
2000
0000
3001
0100
,
0002
0023
0230
2300
,
3010
0100
0001
1000
0010
0100
0001
1000
,
0100
0010
0002
0000
2003
0000
3020
0000
,
1030
0100
0001
0100
1000
0000
1001
0000
,
0000
0001
0100
0010
1000
0000
1100
0000
,
0000
0010
0100
0010
1000
0001
1000
0100
,
0001
0100
0010
0100
0001
0100
1000
0010
,
0000
0100
0001
1000
0010
0000
0101
0000
,
0000
0010
0001
1000
0100
0000
0110
0000
,
0000
1000
0010
1000
0100
0001
0100
0010
,
0100
0001
0100
0010
0100
0001
0100
1000
,
0010
1000
0001
1000
0010
0100
0101
0000
,
0000
0001
0010
0100
1000
0010
0110
0000
,
0000
0100
0010
1000
0100
0001
0100
0010
,
0100
0001
0100
1000
0100
0001
0100
0010
,
0000
0001
1000
0010
1000
0100
1100
0000
,
0000
0010
0100
0010
1000
0001
0011
0000
,
0000
0010
0001
0100
0010
0001
0010
1000
,
0010
0100
0010
0001
0010
1000
0100
0010
,
0002
0000
0003
1000
0100
0000
1000
0010
,
2000
0000
3100
0010
0002
0000
1003
0001
,
0020
0000
0030
0001
0100
0000
0010
1000
,
0200
0000
1300
0001
2000
0000
3010
0100
,
0002
0000
0003
0010
0001
0000
0100
0010
,
0200
0000
0301
0010
2000
0000
3100
0010
,
0002
0000
0003
0100
0010
0000
1000
0001
,
0100
0110
0000
0000
0010
0110
0000
0000
,
2000
0000
3000
0001
0010
0000
0001
0100
,
0010
1000
0010
0100
0001
0000
0010
0001
,
2000
0000
3000
0001
0010
0000
0001
0100
,
0001
0010
1000
0010
0001
0000
0100
0010
,
0200
0000
0300
0001
0010
0000
0001
1000
,
0100
0010
1000
0010
0001
0000
0100
0010
,
2000
0000
3000
0100
1000
0000
0010
0100
,
0001
1001
0000
0000
0020
0000
1030
0001
,
1000
0100
0010
0001
1000
0010
0100
0001
,
0010
0001
0200
0000
0320
0000
2030
0000
,
3001
0010
1000
0010
0001
0000
0101
0000
,
0000
0100
0010
1000
0001
0000
1100
0000
,
0000
0010
1000
0010
0100
0010
0001
0010
,
1000
0010
0100
0010
0001
0010
1000
0001
,
0000
0010
0001
0010
0100
1000
1001
0000
,
0000
0001
0010
0001
1000
0100
0110
0000
,
0000
0001
1000
0010
0001
0010
0100
0010
,
0001
0010
1000
0100
0001
0100
1000
0010
,
0100
0001
0010
0100
1000
0010
0000
1000
,
0001
0100
0000
0010
1000
0100
1000
0001
,
0010
0001
0010
0100
1000
0010
0000
1000
,
0001
0100
0000
0001
0010
1000
0010
0100
,
0010
0001
0100
0001
1000
0010
0000
1000
,
0001
1000
0000
0010
0100
0010
1000
0001
,
0010
0001
0010
0100
1000
0010
0000
1000
,
0001
0100
0000
0001
0010
0100
1000
0010
,
0200
0302
0023
0230
,
2300
0000
3020
0000
1030
0001
1000
0100
,
0020
0000
0031
0100
0002
0000
1003
0010
,
1000
1100
0110
0011
,
0010
0001
0010
0001
1000
0100
1000
0100
,
1000
0010
0200
0000
0302
0000
2003
0000
,
0000
3000
0000
0000
;

//---------------dance-single - ----------------
#NOTES:
     dance-single:
     :
     Challenge:
     15:
     :
0000
0000
0000
0000
,
0000
0000
0000
0000
,
0000
0000
0000
0000
,
0000
0000
0000
0000
,
0000
0000
0000
0000
,
0000
0000
0000
0000
,
0010
0000
0000
0000
0001
0100
0001
0100
0001
0000
0000
0000
1010
0000
0000
0000
,
0101
0000
0000
0000
1000
0010
1000
0010
1000
0000
0000
0000
1100
0000
0000
0000
,
0011
0000
0000
0000
0100
0010
0100
0010
0100
0000
0000
0000
0001
1000
0001
1000
,
0001
0000
0010
0000
1000
0000
0010
0000
0100
0000
0010
1000
0010
0000
0001
0000
,
0100
0010
0000
0000
0010
1000
0000
0000
1000
0100
0000
0000
0100
0001
0000
0000
,
0001
0010
0000
0000
0010
0100
0000
0000
0100
1000
0100
1000
0100
0000
0010
0000
,
0001
0100
0001
0100
0001
0000
0010
0000
0100
1000
0100
1000
0100
0000
0010
0000
,
0001
0100
0000
0000
0010
1000
0000
0000
0001
0100
0000
0000
0010
1000
0000
0000
,
0100
0000
0100
0000
1000
0000
1000
0000
0001
0000
0001
0000
1000
0010
1000
0010
,
1000
0000
0100
0000
0010
0000
0001
1000
0002
0000
0000
0000
0203
0000
0000
0000
,
0310
0000
1000
0001
1000
0000
0100
0000
0010
0000
0000
0000
0011
0000
0000
0000
,
0000
0000
0100
0001
0100
0000
0010
0000
1000
0000
0000
0000
1100
0000
0000
0000
,
0000
0000
0010
1000
0010
0000
0100
0000
1000
0000
0100
0000
0001
0000
0100
0000
,
0010
0000
0100
0000
1000
0000
0100
0000
0001
0000
0010
1000
0010
0000
0001
0000
,
0000
0000
0100
0001
0100
0000
0010
0000
1000
0000
0000
0000
0101
0000
0000
0000
,
0000
0000
0001
1000
0001
0000
0100
0000
0010
0000
0000
0000
1010
0000
0000
0000
,
0000
0000
0010
0100
0010
0000
0001
0000
0010
0000
1000
0000
0010
0000
0100
0000
,
1000
0000
0100
0000
0010
0000
0100
0000
1000
0000
0100
0001
0100
0000
0010
0000
,
1000
0000
0100
0010
0100
0000
1000
0000
0001
0100
0001
0000
1001
0000
0000
0000
,
0000
0000
0010
1000
0010
0000
0100
0000
0001
1000
0001
0000
1001
0000
0000
0000
,
0000
0000
0010
0100
0010
0000
1000
0000
0010
0000
0100
0000
0001
0000
0100
0000
,
0010
0000
0001
0000
0100
0000
1000
0000
0100
0000
0001
1000
0001
0000
0010
0000
,
0000
0000
0100
1000
0100
0000
0010
0000
0001
1000
0001
0000
0110
0000
0000
0000
,
0000
0000
0010
0001
0010
0000
0100
0000
1000
0010
1000
0000
0110
0000
0000
0000
,
0000
0000
0001
1000
0001
0000
0010
0000
1000
0000
0010
0000
0100
0000
0010
0000
,
1000
0000
0010
0000
0100
0000
0001
0000
0100
0000
1000
0010
1000
0000
0001
0000
,
0200
0000
0300
0001
0100
0000
0100
0010
,
0001
0000
0010
1000
0010
0000
0100
0000
0001
0000
0000
0000
1000
0000
0100
0000
,
0020
0000
0030
1000
0010
0000
0010
0001
,
1000
0000
0010
0100
0010
0000
1000
0000
0001
0000
0000
0000
0100
0000
0001
0000
,
2000
0000
3000
0100
1000
0000
1000
0001
,
0010
0000
0100
0001
0100
0000
1000
0000
0010
0000
0000
0000
0100
0000
0001
0000
,
0020
0000
0030
0100
0010
0000
0010
0001
,
1001
1001
0010
0100
0110
0110
0001
1000
,
0200
0000
1300
0010
0002
0000
0103
0010
,
1000
0000
0001
0010
0001
0000
0100
0000
0010
0000
0000
0000
1000
0000
0001
0000
,
0020
0000
1030
0010
0200
0000
1300
0001
,
0100
0000
0010
1000
0010
0000
0100
0000
0001
0000
0000
0000
1000
0000
0001
0000
,
2000
0000
3010
0100
0002
0000
0013
0001
,
0100
0000
0010
1000
0010
0000
0001
0000
0010
0000
0000
0000
1000
0000
0100
0000
,
0020
0000
0031
0100
2000
0000
3001
1000
,
1001
0000
1001
0000
0010
0000
0100
0000
0001
1000
0001
0000
0110
0000
0110
0000
,
0010
0000
0010
0000
1000
0000
1000
0000
0001
0100
0001
0100
0001
0000
0100
0010
,
0100
0000
0001
0000
1000
0000
0010
0100
0020
0000
0000
0000
2030
0000
0000
0000
,
3001
0000
0010
0001
1000
0000
0100
0000
0100
0000
0000
0000
1100
0000
0000
0000
,
0000
0000
0010
1000
0001
0000
0100
0000
0100
0000
0000
0000
0101
0000
0000
0000
,
0000
0000
0001
0010
0100
0000
0001
0000
0100
0000
1000
0000
0100
0000
0001
0000
,
0100
0000
0010
0000
1000
0000
0010
0000
0100
0000
0001
0100
1000
0000
0010
0000
,
0000
0000
0100
0010
1000
0000
0001
0000
0010
0100
1000
0000
1010
0000
0000
0000
,
0000
0000
0100
0001
1000
0000
0010
0000
1000
0100
0010
0000
0011
0000
0000
0000
,
0000
0000
0100
0010
1000
0000
0100
0000
0001
0000
0100
0000
0010
0000
0001
0000
,
0100
0000
1000
0000
0100
0000
0010
0000
0001
0000
0010
1000
0001
0000
0100
0000
,
0010
0000
1000
0001
1000
0000
0100
0000
0010
0001
0010
0000
0100
0000
1000
0000
,
0001
0100
0010
0000
1000
0000
0001
0000
1000
0100
0010
0000
0001
1000
0001
1000
,
0010
0000
1000
0100
1000
0000
0001
0000
0010
0001
0100
0000
0010
0000
1000
0000
,
0001
1000
0100
0000
0010
0000
0001
0000
1000
0010
1000
0000
0010
0100
0001
0100
,
0010
0000
1000
0001
1000
0001
0100
0010
1000
0001
1000
0000
0100
0000
0010
0000
,
0100
1000
0100
0000
0001
0000
0100
0000
0010
0001
0010
0000
0001
1000
0001
1000
,
0010
0000
0100
0001
0100
0001
1000
0010
0100
0001
1000
0000
0010
0000
1000
0000
,
0100
0010
0001
0010
0100
1000
0001
0000
1000
0010
1000
0010
0100
0001
0100
0001
,
0010
0001
0000
0000
0001
0100
0000
0000
0100
1000
0000
0000
1000
0010
0000
0000
,
0010
0100
0000
0000
0100
0001
0000
0000
0001
1000
0010
1000
0001
1000
0010
0000
,
0100
0001
0010
0001
0010
0001
0100
0000
0010
1000
0100
1000
0100
1000
0010
0000
,
1000
0100
1000
0000
0001
0100
0001
0000
1000
0010
1000
0000
0001
0010
0001
0000
,
0100
0010
0100
0010
1000
0001
1000
0001
0100
0010
0100
0010
1000
0001
1000
0001
,
0010
0000
0100
0000
1000
0000
0001
0100
0002
0000
0000
0000
2000
0000
0000
0000
,
0000
3003
0000
0000
;
