#VERSION:0.83;
#TITLE:Man! I Feel Like a Woman!;
#SUBTITLE:;
#ARTIST:Shania Twain;
#TITLETRANSLIT:;
#SUBTITLETRANSLIT:;
#ARTISTTRANSLIT:;
#GENRE:;
#ORIGIN:;
#TAGS:;
#CREDIT:;
#BANNER:Man! I Feel Like a Woman!-bn.png;
#BACKGROUND:Man! I Feel Like a Woman!-bg.png;
#PREVIEWVID:;
#JACKET:Man! I Feel Like a Woman!-jacket.png;
#CDIMAGE:;
#DISCIMAGE:;
#LYRICSPATH:;
#CDTITLE:;
#MUSIC:Man! I Feel Like A Woman!.ogg;
#OFFSET:1.760000;
#SAMPLESTART:53.919998;
#SAMPLELENGTH:20.000000;
#SELECTABLE:YES;
#DISPLAYBPM:125.000000;
#BPMS:0.000000=124.999992;
#STOPS:64.666664=0.480000,
175.000000=2.400000;
#DELAYS:;
#WARPS:;
#TIMESIGNATURES:0.000000=4=4;
#TICKCOUNTS:0.000000=4;
#COMBOS:0.000000=1;
#SPEEDS:0.000000=1.000000=0.000000=0;
#SCROLLS:0.000000=1.000000;
#FAKES:;
#LABELS:0.000000=Song Start;
#BGCHANGES:;
#KEYSOUNDS:;
#ATTACKS:
;

//---------------dance-single - ----------------
#NOTEDATA:;
#CHARTNAME:;
#CHARTHASH:0:
#STEPSTYPE:dance-single;
#BANNER:;
#DESCRIPTION:;
#CHARTSTYLE:;
#DIFFICULTY:Hard;
#METER:12;
#METERF:0.000000;
#RADARVALUES:0.512888,0.510549,0.232203,0.303650,0.910950,402.000000,376.000000,26.000000,34.000000,0.000000,0.000000,0.000000,0.000000,0.000000,0.512888,0.510549,0.232203,0.303650,0.910950,402.000000,376.000000,26.000000,34.000000,0.000000,0.000000,0.000000,0.000000,0.000000;
#CREDIT:;
#DISPLAYBPM:125.000000;
#NOTES:
0000
0000
0000
0000
,
0000
0000
0000
0000
,
0000
0000
0000
0000
,
0000
0000
0000
0000
,
0000
0000
0000
0000
,
0001
0000
0010
0100
0000
1000
0000
0000
1000
0001
0000
0100
,
0000
0000
0100
0010
0000
1000
0000
0000
1000
0100
0000
0020
,
0000
0000
0031
0100
0000
0100
0010
0000
0010
1000
0000
0200
,
0000
0000
1300
0010
0000
1000
0001
0000
0001
0010
0000
0200
,
0000
0000
1300
0001
0000
0001
1000
0000
1000
0100
0000
0020
,
0001
0000
0000
0031
0100
0010
1000
0000
0000
0100
0000
0020
,
0000
0000
0031
1000
0000
1000
0010
0000
0010
0100
0000
0002
,
0000
0000
0013
0001
0000
1000
0001
0000
1000
0010
0000
0200
,
0000
0000
0301
0010
0000
0100
0000
0000
0010
0100
0000
2000
,
0010
0000
0000
3010
0100
0001
1000
0000
0000
0010
0000
0110
,
0000
0000
0001
1000
0000
0001
0200
0000
0000
0310
0000
1010
,
0000
0000
0101
0000
0000
1000
0001
0000
1000
0020
0000
0000
,
0130
0000
0100
0010
0000
1000
0001
0000
2000
0100
0000
0000
,
3010
0000
1000
0010
0000
0010
0100
0000
0002
1000
0000
1003
,
0010
0000
0100
0001
0000
0010
0100
0000
2000
0010
0000
0000
,
3001
1000
0100
0010
0000
0010
0001
0000
0200
0001
0000
0000
,
0310
0000
0010
1000
0000
1000
0100
0000
0020
0001
0000
0031
,
1000
0000
0010
1000
0000
0100
0010
0000
0002
0100
0000
0103
,
0010
0000
0100
0010
0000
1000
0001
0000
2000
0100
0000
0000
,
3010
1000
0001
0100
0000
0000
0001
0010
0100
1000
0000
1000
,
0001
0000
0000
0010
0000
0010
0100
0000
0000
1000
0000
1000
,
0001
0000
0001
0010
0000
0010
0100
0000
0000
0010
0000
0010
,
0001
0000
0001
1000
0000
1000
0100
0000
0100
1000
0010
0100
,
0001
0010
0100
1000
0010
0100
0001
0000
0000
1001
0000
0000
,
0010
0000
1000
0001
0000
0010
0100
0000
2000
0000
0000
3010
,
1000
0100
1000
0002
0100
0000
0103
0000
0010
1000
0000
0001
,
0010
0001
0010
0200
1000
0000
1300
0000
0001
0100
0000
0000
,
0001
0010
0000
0001
0100
0000
0010
1000
0000
0100
1000
0000
,
0010
0000
1000
0100
0000
1000
0010
0000
0200
0000
0000
0301
,
1000
0010
1000
0020
0100
0000
0130
0000
0001
1000
0100
0000
,
0100
0010
0000
0010
0001
0000
0001
1000
0000
1100
0000
0010
,
0000
0000
0100
0001
0000
1000
0001
0000
0020
0000
0000
0130
,
0010
0001
1000
0002
0100
0000
0103
0000
0010
1000
0000
1000
,
0100
0010
0100
0020
0001
0000
0031
0000
1000
0001
0000
0000
,
1000
0100
0010
0002
0100
0000
0103
0010
1000
0002
0010
0000
,
1003
0000
0010
1000
0000
0001
0010
0000
0200
0000
0000
1300
,
0001
1000
0001
0200
0010
0000
0310
0000
1000
0002
0000
0000
,
0023
0000
0000
0230
0000
0000
1300
0000
0001
1000
0000
0000
,
1010
0000
0001
0100
0000
0000
0110
0000
0000
1001
0000
0011
,
0000
0000
0001
1000
0000
0010
2000
0000
0000
3100
0000
0110
,
0000
0000
1001
0000
0000
1000
0010
0000
0001
0100
0000
0101
,
0000
0000
0001
1000
0000
1000
0100
0000
0100
0010
0000
0011
,
0000
0000
1010
0000
0000
1000
0010
0000
0100
0001
0000
0101
,
0000
0000
0100
0010
0000
0100
0010
0000
0010
1000
0000
1100
,
0000
0000
0001
1000
0001
0010
0100
0000
1000
0001
0000
1001
,
0000
0000
1000
0001
0000
0001
1000
0000
1000
0100
0000
1100
,
0000
0000
1000
0010
0000
0200
0000
0000
0301
1000
0000
1100
,
0000
0000
0001
1000
0000
0001
0100
0000
0010
0100
0000
0110
,
0000
0000
1010
0000
0000
0001
1000
0100
1000
0100
0010
0001
,
0000
0000
0001
1000
0000
1000
0010
0000
0100
0001
0000
0011
,
0000
0000
1100
0000
0000
1000
0010
0000
1000
0001
0000
0101
,
0000
0000
0010
1000
0100
1000
0001
0000
0001
0100
0000
1001
,
0000
0000
0110
0000
0000
0000
0000
0000
0000
0000
0000
0000
;

//---------------dance-single - ----------------
#NOTEDATA:;
#CHARTNAME:;
#CHARTHASH:0:
#STEPSTYPE:dance-single;
#BANNER:;
#DESCRIPTION:;
#CHARTSTYLE:;
#DIFFICULTY:Medium;
#METER:9;
#METERF:0.000000;
#RADARVALUES:0.424855,0.433967,0.553715,0.392959,0.526922,333.000000,271.000000,62.000000,44.000000,0.000000,0.000000,0.000000,0.000000,0.000000,0.424855,0.433967,0.553715,0.392959,0.526922,333.000000,271.000000,62.000000,44.000000,0.000000,0.000000,0.000000,0.000000,0.000000;
#CREDIT:;
#DISPLAYBPM:125.000000;
#NOTES:
0000
0000
0000
0000
,
0000
0000
0000
0000
,
0000
0000
0000
0000
,
0000
0000
0000
0000
,
0000
0000
0000
0000
,
0001
0101
1000
1100
,
0001
0011
1000
1010
,
0010
0000
0000
1000
0000
0100
1000
0000
0000
1001
0000
0000
,
1000
0000
0000
0001
0000
0010
0001
0000
0000
0110
0000
0000
,
0010
0000
0010
0001
0000
0001
1000
0000
1000
0100
0000
0000
,
0020
0000
0000
0031
1000
0001
2000
0000
0000
3000
0000
0000
,
0010
0000
0000
0100
0000
0001
0100
0000
0000
0110
0000
0000
,
1000
0000
0000
0100
0000
0010
0100
0000
0000
1100
0000
0000
,
0001
0000
0001
0100
0000
0100
0010
0000
0010
1000
0000
0000
,
0002
0000
0000
0103
0010
0100
0020
0000
0000
0030
0000
1010
,
0000
0000
0101
0000
0000
0010
0002
0000
0000
1003
0000
1001
,
0000
0000
0011
0000
0000
0100
0010
0000
2000
0000
0000
0000
,
3001
0000
0001
0010
0000
0010
0100
0000
0000
0020
0000
0000
,
0031
0000
0001
0100
0000
0100
0010
0000
0000
0200
0000
0000
,
0301
0000
1000
0001
0000
1000
0100
0000
0000
2000
0000
0000
,
3010
0100
0010
0200
0000
0000
0301
0000
0000
0012
0000
0000
,
1003
0000
1000
0010
0000
0010
0100
0000
0000
0201
0000
0000
,
0310
0000
0010
1000
0000
1000
0001
0000
0000
1000
0000
1000
,
0100
0000
0100
0010
0000
0010
0001
0000
0000
0002
0000
0000
,
1003
0010
1000
0020
0000
0000
0130
0000
0000
0110
0000
0010
,
1000
0000
0000
0001
0000
0001
1000
0000
0000
1100
0000
0000
,
1000
0000
0001
0100
0000
0000
0100
0000
0000
1010
0000
0000
,
1001
0000
0000
1100
0000
0000
0101
0000
0000
1000
0000
0001
,
0010
0000
0100
0010
0000
0001
1000
0000
0000
1001
0000
0000
,
0010
0000
1010
0000
0000
0011
0000
0000
0120
0000
0000
0000
,
0031
0100
0001
0200
0000
0000
0310
0000
0000
1010
0000
0000
,
1000
0100
1000
0200
0000
0000
0320
0000
0000
0031
0000
0000
,
0011
1100
0101
1010
,
0010
0000
0110
0000
0000
0101
0000
0000
2100
0000
0000
0000
,
3001
0010
0001
0020
0000
0000
0230
0000
0000
2300
0000
0000
,
3001
1100
0110
0011
,
0100
0000
0101
0000
0000
1001
0000
0000
1020
0000
0000
0000
,
1030
0001
1000
0002
0000
0000
0013
0000
0000
0011
0000
0000
,
0100
0001
0100
0002
0000
0000
2003
0000
0000
3010
0000
0000
,
1000
0000
1000
0200
0000
0000
0310
0000
0010
0200
0000
0000
,
1300
0000
1001
0000
0000
0101
0000
0000
0021
0000
0000
0000
,
0130
1000
0100
2000
0000
0000
3001
0000
0000
1020
0000
0000
,
0230
0000
0000
0302
0000
0000
1003
0000
1200
0000
0000
0000
,
1300
0000
1000
0001
0000
0000
0011
0000
0000
1001
0000
0010
,
0000
0000
0010
0000
0000
0010
2000
0000
0000
3001
0000
0011
,
0000
0000
1100
0000
0000
0010
0000
0000
0100
0000
0000
0001
,
0000
0000
0001
0000
0000
0001
0020
0000
0000
0130
0000
0110
,
0000
0000
1100
0000
0000
1000
0000
0000
0001
0000
0000
0100
,
0000
0000
0100
0000
0000
0100
0020
0000
0000
1030
0000
1010
,
0000
0000
0101
0000
0000
0001
0000
0000
0010
0000
0000
1000
,
0000
0000
1000
0000
0000
1000
0002
0000
0000
0013
0000
0011
,
0000
0000
1010
0000
0000
0001
0000
0000
0100
0000
0000
0020
,
0000
0000
2030
0000
0000
3001
2000
0000
0000
3100
0000
1100
,
0000
0000
0101
0000
0000
0000
0001
1000
0001
1000
0000
1010
,
0000
0000
1001
0000
0000
1000
0200
0000
0000
0310
0000
0011
,
0000
0000
0101
0000
0000
1000
0000
0000
0001
0000
0000
0010
,
0000
0000
0001
2000
0000
0000
3002
0000
0000
0103
0000
0110
,
0000
0000
0110
0000
0000
0000
0000
0000
0000
0000
0000
0000
;

//---------------dance-single - ----------------
#NOTEDATA:;
#CHARTNAME:;
#CHARTHASH:0:
#STEPSTYPE:dance-single;
#BANNER:;
#DESCRIPTION:;
#CHARTSTYLE:;
#DIFFICULTY:Easy;
#METER:7;
#METERF:0.000000;
#RADARVALUES:0.247513,0.306329,0.160756,0.089309,0.125032,194.000000,176.000000,18.000000,10.000000,0.000000,0.000000,0.000000,0.000000,0.000000,0.247513,0.306329,0.160756,0.089309,0.125032,194.000000,176.000000,18.000000,10.000000,0.000000,0.000000,0.000000,0.000000,0.000000;
#CREDIT:;
#DISPLAYBPM:125.000000;
#NOTES:
0000
0000
0000
0000
,
0000
0000
0000
0000
,
0000
0000
0000
0000
,
0000
0000
0000
0000
,
0000
0000
0000
0000
,
0001
0100
0000
0100
,
0000
0010
0000
0010
,
1000
0100
1000
0000
,
0001
0100
0001
0000
,
0010
0010
1000
1000
,
0002
0100
0200
0303
,
0010
1000
0010
0000
,
0100
0001
0100
0000
,
0001
0001
0010
0010
,
0200
1000
2000
3300
,
0001
0000
0000
0001
0000
0000
0001
0000
0000
0000
0000
0100
,
0000
0000
0010
0000
0000
0000
0000
0000
0000
1010
0000
0000
,
1000
0001
0010
0011
,
0010
0100
0010
0100
,
0100
1000
1000
0020
,
0001
0002
0033
0101
,
0100
0010
1000
1100
,
1000
0001
0010
0001
,
0001
0100
0100
0020
,
1000
2000
3030
0001
,
1002
1000
0100
1000
,
1000
0010
0013
0100
,
0210
0001
0001
1000
,
0010
1000
0301
1001
,
0000
0000
0010
0000
0000
1000
0000
0000
0010
0000
0000
0000
,
0100
0100
0001
0000
,
0010
0010
0100
0000
,
1000
0001
1000
1100
,
0000
0000
0001
0000
0000
0100
0000
0000
0001
0000
0000
0000
,
0010
0100
0100
1000
,
1000
0001
0100
0101
,
0000
0000
1000
0000
0000
0100
0000
0000
1000
0000
0000
0000
,
0001
0010
0100
0000
,
1000
0001
0100
0000
,
0010
0100
0010
0110
,
0000
0000
0001
0000
0000
0010
0000
0000
0001
0000
0000
0000
,
1000
1000
0010
1000
,
0100
1000
0001
0010
,
0011
1000
1010
1001
,
0010
0000
0000
0010
0000
0000
0010
0000
0000
0000
0000
1000
,
0000
0000
0001
0000
0000
0000
0000
0000
0000
0000
0000
0000
,
1000
0000
0000
1000
0000
0000
1000
0000
0000
0000
0000
0001
,
0000
0000
0100
0000
0000
0000
0000
0000
0000
0000
0000
0000
,
0100
0000
0000
0100
0000
0000
0100
0000
0000
0000
0000
0010
,
0000
0000
0001
0000
0000
0000
1100
0000
0000
0101
0000
0000
,
1000
0000
0000
1000
0000
0000
1000
0000
0000
0000
0000
0010
,
0000
0000
0100
0000
0000
0000
1010
0000
0000
0011
0000
0000
,
0001
0000
0000
0001
0000
0000
0001
0000
0000
0000
0000
1000
,
0000
0000
0100
0000
0000
0000
0000
0000
0000
0000
0000
0000
,
0100
0000
0000
0100
0000
0000
0100
0000
0000
0000
0000
0001
,
0000
0000
1000
0000
0000
0000
0010
0000
0000
1000
0000
0000
,
0010
0000
0000
0010
0000
0000
0010
0000
0000
0000
0000
0100
,
0000
0000
0110
0000
0000
0000
0000
0000
0000
0000
0000
0000
;

//---------------dance-single - ----------------
#NOTEDATA:;
#CHARTNAME:;
#CHARTHASH:0:
#STEPSTYPE:dance-single;
#BANNER:;
#DESCRIPTION:;
#CHARTSTYLE:;
#DIFFICULTY:Beginner;
#METER:3;
#METERF:0.000000;
#RADARVALUES:0.139067,0.178171,0.125032,0.035724,0.000000,109.000000,95.000000,14.000000,4.000000,0.000000,0.000000,0.000000,0.000000,0.000000,0.139067,0.178171,0.125032,0.035724,0.000000,109.000000,95.000000,14.000000,4.000000,0.000000,0.000000,0.000000,0.000000,0.000000;
#CREDIT:;
#DISPLAYBPM:125.000000;
#NOTES:
// measure 0
0000
0000
0000
0000
,  // measure 1
0000
0000
0000
0000
,  // measure 2
0000
0000
0000
0000
,  // measure 3
0000
0000
0000
0000
,  // measure 4
0000
0000
0000
0000
,  // measure 5
0001
0000
0000
0000
,  // measure 6
1000
0000
0000
0000
,  // measure 7
0010
0000
0010
0000
,  // measure 8
1000
0000
0001
0000
,  // measure 9
0100
0000
0100
0000
,  // measure 10
0200
0000
0300
0000
,  // measure 11
0001
0000
0001
0000
,  // measure 12
0100
0000
0010
0000
,  // measure 13
1000
0000
1000
0000
,  // measure 14
2000
0000
3000
0000
,  // measure 15
0010
0000
0010
0000
,  // measure 16
0110
0000
0000
0100
,  // measure 17
0000
0100
0000
0010
,  // measure 18
0000
0010
0000
1000
,  // measure 19
0000
1000
0000
0002
,  // measure 20
0000
0003
0000
0010
,  // measure 21
0000
0001
0000
0100
,  // measure 22
0000
0100
0000
0001
,  // measure 23
0000
1000
0000
0020
,  // measure 24
0000
0030
0000
1001
,  // measure 25
0000
1000
0000
0100
,  // measure 26
0000
0100
0000
0010
,  // measure 27
0000
0001
0000
0100
,  // measure 28
0100
0100
0000
1001
,  // measure 29
0000
1000
0000
0010
,  // measure 30
0000
0100
0100
0000
,  // measure 31
0000
0001
0001
0000
,  // measure 32
0010
0010
0000
0110
,  // measure 33
0000
1000
0000
0001
,  // measure 34
0000
0100
0000
0001
,  // measure 35
0000
1000
0000
1001
,  // measure 36
0000
0010
0000
0100
,  // measure 37
0000
0001
0001
0000
,  // measure 38
0000
1000
1000
0000
,  // measure 39
0010
0010
0000
0110
,  // measure 40
0000
1000
0000
0100
,  // measure 41
0000
0010
0000
0001
,  // measure 42
0000
0001
0000
0110
,  // measure 43
0000
0000
0000
1001
,  // measure 44
0100
0000
0100
0000
,  // measure 45
0110
0000
0000
0000
,  // measure 46
0001
0000
0001
0000
,  // measure 47
1001
0000
0000
0000
,  // measure 48
1000
0000
1000
0000
,  // measure 49
1001
0000
0000
0000
,  // measure 50
0100
0000
0100
0000
,  // measure 51
0110
0000
0000
0000
,  // measure 52
1000
0000
0001
0000
,  // measure 53
1001
0000
0000
0000
,  // measure 54
1000
0000
1000
0000
,  // measure 55
1000
0000
0000
0000
,  // measure 56
0010
0000
0100
0000
,  // measure 57
0110
0000
0000
0000
;
