#TITLE:Make Your Move;
#ARTIST:good-cool feat. JP miles;
#BANNER:Make Your Move.png;
#BACKGROUND:Make Your Move-bg.png;
#JACKET:Make Your Move-jacket.png;
#MUSIC:Make Your Move.ogg;
#SAMPLESTART:59.75;
#SAMPLELENGTH:20;
#DISPLAYBPM:120;
#BPMS:0=120;
#BGCHANGES:;

//---------------dance-single - ----------------
#NOTES:
     dance-single:
     :
     Beginner:
     3:
     :
0000
0000
0000
0000
,
0000
0000
0000
0000
,
0000
0000
0000
0000
,
0000
0000
0000
0000
,
0000
0000
0000
0000
,
0010
0000
0000
0000
,
0010
0000
0000
0000
,
0001
0000
0000
0000
,
1000
0000
0000
0000
,
0001
0000
0001
0000
,
0010
0000
0010
0000
,
0001
0000
0001
0000
,
0010
0000
0010
0000
,
0001
0000
0001
0000
,
1000
0000
0001
0000
,
1000
0000
1000
0000
,
0001
0000
1000
0000
,
0001
0000
1000
0000
,
1000
0000
0001
0000
,
1000
0000
0001
0000
,
0001
0000
1000
0000
,
0010
0000
0010
0000
,
0001
0000
0001
0000
,
1000
0000
1000
0000
,
0100
0000
0100
0000
,
0001
0000
0001
0000
,
1000
0000
1000
0000
,
0100
0000
0100
0000
,
0001
0000
0000
0000
,
0010
0000
0000
0000
,
1000
0000
0001
0000
,
1000
0000
0001
0000
,
0010
0000
0100
0000
,
0010
0000
0100
0000
,
0010
0000
1000
0000
,
0100
0000
0001
0000
,
0010
0000
0100
0000
,
0010
0000
0100
0000
,
0010
0000
0000
0000
,
0100
0000
0000
0000
,
0001
0000
0000
0000
,
1000
0000
0000
0000
,
0001
0000
0001
0000
,
0010
0000
0010
0000
,
0010
0000
0010
0000
,
0100
0000
0100
0000
,
1000
0000
0001
0000
,
1000
0000
0001
0000
,
0010
0000
0000
0000
;

//---------------dance-single - ----------------
#NOTES:
     dance-single:
     :
     Easy:
     6:
     :
0000
0000
0000
0000
,
0000
0000
0000
0000
,
0000
0000
0000
0000
,
0000
0000
0000
0000
,
0000
0000
0000
0000
,
0010
0010
0000
0000
,
0010
0010
0000
0000
,
0001
0001
0000
0000
,
1000
1000
0000
0000
,
0001
1000
0001
1000
,
0010
0100
0010
0100
,
0001
1000
0001
1000
,
0010
0100
0010
0100
,
0001
0001
0001
0000
,
1000
1000
0001
0001
,
1000
1000
1000
0000
,
0001
0000
1000
0100
,
0001
0000
1000
0100
,
1000
0000
0001
0100
,
1000
0000
0001
0100
,
0001
0000
0000
0000
1000
1000
1000
0000
,
0010
0000
0010
0000
,
0001
0000
0001
0000
,
1000
0000
1000
0000
,
0100
0000
0000
0000
0100
0010
0100
0000
,
0001
0000
0001
0000
,
1000
0000
1000
0000
,
0100
0000
0100
0000
,
0001
0001
0100
0000
0000
0000
0000
0000
,
0010
0010
0000
0000
,
1000
0100
0001
0100
,
1000
0100
0001
0100
,
0010
1000
0100
0001
,
0010
1000
0100
0001
,
0010
0010
1000
1000
,
0100
0100
0001
0001
,
0010
1000
0100
0001
,
0010
1000
0100
0001
,
0010
0010
0000
0000
,
0100
0100
0000
0000
,
0001
0001
0000
0000
,
1000
1000
0000
0000
,
0001
1000
0001
1000
,
0010
0100
0010
0100
,
0010
0000
0010
0010
,
0100
0000
0100
0100
,
1000
1000
0001
0001
,
1000
1000
0001
1000
,
0010
0000
0000
0000
;

//---------------dance-single - ----------------
#NOTES:
     dance-single:
     :
     Medium:
     9:
     :
0000
0000
0000
0000
,
0000
0000
0000
0000
,
0000
0000
0000
0000
,
0000
0000
0000
0000
,
0000
0000
0000
0000
,
0010
0000
0010
0000
1000
1000
1000
0000
,
0010
0000
0010
0000
1000
1000
1000
0000
,
1000
0000
1000
0000
0100
0100
0100
0000
,
1000
0000
1000
0000
0001
0001
0001
0000
,
0001
0000
1000
0000
0001
1000
0100
0000
,
0010
0000
0100
0000
0010
1000
0100
0000
,
0001
0000
1000
0000
0001
1000
0100
0000
,
0010
0000
0100
0000
0010
1000
0100
0000
,
0001
0000
0000
0001
0000
0000
0001
0000
0000
0000
0000
0000
0001
0000
0000
0000
,
1000
1000
1000
0000
1000
0001
0100
0000
,
1000
0000
0000
1000
0000
0000
1000
0000
0000
0000
0000
0000
1000
0000
0000
0000
,
0001
0001
0001
0000
0001
1000
0100
0000
,
0001
0000
0000
0001
0000
0000
0001
0000
0000
0000
0000
0000
0001
0000
0000
0000
,
0010
0010
0010
0000
0010
0001
0100
0000
,
1000
0000
0000
1000
0000
0000
1000
0000
0000
0000
0000
0000
1000
0000
0000
0000
,
0010
0010
0010
0000
0010
1000
0100
0000
,
0010
0010
0010
0000
0100
0100
0100
0000
,
0001
0000
0000
0001
0000
0000
0001
0000
0000
0000
0000
0000
0000
0000
0000
0000
,
0001
0001
1000
1000
,
0100
0000
0000
0000
0100
0010
0100
0000
,
0001
0001
1000
1000
,
1000
0000
0000
1000
0000
0000
1000
0000
0000
0000
0000
0000
0000
0000
0000
0000
,
0100
0000
0100
0100
,
1001
1001
0100
0000
0000
0000
0000
0000
,
0010
0010
0000
0000
,
1000
1000
1000
0000
0001
0000
0100
0000
,
1000
1000
1000
0000
0001
0000
0100
0000
,
0010
1000
0100
0000
0001
0000
0010
0000
,
1000
0100
0001
0000
0010
0000
1000
0000
,
0100
0001
0010
0000
1000
0000
0100
0000
,
0001
0010
1000
0000
0100
0000
0001
0000
,
0010
1000
0100
0000
0001
0000
0010
0000
,
1000
0100
0001
0000
0010
0000
1000
0000
,
0010
0010
0000
0000
,
0100
0100
0000
0000
,
0001
0001
0001
0000
1000
1000
1000
0000
,
0001
1000
0001
1000
0001
1000
0001
0000
,
1000
1000
0100
0000
0001
0001
0100
0000
,
0010
0010
1000
0000
0100
0100
0001
0000
,
0010
0000
0100
0100
,
0000
0000
0100
0100
,
1000
0000
1000
0000
0001
0001
0001
0000
,
1000
1000
1000
0000
0001
0000
1000
0000
,
0110
0000
0000
0000
;

//---------------dance-single - ----------------
#NOTES:
     dance-single:
     :
     Hard:
     12:
     :
0000
0000
0000
0000
,
0000
0000
0000
0000
,
0000
0000
0000
0000
,
0000
0000
0000
0000
,
0000
0000
0000
0000
,
0010
0000
0001
0000
0100
0000
0001
0000
1000
0100
1000
0000
0100
0000
0000
0000
,
0010
0000
1000
0000
0100
0000
1000
0000
0001
0100
0001
0000
0100
0000
0000
0000
,
1000
0000
0001
0000
1000
0000
0100
0000
0010
0100
0010
0000
0100
0000
0000
0000
,
0001
0000
1000
0000
0001
0000
0100
0000
0010
0100
0010
0000
0100
0000
0000
0000
,
1000
1000
1000
0001
0010
0100
1000
0000
,
0010
0010
0010
1000
0001
1000
0100
0000
,
0001
0001
0001
0100
0001
1000
0100
0000
,
0100
0100
0100
1000
0010
1000
0100
0000
,
0001
1000
0001
1000
0010
0100
0010
0100
,
0001
1000
0100
1000
0001
0100
0001
1000
,
0100
1000
0100
0010
0001
0100
0001
0100
,
0001
1000
0100
1000
0100
0010
0001
0100
,
0010
1000
0010
1000
0100
1000
0100
1000
,
0001
0100
0001
0100
0010
1000
0001
0100
,
0010
1000
0100
1000
0010
1000
0100
1000
,
0001
1000
0100
0010
0001
0100
0001
1000
,
0100
1000
0100
1000
0001
0100
0001
0100
,
0010
1000
0010
1000
0001
0010
0001
0010
,
0100
1000
0100
1000
0001
0100
0001
0100
,
0010
1000
0100
1000
0010
1000
0100
1000
,
0001
0100
0001
0100
0010
1000
0010
1000
,
0001
1000
0001
1000
0010
1000
0100
1000
,
0001
0100
0001
0010
0100
1000
0100
1000
,
1001
1001
1001
0000
0010
0000
0010
0000
,
1000
0001
0100
0000
0000
0000
0000
0000
,
0001
1000
0001
1000
0010
0100
0010
0100
,
0001
1000
0100
1000
0001
0100
0001
1000
,
0100
1000
0100
0010
0001
0100
0001
0100
,
0001
1000
0100
1000
0100
0010
0001
0100
,
0010
1000
0010
1000
0100
1000
0100
1000
,
0001
0100
0001
0100
0010
1000
0001
0100
,
0010
1000
0100
1000
0010
1000
0100
1000
,
0001
1000
0100
0010
0001
0100
0001
1000
,
0100
1000
0100
1000
0001
0100
0001
0100
,
0010
1000
0010
1000
0001
0010
0001
0010
,
0100
1000
0100
1000
0001
0100
0001
0100
,
0010
1000
0100
1000
0010
1000
0100
1000
,
0001
0100
0001
0100
0010
1000
0010
1000
,
0001
1000
0001
1000
0010
1000
0100
1000
,
0001
0100
0001
0010
0100
1000
0100
1000
,
0010
0100
0001
0100
0010
1000
0100
1000
,
0100
0010
0001
0100
0001
0100
0010
1000
,
0100
1000
0100
0010
0001
0100
0010
1000
,
0100
0000
0000
0000
;

//---------------dance-single - ----------------
#NOTES:
     dance-single:
     :
     Challenge:
     15:
     :
0000
0000
0000
0000
,
0000
0000
0000
0000
,
0000
0000
0000
0000
,
0000
0000
0000
0000
,
1000
0001
1000
0001
1000
0001
1000
0001
1000
0000
0000
0000
0100
0010
0000
0100
,
1000
0010
1000
0000
0001
0000
0100
0010
0000
0100
0010
0000
1000
0000
0001
0100
,
0001
0000
0010
0000
0001
0000
0100
0000
1000
0010
1000
0000
1001
0000
0100
0001
,
1000
0000
0010
0000
1010
0000
1010
0000
0001
0100
0010
0100
0001
0000
1000
0001
,
1000
0000
0110
0000
1001
0000
0010
0100
0001
0010
0001
0010
0001
0000
1000
0100
,
1000
0100
0010
0000
0001
0000
0100
0010
0000
0100
0010
0000
1000
0000
0001
1000
,
0010
0000
0100
0000
0110
0000
0110
0000
0001
1000
0100
1000
0001
0000
0010
0100
,
1000
0000
0010
0000
1010
0000
1010
0000
0100
0001
1000
0001
1000
0000
0100
0010
,
0001
0100
0010
0100
0001
0100
0010
1000
0100
1000
0001
0010
0001
0010
0100
1000
,
0001
0010
0001
0000
1001
0000
1001
0000
0010
1000
0100
1000
0001
0000
0100
0010
,
1000
0010
0100
0000
0101
0000
0100
0001
0010
0100
1000
0010
0100
0000
0001
1000
,
0001
1000
0100
0000
1100
0000
1100
0000
0010
1000
0001
0000
0100
0000
0010
1000
,
0100
0010
0001
0000
0101
0000
0001
0010
0001
1000
0000
1000
0100
0000
1000
0010
,
1000
0100
0010
0000
0011
0000
0011
0000
1000
0001
0010
0001
0100
0000
0010
1000
,
0100
0010
0100
0000
1100
0000
1000
0100
1000
0001
0010
0001
0100
0000
0010
1000
,
0001
0000
0010
0000
0011
0000
0011
0000
1000
0100
1000
0100
1000
0010
0100
0001
,
0010
0100
0010
0000
0110
0000
0001
0100
0001
1000
0001
0000
1000
0010
1000
0100
,
0010
0001
0010
0100
1000
0000
1001
0000
0000
0010
0100
0000
0110
0000
1000
0001
,
0010
0000
0001
0100
0000
0001
0010
0000
0000
1000
0100
1000
0001
0000
0100
0010
,
0100
0000
0001
0000
0101
0000
0101
0000
1000
0010
1000
0000
0100
0000
0010
0001
,
1000
0100
0001
0100
1000
0000
0000
0010
1000
0100
1000
0100
0010
0001
0010
0100
,
1000
0001
0100
0001
0010
0000
0011
0000
0000
0001
1000
0100
1000
0000
0010
0100
,
0001
0000
1000
0100
0000
1000
0001
0000
0000
0010
0001
0010
0100
0000
1000
0001
,
1000
0000
0100
0000
1100
0000
1100
0000
0010
0001
0010
0100
1000
0001
1000
0100
,
0010
0000
0000
0000
0110
0000
0000
0000
1001
0000
0000
0000
0001
0100
0001
0100
0001
0000
1000
0000
0000
0000
0001
0000
1000
0000
0010
0000
0100
0000
0000
0000
,
0001
0010
1000
0010
0001
0000
0000
0000
1000
1000
0100
0100
0010
0010
0001
0001
,
0100
0010
1000
0000
1100
0000
0011
0000
0010
0001
0010
0001
1000
0100
1000
0001
,
0010
0100
1000
0000
1010
0000
0101
0000
0010
1000
0001
0000
0100
0001
0010
0001
,
1000
0100
1000
0000
1010
0000
0101
0000
0010
0001
0010
0100
1000
0001
0100
0010
,
1000
0001
1000
0000
0110
0000
0001
0100
0010
1000
0100
0010
0001
0100
0001
0100
,
0010
1000
0001
0000
0011
0000
1010
0000
0001
0100
0010
0100
1000
0100
0010
1000
,
0100
0010
0001
0000
0101
0000
1100
0000
0010
1000
0100
1000
0001
0010
0001
0100
,
0010
1000
0100
1000
0001
0000
1010
0000
0100
0001
0010
0100
1000
0010
1000
0001
,
0100
0010
1000
0000
1001
0000
0001
0010
0001
0100
0000
0010
1000
0100
1000
0001
,
0010
0001
0100
0001
1000
0000
0110
0000
0000
0001
0010
0001
1000
0100
0010
0100
,
1000
0001
0000
0010
0001
0100
0000
0010
1000
0100
1000
0100
1000
0000
0001
0010
,
0100
0000
1000
0000
0100
0000
0010
0000
0001
0000
1000
0001
1000
0000
0000
0000
0010
0000
0100
0000
0010
0000
1000
0000
0001
0000
0010
0000
0000
0000
0001
0000
,
0100
0010
0100
0001
1000
0001
0100
0010
1000
0100
1000
0001
0000
0010
0000
0010
,
0001
0000
0100
0010
1000
0000
1100
0000
0010
0100
0010
0100
0001
1000
0001
1000
,
0100
0010
0100
1000
0001
0000
0011
0000
0100
0001
1000
0000
0010
0000
1000
0001
,
0100
0000
0010
0000
1010
0000
1100
0000
0001
1000
0001
1000
0001
0000
0100
0010
,
1000
0000
0100
0000
1001
0000
0010
0001
1000
0001
0100
0010
0100
0001
1000
0100
,
0010
0001
1000
0010
0100
0000
0101
0000
0001
0010
0001
0010
0100
1000
0100
1000
,
0001
0100
0010
1000
0001
0000
0100
0010
1000
0100
0001
0100
1000
0000
0010
0200
,
0020
0000
0000
0000
,
0330
0000
0000
0000
;

//---------------dance-double - ----------------
#NOTES:
     dance-double:
     :
     Easy:
     6:
     :
00000000
00000000
00000000
00000000
,
00000000
00000000
00000000
00000000
,
00000000
00000000
00000000
00000000
,
00000000
00000000
00000000
00000000
,
00000000
00000000
00000000
00000000
,
00100000
00100000
00000000
00000000
,
00000100
00000100
00000000
00000000
,
01000000
01000000
00000000
00000000
,
00000010
00000010
00000000
00000000
,
00010000
00001000
00010000
00001000
,
00000010
00000100
00000010
00000100
,
00010000
00001000
00010000
00001000
,
01000000
00100000
01000000
00100000
,
10000000
01000000
10000000
00000000
,
00001000
00010000
00001000
00000000
,
00000001
00000100
00000001
00000000
,
00000100
00000010
00000100
00000000
,
00010000
00001000
00010000
00000000
,
01000000
00100000
01000000
00000000
,
10000000
00010000
10000000
00000000
,
00001000
00010000
00000100
00000100
,
00000001
00000000
00000001
00000000
,
00001000
00000000
00001000
00000000
,
00100000
00000000
00100000
00000000
,
01000000
00000000
01000000
00000000
,
10000000
10000000
01000000
00010000
,
00001000
00000100
00000001
00000001
,
00000100
00000000
00010000
00000000
,
00001000
00010000
00001000
00000000
00000000
00000000
00000000
00000000
,
00011000
00011000
00000000
00000000
,
10000000
01000000
00010000
00001000
,
00000001
00000100
00001000
00010000
,
10000000
01000000
00010000
00001000
,
00000001
00000100
00001000
00010000
,
10000000
00100000
00010000
00001000
,
00000001
00000010
00001000
00010000
,
10000000
00100000
00010000
00001000
,
00000001
00000010
00001000
00010000
,
10000000
10000000
01000000
01000000
,
00010000
00010000
00001000
00001000
,
00000100
00000100
00000001
00000001
,
00001000
00000100
00010000
01000000
,
10000000
10000000
00010000
00010000
,
00001000
00010000
00000001
00000100
,
00000010
00001000
00000100
00010000
,
00001000
00010000
00001000
01000000
,
00100000
00100000
10000000
10000000
,
01000000
00010000
00001000
00000100
,
00000001
00000000
00000000
00000000
;

//---------------dance-double - ----------------
#NOTES:
     dance-double:
     :
     Medium:
     9:
     :
00000000
00000000
00000000
00000000
,
00000000
00000000
00000000
00000000
,
00000000
00000000
00000000
00000000
,
00000000
00000000
00000000
00000000
,
00000000
00000000
00000000
00000000
,
00100000
00100000
10000000
00000000
01000000
00000000
01000000
00000000
,
10000000
00010000
10000000
00000000
00001000
00000000
00010000
00000000
,
00000010
00000010
00001000
00000000
00000001
00000000
00000100
00000000
,
00000010
00001000
00000010
00000000
00010000
00000000
00001000
00000000
,
00100000
00000000
00010000
00000000
10000000
00010000
01000000
00000000
,
00001000
00000000
00010000
00000000
00001000
00001000
00000100
00000000
,
00001000
00010000
00001000
00010000
,
00100000
00000000
01000000
00000000
10000000
10000000
01000000
00000000
,
10000000
00000000
00000000
00100000
00000000
00000000
01000000
00000000
00000000
00000000
00010000
00000000
00010000
00000000
00000000
00000000
,
00001000
00000000
00010000
00001000
00000000
00010000
00010000
00000000
,
00000010
00000000
00000000
00001000
00000000
00000000
00000100
00000000
00000000
00000000
00000001
00000000
00000001
00000000
00000000
00000000
,
00001000
00000000
00000100
00000010
00000000
00010000
00001000
00000000
,
00010000
00000000
00000000
00001000
00000000
00000000
01000000
00000000
00000000
00000000
00010000
00000000
00010000
00000000
00000000
00000000
,
10000000
00000000
01000000
00100000
00000000
00010000
01000000
00000000
,
10000000
00000000
00000000
00010000
00000000
00000000
10000000
00000000
00000000
00000000
01000000
00000000
01000000
00000000
00000000
00000000
,
00010000
00000000
00001000
00000100
00000000
00000001
00000001
00000000
,
00000001
00000100
00001000
00000100
,
00100000
00000000
00000000
00100000
00000000
00000000
01000000
00000000
00000000
00000000
00000000
00000000
01000000
00000000
00000000
00000000
,
10000000
00010000
10000000
01000000
,
00010000
00000000
00000000
00000000
00001000
00010000
00001000
00000000
,
00000010
00001000
00000001
00001000
,
00001000
00000000
00000000
00000001
00000000
00000000
00001000
00000000
00000000
00000000
00000000
00000000
00000100
00000000
00000000
00000000
,
00000100
00010000
00000100
00010000
,
00001000
00010000
00001000
00000000
00100000
00010000
01000000
00000000
,
00011000
00011000
00000000
00000000
,
10000000
01000000
10000000
00000000
00001000
00000000
00010000
00000000
,
00000001
00000100
00000001
00000000
00010000
00000000
00001000
00000000
,
10000000
01000000
10000000
00000000
00001000
00000000
00010000
00000000
,
00000001
00000100
00000001
00000100
00001000
00010000
00001000
00000000
,
00010000
01000000
10000000
00000000
00001000
00000000
00010000
00000000
,
00001000
00000100
00000001
00000000
00010000
00000000
00001000
00000000
,
00010000
01000000
10000000
00000000
00001000
00000000
00010000
00000000
,
00001000
00000100
00000001
00000100
00000001
00001000
00000100
00010000
,
00001000
00000000
01000000
01000000
,
00010000
00000000
00001000
00000000
00000100
00000001
00000001
00000000
,
00001000
00000000
00000100
00000000
00010000
01000000
01000000
00000000
,
10000000
01000000
10000000
01000000
,
00000000
10000000
00010000
01000000
00000000
00001000
00010000
00000000
,
00000000
00000010
00001000
00000100
00000000
00000001
00000100
00000000
,
00000000
00000010
00000000
00001000
00000000
00000100
00000000
00010000
,
00000000
00001000
00000000
00010000
00000000
01000000
01000000
00000000
,
00000000
00100000
00000000
10000000
00000000
01000000
00000000
00010000
,
00000000
00001000
00000000
00000100
00000000
00000001
00000000
00001000
,
00000100
00000000
00000000
00000000
;

//---------------dance-double - ----------------
#NOTES:
     dance-double:
     :
     Hard:
     12:
     :
00000000
00000000
00000000
00000000
,
00000000
00000000
00000000
00000000
,
00000000
00000000
00000000
00000000
,
00000000
00000000
00000000
00000000
,
00000000
00000000
00000000
00000000
,
00100000
00100000
10000000
00010000
00100000
01000000
10000000
00000000
,
10000000
00010000
10000000
01000000
00010000
00001000
00010000
00000000
,
00000010
00000010
00001000
00000001
00000010
00000100
00001000
00000000
,
00000010
00001000
00000010
00010000
00001000
00100000
01000000
00000000
,
00100000
00001000
00010000
01000000
10000000
00010000
01000000
00000000
,
00000010
00010000
00001000
00000100
00000001
00001000
00000100
00000000
,
00010000
00001000
00100000
01000000
00010000
00001000
00000100
00000000
,
00001000
00010000
00000010
00000100
00001000
00010000
01000000
00000000
,
10000000
00010000
10000000
01000000
00100000
00001000
00010000
00000010
,
00010000
00000100
00001000
00000100
00000010
00000001
00000100
00001000
,
00000100
00000001
00001000
00000100
00010000
00001000
00100000
01000000
,
10000000
00010000
01000000
10000000
01000000
00010000
00100000
00001000
,
00010000
00000010
00000100
00001000
00000100
00000001
00000010
00000001
,
00000100
00001000
00010000
00000100
00010000
01000000
10000000
00100000
,
01000000
00010000
00100000
01000000
10000000
00010000
01000000
00001000
,
00010000
00000100
00001000
00000100
00000010
00000001
00000100
00001000
,
00000100
00000001
00000010
00000100
00001000
00100000
00010000
00100000
,
10000000
01000000
00010000
01000000
10000000
00010000
01000000
00001000
,
00010000
00000010
00001000
00000010
00000100
00000001
00001000
00000100
,
00001000
00100000
00010000
00100000
10000000
01000000
00010000
01000000
,
10000000
00010000
00100000
00001000
00000100
00000001
00000010
00000100
,
00001000
00000100
00000001
00000100
00001000
00000100
00010000
00001000
,
00100000
01000000
00010000
01000000
10000000
00010000
01000000
00001000
,
00011000
00011000
00011000
00000000
00000010
00000000
00000001
00000000
,
00000011
00001100
00000000
00000000
,
00000001
00001000
00000001
00000100
00000010
00010000
00001000
00100000
,
00001000
01000000
00010000
01000000
00100000
10000000
01000000
00010000
,
01000000
10000000
00010000
01000000
00001000
00010000
00000010
00000100
,
00000001
00001000
00000100
00000001
00000100
00001000
00000010
00010000
,
00001000
00100000
01000000
00010000
01000000
10000000
00100000
10000000
,
01000000
00010000
00001000
01000000
00001000
00000100
00000001
00000010
,
00000100
00001000
00000010
00000100
00000001
00001000
00000100
00010000
,
00001000
01000000
00010000
01000000
00100000
10000000
01000000
00010000
,
01000000
10000000
00100000
01000000
00010000
00000010
00001000
00000010
,
00000001
00000100
00001000
00000100
00000001
00001000
00000100
00010000
,
00001000
00100000
00010000
00100000
01000000
10000000
00010000
01000000
,
00010000
00000010
00001000
00000010
00000001
00000100
00001000
00000100
,
00000001
00001000
00000010
00010000
01000000
10000000
00100000
01000000
,
00010000
01000000
10000000
01000000
00010000
01000000
00001000
00010000
,
00000010
00000100
00001000
00000100
00000001
00001000
00000100
00010000
,
00100000
00010000
00001000
00010000
01000000
10000000
00010000
00100000
,
01000000
00010000
00001000
00000100
00000001
00000010
00000001
00000100
,
00001000
00000100
00000001
00000100
00001000
00010000
01000000
10000000
,
00010000
00000000
00000000
00000000
;

//---------------dance-couple - ----------------
#NOTES:
     dance-couple:
     :
     Medium:
     7:
     :
00000000
00000000
00000000
00000000
,
00000000
00000000
00000000
00000000
,
00000000
00000000
00000000
00000000
,
00000000
00000000
00000000
00000000
,
00000000
00000000
00000000
00000000
,
00000010
00000000
00000001
00000000
10000100
00000000
00000001
00000000
00001000
00000100
00001000
00000000
10000100
00000000
00000000
00000000
,
00000010
00000000
00001000
00000000
10000100
00000000
00001000
00000000
00000001
00000100
00000001
00000000
10000100
00000000
00000000
00000000
,
00001000
00000000
00000001
00000000
10001000
00000000
00000100
00000000
00000010
00000100
00000010
00000000
10000100
00000000
00000000
00000000
,
00000001
00000000
00001000
00000000
10000001
00000000
00000100
00000000
00000010
00000100
00000010
00000000
10000100
00000000
00000000
00000000
,
00100000
00000000
00010000
00000000
01000001
00000000
00010000
00000000
10000000
01000000
10000000
00000000
01000001
00000000
00000000
00000000
,
00100000
00000000
10000000
00000000
01000001
00000000
10000000
00000000
00010000
01000000
00010000
00000000
01000001
00000000
00000000
00000000
,
10000000
00000000
00010000
00000000
10000001
00000000
01000000
00000000
00100000
01000000
00100000
00000000
01000001
00000000
00000000
00000000
,
00010000
00000000
10000000
00000000
00010001
00000000
01000000
00000000
00100000
01000000
00100000
00000000
01000001
00000000
00000000
00000000
,
00000001
00000000
00000000
00000001
01000000
00000000
00000001
00000000
00000000
00000000
00000000
00000000
01000001
00000000
00000000
00000000
,
00001000
00001000
01001000
00000000
00001000
00000001
01000100
00000000
,
00001000
00000000
00000000
00001000
01000000
00000000
00001000
00000000
00000000
00000000
00000000
00000000
01001000
00000000
00000000
00000000
,
00000001
00000001
01000001
00000000
00000001
00001000
01000100
00000000
,
00010000
00000000
00000000
00010000
00000010
00000000
00010000
00000000
00000000
00000000
00000000
00000000
00010010
00000000
00000000
00000000
,
10000000
10000000
10000010
00000000
10000000
00010000
01000010
00000000
,
10000000
00000000
00000000
10000000
00000010
00000000
10000000
00000000
00000000
00000000
00000000
00000000
10000010
00000000
00000000
00000000
,
00010000
00010000
00010010
00000000
00010000
10000000
01000010
00000000
,
00100000
00100000
00000010
00000010
,
00010000
00010000
00000001
00000001
,
10000000
10000000
00001000
00001000
,
01000100
00000000
00000000
00000000
01000100
00100010
01000100
00000000
,
00010001
00010001
10001000
10001000
,
10001000
00000000
00000000
10001000
00000000
00000000
10001000
00000000
00000000
00000000
00000000
00000000
00000000
00000000
00000000
00000000
,
01000100
00000000
01000100
01000100
,
10011001
10011001
01000100
00000000
00100010
00000000
00100010
00000000
,
10001000
00010001
01000100
00000000
00000000
00000000
00000000
00000000
,
00010000
10000000
00010001
10000000
00100000
01000000
00100001
01000000
,
00010000
10000000
01000001
10000000
00010000
01000000
00010001
10000000
,
01000000
10000000
01000001
00100000
00010000
01000000
00010001
01000000
,
00010000
10000000
01000001
10000000
01000000
00100000
00010001
00000000
,
00000001
00001000
10000001
00001000
00000010
00000100
10000010
00000100
,
00000001
00001000
10000100
00001000
00000001
00000100
10000001
00001000
,
00000100
00001000
10000100
00000010
00000001
00000100
10000001
00000100
,
00000001
00001000
10000100
00001000
00000100
00000010
10000001
00000000
,
01000000
10000000
01000001
10000000
00010000
01000000
00010001
01000000
,
00100000
10000000
00100001
10000000
00010000
00100000
00010001
00100000
,
01000000
10000000
01000001
10000000
00010000
01000000
00010001
01000000
,
00100000
10000000
01000001
10000000
00100000
10000000
01000001
00000000
,
00000100
00001000
10000100
00001000
00000001
00000100
10000001
00000100
,
00000010
00001000
10000010
00001000
00000001
00000010
10000001
00000010
,
00000100
00001000
10000100
00001000
00000001
00000100
10000001
00000100
,
00000010
00001000
10000100
00001000
00000010
00001000
10000100
00000000
,
10000001
00000000
10000001
00000000
00011000
00011000
00011000
00000000
,
10000001
10000001
10000001
00000000
00011000
00000000
10000001
00000000
,
01100110
00000000
00000000
00000000
;

//---------------dance-solo - ----------------
#NOTES:
     dance-solo:
     :
     Easy:
     4:
     :
000000
000000
000000
000000
,
000000
000000
000000
000000
,
000000
000000
000000
000000
,
000000
000000
000000
000000
,
000000
000000
000000
000000
,
000100
000100
000000
000000
,
100000
100000
000000
000000
,
001000
001000
000000
000000
,
000001
000001
000000
000000
,
010000
000010
010000
000010
,
000100
001000
000100
001000
,
100000
000001
100000
000001
,
000010
001000
000010
001000
,
010000
000010
010000
000000
,
000010
001000
000010
000000
,
100000
001000
100000
000000
,
000001
001000
000001
000000
,
000100
000010
000100
000000
,
010000
000100
010000
000000
,
000010
100000
000010
000000
,
010000
000001
001000
001000
,
000010
000000
000010
000000
,
010000
000000
010000
000000
,
001000
000000
001000
000000
,
100000
000000
100000
000000
,
000100
000100
000010
001000
,
100000
001000
010000
000010
,
001000
000000
000001
000000
,
010000
000010
010000
000000
000000
000000
000000
000000
,
001100
001100
000000
000000
,
100000
000001
010000
000010
,
000100
001000
100000
000001
,
001000
000100
100000
000001
,
010000
000010
001000
000100
,
000001
000010
100000
010000
,
000001
001000
100000
001000
,
000100
000100
010000
001000
,
000100
000100
000010
001000
,
010000
010000
100000
100000
,
001000
001000
000001
000001
,
000010
000010
000100
000100
,
100000
000001
010000
001000
,
000010
000010
100000
100000
,
000100
001000
100000
001000
,
000010
100000
001000
000100
,
000001
001000
100000
001000
,
000100
000100
000001
000001
,
010000
000010
100000
001000
,
000001
000000
000000
000000
;

//---------------dance-solo - ----------------
#NOTES:
     dance-solo:
     :
     Medium:
     5:
     :
000000
000000
000000
000000
,
000000
000000
000000
000000
,
000000
000000
000000
000000
,
000000
000000
000000
000000
,
000000
000000
000000
000000
,
000100
000100
010000
000000
000001
000000
000001
000000
,
000100
000100
000010
000000
100000
000000
100000
000000
,
000100
001000
000100
000000
010000
000000
100000
000000
,
000100
001000
000100
000000
000010
000000
000001
000000
,
100000
000000
001000
000000
000100
000010
000001
000000
,
000001
000000
001000
000000
000100
010000
100000
000000
,
000001
010000
100000
000010
,
001000
000000
001000
000000
000010
001000
000010
000000
,
010000
000000
000000
010000
000000
000000
010000
000000
000000
000000
001000
000000
001000
000000
000000
000000
,
000001
000000
000100
001000
000000
100000
100000
000000
,
000010
000000
000000
000010
000000
000000
000010
000000
000000
000000
001000
000000
001000
000000
000000
000000
,
100000
000000
000100
001000
000000
000001
000001
000000
,
000100
000000
000000
010000
000000
000000
000010
000000
000000
000000
001000
000000
001000
000000
000000
000000
,
000001
000000
010000
010000
000000
000001
100000
000000
,
000100
000000
000000
000010
000000
000000
010000
000000
000000
000000
001000
000000
001000
000000
000000
000000
,
100000
000000
000010
000010
000000
100000
000001
000000
,
000100
100000
001000
000001
,
000100
000000
000000
000100
000000
000000
000100
000000
000000
000000
000000
000000
001000
000000
000000
000000
,
000001
100000
000010
001000
,
100000
000000
000000
000000
000010
000100
000001
000000
,
100000
001000
010000
000001
,
000010
000000
000000
000010
000000
000000
000010
000000
000000
000000
000000
000000
000100
000000
000000
000000
,
010000
000010
010000
000010
,
000100
100000
001000
000000
010000
000010
000100
000000
,
001100
001100
000000
000000
,
010000
100000
010000
000000
000001
000000
001000
000000
,
000010
000001
000010
000000
100000
000000
010000
000000
,
000001
000100
000001
000000
100000
000000
001000
000000
,
100000
000100
100000
000000
000001
000000
001000
000000
,
000100
010000
001000
000000
100000
000000
000001
000000
,
000100
000010
001000
000000
000001
000000
100000
000000
,
000100
000100
000100
000000
010000
000000
000010
000000
,
000100
000001
001000
000010
010000
001000
100000
000001
,
001000
000000
001000
001000
,
000100
000000
100000
000000
001000
010000
010000
000000
,
000100
000000
000001
000000
001000
000010
000010
000000
,
000100
100000
000100
100000
,
000000
000100
100000
010000
000000
000010
000010
000000
,
000000
000100
000001
000010
000000
010000
010000
000000
,
000000
000100
000000
001000
000000
000010
000000
010000
,
000000
001000
000000
100000
000000
000010
000010
000000
,
000000
010000
000000
000001
000000
100000
000000
001000
,
000000
000100
000000
000001
000000
010000
000000
001000
,
100000
000000
000000
000000
;

//---------------dance-solo - ----------------
#NOTES:
     dance-solo:
     :
     Hard:
     7:
     :
000000
000000
000000
000000
,
000000
000000
000000
000000
,
000000
000000
000000
000000
,
000000
000000
000000
000000
,
000000
000000
000000
000000
,
000100
000100
010000
000010
100000
000001
001000
000000
,
001000
001000
000001
100000
000010
010000
001000
000000
,
000010
000010
010000
001000
100000
000001
010000
000000
,
001000
100000
000010
001000
000100
010000
001000
000000
,
000100
000010
010000
000100
100000
000001
001000
000000
,
000100
010000
001000
100000
000001
000100
000010
000000
,
001000
000010
010000
000001
000100
000001
100000
000000
,
010000
000010
000100
000001
100000
000100
001000
000000
,
000100
000010
010000
000001
000010
000001
100000
001000
,
010000
000001
001000
000100
100000
000001
001000
000000
,
000010
000100
000001
010000
001000
100000
000001
001000
,
000100
010000
001000
000100
000010
001000
000001
001000
,
000100
010000
000010
010000
100000
000100
000001
001000
,
000001
010000
000010
100000
001000
000100
000010
001000
,
000001
100000
001000
010000
000001
001000
000100
010000
,
001000
100000
001000
010000
000100
001000
000001
001000
,
000010
000100
001000
010000
000001
001000
000010
000001
,
000100
010000
100000
010000
000001
001000
000001
100000
,
001000
000100
000010
001000
000001
010000
001000
100000
,
000001
001000
000100
100000
010000
001000
000100
010000
,
000001
001000
000001
000100
000010
010000
001000
000100
,
000001
001000
000001
100000
000100
010000
000010
010000
,
001000
000100
000001
100000
010000
001000
000010
000100
,
100001
100001
010010
000000
000100
000000
001000
000000
,
010010
010010
100001
000000
000000
000000
000000
000000
,
000100
010000
000010
100000
010000
100000
000001
001000
,
000010
100000
001000
000100
000001
100000
001000
000000
,
010000
000100
100000
000010
001000
000001
100000
001000
,
000100
000010
001000
000100
010000
001000
100000
001000
,
000100
000010
010000
000010
000001
000100
100000
001000
,
100000
000010
010000
000001
001000
000100
010000
001000
,
100000
000001
001000
000010
100000
001000
000100
000010
,
001000
000001
001000
000010
000100
001000
100000
001000
,
010000
000100
001000
000010
100000
001000
010000
100000
,
000100
000010
000001
000010
100000
001000
100000
000001
,
001000
000100
010000
001000
100000
000010
001000
000001
,
100000
001000
000100
000001
000010
001000
000100
000010
,
100000
001000
100000
000100
010000
000010
001000
000100
,
100000
001000
100000
000001
000100
000010
010000
000010
,
001000
000100
100000
000001
000010
001000
010000
000100
,
001000
000001
100000
001000
010000
000010
000001
000100
,
010000
001000
100000
000010
001000
000001
100000
001000
,
000100
000010
010000
001000
100000
000100
001000
000001
,
010000
000000
000000
000000
;
