#TITLE:Make Me Feel;
#ARTIST:KO3;
#BANNER:Make Me Feel-bn.png;
#BACKGROUND:Make Me Feel-bg.png;
#JACKET:Make Me Feel-jacket.png;
#MUSIC:Make Me Feel.ogg;
#SAMPLESTART:45.455;
#SAMPLELENGTH:20;
#DISPLAYBPM:132;
#BPMS:0=132;
#BGCHANGES:;

//---------------dance-single - ----------------
#NOTES:
     dance-single:
     :
     Beginner:
     3:
     :
0000
0000
0000
0000
,
0000
0000
0000
0000
,
0000
0000
0000
0000
,
0000
0000
0000
0000
,
0000
0000
0000
0000
,
2000
0000
3000
0000
,
0002
0000
0003
0000
,
0200
0000
0300
0000
,
0020
0000
0030
0000
,
0001
0001
0001
0000
,
0001
0001
0001
0000
,
0001
0000
0000
1000
,
1000
0000
0000
0000
,
0001
0001
0001
0000
,
0001
0001
0001
0000
,
0001
0000
0000
0100
,
0100
0000
0000
0000
,
1000
0000
0010
0000
,
1000
0000
0001
0000
,
0010
0000
0100
0000
,
0010
0000
0001
0000
,
0100
0000
0010
0000
,
1000
1000
1000
0000
,
0002
0000
0003
0000
,
0010
0000
0001
0000
,
1001
0000
0010
0000
,
1000
0000
0100
0000
,
1000
0000
0010
0000
,
0100
0000
0001
0000
,
0010
0000
0001
0000
,
0100
0000
1000
0000
,
0001
0000
1000
0000
,
0010
0010
0010
0000
,
0200
0000
0300
0000
,
0001
0000
1000
0000
,
0100
0000
0010
0000
,
0100
0000
1000
0000
,
0010
0000
0001
0000
,
1000
0000
0001
0000
,
0010
0000
0001
0000
,
0100
0000
0010
0000
,
1000
0000
0001
0000
,
0020
0000
0030
0000
,
0001
0000
0100
0000
,
0010
0000
1000
0000
,
0100
0000
1000
0000
,
0020
0000
0030
0000
,
1000
0000
0001
0000
,
0100
0100
0100
0000
,
0001
0001
0001
0000
,
0001
0001
0001
0000
,
0001
0000
0000
1000
,
1000
1000
0000
0000
,
0001
0001
0001
0000
,
0001
0001
0001
0000
,
0001
0000
0000
0010
,
0020
0000
0030
0000
,
0001
0000
0100
0000
,
0010
0000
1000
0000
,
0100
0000
0010
0000
,
0001
0000
1000
0000
,
0001
0000
0100
0000
,
0010
0010
0010
0000
,
2000
0000
3000
0000
,
0001
0000
0100
0000
,
0110
0000
0000
0000
;

//---------------dance-single - ----------------
#NOTES:
     dance-single:
     :
     Easy:
     7:
     :
0000
0000
0000
0000
,
0000
0000
0000
0000
,
0000
0000
0000
0000
,
0000
0000
0000
0000
,
0000
0000
0000
0000
,
1000
0100
1000
0001
,
0100
0010
1000
0001
,
0010
0001
0010
0100
,
1000
0010
1000
0100
,
0001
0001
0001
0010
,
0001
0001
0001
0100
,
0001
0000
1001
0010
,
1000
0100
1000
0010
,
0001
0001
0001
0100
,
0001
0001
0001
0010
,
0001
0000
0110
0010
,
0001
0100
1000
1000
,
0010
1000
0200
0300
,
2000
3000
0001
0010
,
0001
0100
2000
3000
,
0020
0030
1000
0001
,
0010
0001
1000
0100
,
1000
0010
0001
0100
,
1000
0001
0100
0010
,
1000
0100
1000
1001
,
0110
0001
0010
1000
,
0100
0000
1000
0001
,
0100
0010
1000
0100
,
1000
0010
0010
0100
,
0001
1000
0010
0100
,
0001
0010
0001
1000
,
0100
0000
0010
0000
,
0001
0100
1000
0010
,
0001
0000
1001
0110
,
1000
0010
1000
0001
,
0010
0001
0100
0010
,
1000
0100
1000
0010
,
0001
0010
0001
1000
,
0100
0010
0001
0100
,
0010
1000
0100
0001
,
1001
0000
0010
0110
,
0001
0010
0001
0100
,
2000
0010
0000
3001
,
0000
0010
0001
0010
,
0001
0100
1000
0010
,
1000
0100
1000
0010
,
0100
0002
0000
0013
,
0000
0001
0010
0100
,
1000
1000
1000
0100
,
0001
0001
0001
0010
,
0001
0001
0001
0100
,
0001
0000
1001
0010
,
1000
0100
1000
0010
,
0001
0001
0001
0010
,
0001
0001
0001
0100
,
0001
0000
0110
0001
,
1000
0010
0100
0001
,
0010
0010
0010
0010
,
0001
0001
0100
0100
,
0010
0010
0010
0010
,
1000
1000
0100
0100
,
1000
0010
1000
0001
,
0010
0001
0010
0100
,
1000
0010
0100
0001
,
0010
0100
1000
1001
,
0110
0000
0000
0000
;

//---------------dance-single - ----------------
#NOTES:
     dance-single:
     :
     Medium:
     10:
     :
0000
0000
0000
0000
,
0000
0000
0000
0000
,
0000
0000
0000
0000
,
0000
0000
0000
0000
,
0000
0000
0000
0000
,
1000
0010
0100
0010
0000
1000
0001
1000
,
0000
0100
0010
0100
0000
1000
0001
1000
,
0000
0001
0010
0200
0000
1300
0000
1100
,
0000
0110
0000
0011
0000
0001
0010
0001
,
0100
0000
0001
0000
0001
0000
1000
0001
,
0000
0000
0001
0000
0001
0100
0010
0000
,
0001
1000
0100
0000
1010
0000
1000
0010
,
0000
1001
0000
0100
0010
0001
1000
0001
,
0100
0000
0001
0000
0001
0000
1000
0001
,
0000
0000
0001
0000
0001
0100
0010
0000
,
0001
1000
0000
1000
0100
0000
0010
0001
,
0100
0000
0010
0000
0101
0000
1000
0001
,
2000
0000
0000
0000
0000
0000
0000
0000
0000
0000
0000
0010
0000
0000
0000
3010
0000
0000
0000
0000
0000
0000
0000
0000
,
0200
0000
0000
0000
0000
0000
0000
0000
0000
0000
0000
0001
0000
0000
0000
0301
0000
0000
0000
0000
0000
0010
0000
0000
,
0002
0000
0000
0000
0000
0000
0000
0000
0000
0000
0000
1000
0000
0000
0000
1003
0000
0000
0010
0000
0000
0100
0000
0000
,
0020
0000
0000
0000
0000
0000
0000
0000
0000
0000
0000
0100
0000
0000
0000
0130
0000
0000
0001
0000
0000
1000
0000
0000
,
0100
0000
0000
0000
0000
0000
0010
0000
0000
0000
0000
0001
0000
0000
0000
1000
0000
0000
0010
0000
0000
0000
0000
0000
,
1000
0100
0001
0100
2000
0000
3010
0100
,
0001
0011
0101
1001
,
1000
0100
0001
0100
1000
0000
1010
0000
,
0001
0000
0000
0100
0000
0000
0010
0000
0000
0000
0000
1000
0000
0000
0000
0001
0000
0000
1000
0000
0000
0000
0000
0000
,
0100
0000
0000
1000
0000
0000
0001
0000
0000
0000
0000
0100
0000
0000
0000
0001
0000
0000
0010
0000
0000
0100
0000
0000
,
1000
0000
0000
0001
0000
0000
0010
0000
0000
0000
0000
0001
0000
0000
0000
0100
0000
0000
0010
0000
0000
1000
0000
0000
,
0100
0000
0000
0010
0000
0000
0001
0000
0000
0000
0000
1000
0000
0000
0000
0010
0000
0000
1000
0000
0000
0000
0000
0000
,
1100
0000
0000
1000
0000
0000
0001
0000
0000
0000
0000
0010
0000
0000
0000
0001
0000
0000
0100
0000
0000
0010
0000
0000
,
0000
0000
0000
0110
0000
0000
0001
0000
0000
0000
0000
0100
0000
0000
0000
0010
0000
0000
1000
0000
0000
0100
0000
0000
,
1000
0000
0000
0010
0000
0000
0100
0000
0000
0000
0000
0001
0000
0000
0000
1000
0000
0000
0001
0000
0000
0100
0000
0000
,
0001
0010
1000
0010
0001
0000
0100
0010
,
1000
0000
0000
0001
0000
0000
0000
0000
0000
0000
0000
1001
0000
0000
0000
0110
0000
0000
0000
0000
0000
0000
0000
0000
,
0010
1000
0100
0010
0001
1000
0001
0100
,
0001
0000
0000
0010
0000
0000
0100
0000
0000
0000
0000
1000
0000
0000
0000
0001
0000
0000
1000
0000
0000
0010
0000
0000
,
0100
0000
0000
0001
0000
0000
0010
0000
0000
0000
0000
0001
0000
0000
0000
1000
0000
0000
0100
0000
0000
1000
0000
0000
,
0010
0000
0000
0100
0000
0000
0010
0000
0000
0000
1000
0000
0000
0000
0000
0001
0000
0000
0100
0000
0000
0000
0000
0000
,
0101
0000
0000
0010
0000
0000
1000
0000
0000
0000
0000
0100
0000
0000
0000
1000
0000
0000
0010
0000
0000
0001
0000
0000
,
0100
0000
0000
0010
0000
0000
0000
0000
0000
0000
0000
1010
0000
0000
0000
1000
0000
0000
0001
0000
0000
0100
0000
0000
,
0010
0000
0000
0000
0000
0000
0000
0000
0000
0000
0000
1100
0000
0000
0000
0011
0000
0000
0100
0000
0000
0000
0000
0000
,
0010
0000
1000
0000
0100
1000
0001
0000
,
0010
0000
0001
0100
0000
0010
1000
0001
,
0100
0010
1000
0000
0000
0001
0100
0000
,
0001
0010
1000
0000
0100
0010
0001
0000
,
0100
0000
0010
0000
1000
0001
1000
0000
,
0100
0000
1000
0010
0000
1000
0100
0010
,
0001
0100
0001
0000
0000
1000
0100
0020
,
0000
0230
0000
1300
0000
1000
0010
0001
,
0100
0000
0001
0000
0001
0000
0100
0001
,
1000
0001
0001
0100
,
0001
0010
1000
0000
0101
0000
1100
0000
,
0001
0000
1000
0000
0010
1000
0100
0001
,
0010
0000
0001
0000
0001
0000
1000
0001
,
0100
0000
0001
0000
0001
1000
0100
0000
,
0001
0010
0000
0100
1000
0000
1010
0000
,
0101
0000
0001
0010
1000
0000
0100
0010
,
0100
0000
0000
0000
0000
0000
1000
0000
0000
0000
0000
0001
0000
0000
0000
0100
0000
0000
0010
0000
0000
0000
0000
0000
,
1000
0000
0000
0000
0000
0000
0100
0000
0000
0000
0000
1000
0000
0000
0000
0001
0000
0000
0010
0000
0000
0100
0000
0000
,
0010
0000
0000
0000
0000
0000
0001
0000
0000
0000
0000
0100
0000
0000
0000
0010
0000
0000
1000
0000
0000
0001
0000
0000
,
0010
0000
0000
0000
0000
0000
0001
0000
0000
0000
0000
0100
0000
0000
0000
0010
0000
0000
1000
0000
0000
0001
0000
0000
,
1000
0000
0000
0000
0000
0000
0010
0000
0000
0000
0000
1000
0000
0000
0000
0001
0000
0000
0100
0000
0000
0000
0000
0000
,
0001
0010
1000
0010
0001
0000
0100
0010
,
2000
3002
0023
0230
,
1300
0010
0001
0010
1000
0000
1001
0000
,
0110
0000
0000
0000
;

//---------------dance-single - ----------------
#NOTES:
     dance-single:
     :
     Hard:
     13:
     :
0000
0000
0000
0000
,
0000
0000
0000
0000
,
0000
0000
0000
0000
,
0000
0000
0000
0000
,
0000
0000
0000
0000
,
1000
0010
0100
0010
0001
0010
1000
0100
,
0001
0100
1000
0010
0000
0100
0010
1000
,
0000
0100
1000
0002
0000
0103
0000
1010
,
0000
1001
0000
1100
0000
1000
0010
0001
,
0101
0000
0001
0000
0001
0010
1000
0001
,
0100
0000
0000
0000
0000
0000
0001
0000
0000
0000
0000
0000
0001
0000
0000
1000
0000
0000
0100
0000
0000
0000
0000
0001
,
0000
0000
1000
0001
0000
0000
0010
0000
0000
0100
0000
0000
0110
0000
0000
0000
0000
0000
0001
0000
0000
1000
0000
0000
,
0020
0000
0000
0000
0000
0100
0000
0000
0000
1000
0000
0000
1030
0000
0000
0100
0000
0000
0010
0000
0000
0001
0000
0000
,
0011
0000
0001
0000
0001
1000
0010
0001
,
0100
0000
0001
0000
0001
0010
1000
0001
,
0000
0000
0010
0100
0000
0000
1000
0000
0000
0001
0000
0000
1001
0000
0000
0000
0000
0000
0100
0000
0000
0010
0000
0000
,
1000
0000
0000
0000
0000
0001
0000
0000
0000
0100
0000
0000
0110
0000
0000
0000
0000
0000
0010
0000
0000
0010
0000
0000
,
1000
0000
0000
0100
0000
0000
0010
0000
0000
0002
0000
0000
0000
0000
0103
0000
0000
0000
0000
0000
0000
0010
0000
0000
,
1000
0000
0000
0002
0000
0000
0000
0000
0000
0000
0000
0203
0000
0000
0000
0000
0000
0310
0000
0000
0000
1000
0000
0000
,
0010
0000
0000
1000
0000
0000
0001
0000
0000
0200
0000
0000
0000
0000
0310
0000
0000
0000
0000
0000
0000
0000
0000
0000
,
1000
0000
0000
0000
0000
0002
0000
0000
0000
0000
0000
2003
0000
0000
0000
3010
0000
0000
0100
0000
0000
0001
0000
0000
,
0010
0000
0000
0001
0000
0000
1000
0000
0000
0010
0000
0100
0000
0000
0001
0000
0000
0000
1000
0000
0000
0000
0000
0000
,
0100
0001
0100
1000
0100
0010
0001
0100
,
0010
0000
1000
0001
0000
0000
0100
0000
0000
0010
0000
1000
0000
0000
0100
0000
0000
0000
1000
0000
0001
0100
0000
0000
,
0001
0010
1000
0010
0001
0100
1010
0000
,
0101
0000
0000
1000
0000
0000
0100
0000
0000
0010
0000
0001
0000
0000
0001
0100
0000
0000
0010
0000
0000
1000
0000
0000
,
0100
0000
0000
0010
0000
0000
1000
0000
0000
0010
0000
0001
0000
0000
0001
1000
0000
0000
0010
0000
0000
0100
0000
0000
,
0001
0000
0000
0010
0000
0000
0100
0000
0000
0001
0000
0100
0000
0000
0100
1000
0000
0000
0010
0000
1000
0001
0000
0000
,
0100
0000
0000
1000
0000
0000
0100
0000
0000
0001
0000
1000
0000
0000
1000
0010
0000
0000
0001
0000
0000
0010
0000
0000
,
0100
0000
0000
0001
0000
0000
0010
0000
0000
0100
0000
1000
0000
0000
1000
0001
0000
0000
1000
0000
0000
0010
0000
0000
,
0100
0000
0000
1000
0000
0000
0100
0000
0000
0010
0000
1000
0000
0000
1000
0001
0000
0000
0010
0000
0000
0001
0000
0100
,
0001
0000
0000
0010
0000
0000
0001
0000
0000
0100
0000
0010
0000
0000
0010
1000
0000
0000
0100
0000
1000
0001
0000
0000
,
0100
0010
0100
1000
0100
0001
0010
0100
,
1000
0000
0000
0001
0000
0000
1100
0000
0000
0000
0000
0011
0000
0000
0000
0001
0000
0000
0100
0000
0000
0010
0000
1000
,
0010
0000
0000
0100
0000
0000
0001
0000
0000
1000
0000
0100
0000
0000
0100
0010
0000
0000
0001
0000
0000
1000
0000
0000
,
0010
0000
0000
0001
0000
0000
0010
0000
0000
0100
0000
0001
0000
0000
0001
1000
0000
0000
0100
0000
1000
0010
0000
0000
,
0001
0000
0000
0010
0000
0000
1000
0000
0000
0010
0000
0100
0000
0000
0100
0001
0000
0000
1000
0000
0000
0100
0000
0000
,
0010
0000
0000
0100
0000
0000
0001
0000
0000
0100
0000
1000
0000
0000
1000
0001
0000
0000
0100
0000
0000
0010
0000
0000
,
0001
0000
0000
0010
0000
0000
0100
0000
0000
0001
0000
1000
0000
0000
1000
0100
0000
0000
0010
0000
0000
0001
0000
0000
,
0100
0000
0000
0010
0000
0000
1000
0000
0000
0100
0000
0010
0000
0000
0010
0001
0000
0000
1000
0000
0001
0100
0000
0000
,
0010
0000
0000
1000
0000
0000
0001
0000
0000
0000
0000
0110
0000
0000
0000
1001
0000
0000
0100
0000
0000
0000
0000
0000
,
0001
0010
1000
0010
0100
0010
0001
2000
,
0000
0000
0000
3100
0000
0000
1000
0000
0000
0010
0000
0000
0000
0000
0100
0001
0000
0000
0101
0000
0000
0000
0000
0010
,
1000
0001
0010
1000
0010
0100
0010
0001
,
0100
0010
1000
0002
1000
1003
0010
0100
,
1010
0000
0000
0000
0000
0000
1000
0000
0000
0100
0000
0000
0001
0000
0000
0000
0010
0000
0001
0000
0000
0000
0000
0100
,
0000
0000
0010
0000
0000
1000
0000
0000
0000
0001
0000
0000
0000
0000
1000
0100
0000
0000
1100
0000
0000
0000
0000
0010
,
0001
0100
0010
2000
0000
3100
0010
0012
,
0000
1000
0000
0103
0000
1000
0100
0001
,
0010
0000
0001
0000
0001
0100
0010
0001
,
1000
0000
0000
0000
0000
0000
0001
0000
0000
0000
0000
0000
0001
0000
0000
0010
0000
0000
0100
0000
0000
0000
0000
0001
,
0000
0000
0100
0001
0000
0000
0010
0000
0000
0100
0000
0000
1100
0000
0000
0000
0000
0000
1000
0000
0000
0010
0000
0000
,
0100
0000
0000
0000
0000
0001
0000
0000
0000
0010
0000
0000
0010
0000
0000
0100
0000
0000
1000
0000
0000
0001
0000
0000
,
1001
0000
0001
0000
0001
0010
1000
0001
,
1000
0000
0000
0000
0000
0000
0001
0000
0000
0000
0000
0000
0001
0000
0000
0010
0000
0000
0100
0000
0000
0000
0000
0001
,
0000
0000
1000
0001
0000
0000
0100
0000
0000
0010
0000
0000
0101
0000
0000
0000
0000
0000
1000
0000
0000
0001
0000
0000
,
0010
0000
0000
0000
0000
0001
0000
0000
0000
0100
0000
0000
1010
0000
0000
0000
0000
0000
1000
0000
0000
1000
0000
0000
,
0010
0000
0000
1000
0000
0000
0100
0000
0000
0020
0000
0001
0000
0000
0000
0031
0000
0000
0100
0000
0000
0010
0000
0000
,
2000
0000
0000
0000
0000
3200
0000
0000
0000
0310
0000
0001
0000
0000
0002
0000
0000
0000
0103
0000
0000
0010
0000
0000
,
1000
0000
0000
0001
0000
0000
1000
0000
0000
0200
0000
0010
0000
0000
0000
0310
0000
0000
0001
0000
0000
0100
0000
0000
,
0010
0000
0000
1000
0000
0000
0100
0000
0000
0010
0000
0000
0001
0000
0000
0100
0000
0010
0000
0000
0100
0010
0000
0000
,
1000
0000
0000
0001
0000
0000
0010
0000
0000
0002
0000
0100
0000
0000
0000
0103
0000
0000
0010
0000
0000
1000
0000
0000
,
0100
0001
0100
0010
0100
0001
0100
1000
,
0010
0000
0000
0100
0000
0000
0001
0000
0000
0010
0000
0001
0000
0000
1000
0100
0000
0000
1000
0000
0010
0100
0000
0000
,
0001
0010
0001
1000
0100
0010
0011
0000
,
0110
0000
0000
0000
;
