#VERSION:0.83;
#TITLE:Majesty of Anubis;
#SUBTITLE:;
#ARTIST:ryhki;
#TITLETRANSLIT:;
#SUBTITLETRANSLIT:;
#ARTISTTRANSLIT:;
#GENRE:;
#ORIGIN:;
#CREDIT:;
#BANNER:Majesty of Anubis-bn.png;
#BACKGROUND:Majesty of Anubis-bg.png;
#PREVIEWVID:;
#JACKET:Majesty of Anubis-jacket.png;
#CDIMAGE:;
#DISCIMAGE:;
#LYRICSPATH:;
#CDTITLE:;
#MUSIC:Majesty of Anubis.ogg;
#OFFSET:0.000000;
#SAMPLESTART:46.500000;
#SAMPLELENGTH:20.000000;
#SELECTABLE:YES;
#DISPLAYBPM:160.000000;
#BPMS:0.000=160.000;
#STOPS:;
#DELAYS:;
#WARPS:;
#TIMESIGNATURES:0.000=4=4;
#TICKCOUNTS:0.000=4;
#COMBOS:0.000=1;
#SPEEDS:0.000=1.000=0.000=0;
#SCROLLS:0.000=1.000;
#FAKES:;
#LABELS:0.000=Song Start;
#BGCHANGES:;
#KEYSOUNDS:;
#ATTACKS:
;

//---------------dance-single - ----------------
#NOTEDATA:;
#CHARTNAME:;
#STEPSTYPE:dance-single;
#DESCRIPTION:;
#CHARTSTYLE:;
#DIFFICULTY:Hard;
#METER:16;
#RADARVALUES:0.729721,0.854994,0.460382,0.394613,1.015763,699.000000,636.000000,63.000000,54.000000,0.000000,0.000000,0.000000,0.000000,0.000000,0.729721,0.854994,0.460382,0.394613,1.015763,699.000000,636.000000,63.000000,54.000000,0.000000,0.000000,0.000000,0.000000,0.000000;
#CREDIT:;
#NOTES:
0000
0000
0000
0000
,
0000
0000
0000
0000
,
0000
0000
0000
0000
,
0000
0000
0000
0000
,
0000
0000
0000
0000
,
1010
2020
0030
3002
,
0103
0000
0100
0001
0000
0001
1000
0000
1000
0001
0000
0000
,
0102
1000
0010
1003
,
0001
0100
0001
0100
0001
0100
0010
1000
0010
1000
0010
1000
,
0100
0000
0000
1100
0000
1000
0001
0000
0001
0010
0001
1000
,
0020
0000
0000
1030
0010
0100
0002
0000
0000
1003
0000
0000
,
1001
0000
0000
1001
0000
0001
1000
0000
1000
0100
0010
0100
,
0020
0000
0000
0031
0100
0001
1000
0000
0001
0100
0000
0000
,
0110
0000
0000
1000
0100
0010
0001
0000
0000
0001
0010
0100
,
1000
0000
0000
1000
0010
0100
0001
0000
0000
0001
0100
0010
,
1000
0100
1000
0001
0100
0001
1000
0100
1000
0001
0100
0001
,
1000
0001
1000
0001
1000
0001
0100
0000
0100
0010
0000
0000
,
1001
0000
1000
0001
0000
0000
0011
0000
0000
0011
0000
0000
,
0001
1000
0010
1000
0001
0010
0100
0000
0100
1000
0001
0000
,
1000
0000
0000
0001
0010
0100
1000
0000
0000
0010
0100
0001
,
1000
0000
0001
0010
0000
0001
0100
0010
1000
0002
0000
0000
,
0103
0000
0000
0001
1000
0001
0010
0000
0000
0100
1000
0010
,
0100
0000
0001
1000
0001
0010
0001
0000
1000
0100
0000
0000
,
1010
0000
0010
1000
0100
1000
0001
0000
0010
0001
0100
0001
,
0010
0000
0100
1000
0001
1000
0010
0000
0010
0000
0010
0000
,
0101
0000
0000
1000
0001
1000
0001
1000
0001
0010
0100
1000
,
0010
0000
0010
0000
0010
1000
0100
0000
0100
0000
0100
0010
,
0001
0000
0000
0010
0001
1000
0100
0000
0000
0010
0001
1000
,
0100
0000
0000
1000
0010
0100
0001
0000
0000
1000
0010
0100
,
0001
0010
0100
1000
0100
0010
0001
0010
0100
1000
0100
0010
,
0001
0000
0000
1000
0000
1000
0100
0000
0000
0110
0000
0000
,
1100
0000
0000
0001
0000
0001
0200
0000
0000
0320
0000
0000
,
1030
0010
1000
0010
0000
1000
0002
0000
0000
0103
0010
1000
,
0001
0000
0000
0010
0000
0001
2000
0000
0000
3200
0000
0000
,
1300
0001
1000
0001
0100
0010
1000
0000
0000
0011
0000
0000
,
1100
0000
0000
0001
1000
0001
0100
0000
0000
0101
0000
0000
,
0001
1000
0000
0001
1000
0100
0020
0000
0000
0031
1000
0010
,
1000
0000
1000
0010
0100
0001
0010
0000
0001
1000
0001
0100
,
0010
0000
1000
0001
1000
0100
0010
0000
0001
1000
0010
0100
,
0010
2002
0003
3001
,
0200
0310
2000
3001
,
1200
0000
0000
0001
0000
0000
1000
0000
0000
0301
0100
0010
,
0001
0100
0001
1000
0100
1000
0001
0100
0001
1000
0100
1000
,
0001
0000
0000
0101
0000
0000
0101
0000
0000
0100
0010
1000
,
0001
0000
0001
1000
0100
1000
0020
0000
0000
0130
0000
0100
,
0010
0000
0000
1100
0000
0000
1100
0000
0000
0001
1000
0100
,
0020
0000
0000
0031
0010
0100
2000
0000
3002
0000
0203
0000
,
0310
0000
0000
1001
0000
0000
1001
0000
0000
0100
0001
1000
,
0010
0000
0010
0000
0010
1000
0001
0000
0000
0011
0000
0000
,
1010
0000
0100
1000
0000
0001
0100
0000
0001
0010
0100
1000
,
0010
0000
0010
0000
0010
1000
0100
0000
0000
1000
0001
1000
,
0001
0000
0001
0010
0000
0000
0010
0000
0100
1000
0000
0000
,
1000
0000
1000
0001
0000
0000
0001
0000
0010
0100
0000
0000
,
0010
0001
0100
0010
1000
0100
0010
0001
0100
0010
1000
0100
,
0010
0001
0010
0001
0010
0001
1000
0000
1000
0001
0000
0000
,
0110
0000
0000
0110
0000
0000
0110
0000
0000
0100
1000
0100
,
0001
0000
0000
0001
0000
0010
0001
0000
1000
0100
0010
0100
,
1000
0000
0000
1100
0000
0000
0011
0000
1000
0001
0010
0100
,
0010
0000
0000
0001
0100
0001
2000
0000
3020
0000
2030
0000
,
3100
1000
0001
0100
0001
1000
0100
0000
0010
0001
1000
0010
,
0200
0000
0320
0000
1030
0001
0020
0000
0000
0031
0000
0000
,
1001
0000
0000
0110
0000
0010
1000
0000
1000
0001
1000
0100
,
0010
0000
0010
0000
0001
0100
1000
0000
0000
1100
0000
0000
,
0101
0000
0000
0000
1010
0000
0000
0000
0011
0000
0000
0000
1000
0100
0010
0100
,
2000
0000
0000
3002
0000
0000
1003
0010
0200
0000
0000
0000
0301
0000
0001
0010
,
0200
0000
0000
0000
1300
0000
0000
0000
1001
0000
1001
0000
1001
0000
0010
1000
,
0100
0000
0010
0001
0100
0000
0001
1000
0020
0000
0000
0230
0000
0000
0301
0000
,
1010
0000
0000
0000
0001
0100
0001
0000
1000
0000
1000
0000
1000
0010
0100
0001
,
0020
0000
0000
0230
0000
0000
0310
0001
1000
0000
0000
0000
1000
0000
0100
0000
,
0001
0000
0000
0001
0000
0000
0010
0000
0100
0000
0100
0000
1000
0010
1000
0001
,
0100
0000
0000
0100
0000
0000
0001
0010
0001
0000
0000
0000
1000
0010
1000
0010
,
0100
0000
0000
0101
0000
0000
1100
0000
0000
0000
0011
0000
0011
0000
1000
0001
,
0010
0000
0000
1001
0000
0000
0001
1000
0200
0000
0000
0000
0320
0000
0130
0000
,
1000
0100
1000
0100
0010
0001
0010
0001
1000
0010
1000
0010
0100
0001
0100
0001
,
0000
0210
0302
0023
0032
2003
3020
0130
,
0101
1100
0101
1100
,
0001
0100
0001
0010
0001
0100
0010
0000
2000
0000
0000
0000
3200
0000
0000
0000
,
0310
0000
0001
1000
0001
0000
1000
0001
1000
0000
0010
0100
0010
0000
0100
0000
,
0001
0000
0010
0100
1000
0000
1010
0000
2010
0000
3002
0000
0203
0000
0310
0000
,
0110
0000
0000
0000
1001
0000
0001
0010
0001
0000
1000
0100
1000
0000
0010
0000
,
0100
0000
0001
0010
0000
0010
0001
1000
0100
0000
0010
0001
1000
0001
1000
0001
,
0100
0000
0000
0000
1010
0000
0000
0000
0101
0000
0000
0000
1010
0000
0100
0001
,
0010
0000
0000
0000
1001
0000
0000
0000
1000
0100
0020
0000
0001
0000
0031
0000
,
0110
0000
0000
0000
0110
0000
0001
0100
0001
0000
1000
0010
1000
0100
0010
0001
,
0100
0010
1000
0000
1000
0000
1000
0100
0001
0000
0010
0000
0100
0000
0100
0000
,
2002
0000
0000
0000
,
0000
0000
0000
0000
,
0000
0000
0000
0000
,
0000
0000
0000
0000
,
0000
0000
0000
0000
,
3003
0000
0000
0000
;

//---------------dance-single - ----------------
#NOTEDATA:;
#CHARTNAME:;
#STEPSTYPE:dance-single;
#DESCRIPTION:;
#CHARTSTYLE:;
#DIFFICULTY:Medium;
#METER:13;
#RADARVALUES:0.602359,0.723457,0.511535,0.394613,0.599227,577.000000,507.000000,70.000000,54.000000,0.000000,0.000000,0.000000,0.000000,0.000000,0.602359,0.723457,0.511535,0.394613,0.599227,577.000000,507.000000,70.000000,54.000000,0.000000,0.000000,0.000000,0.000000,0.000000;
#CREDIT:;
#DISPLAYBPM:160.000000;
#NOTES:
0000
0000
0000
0000
,
0000
0000
0000
0000
,
0000
0000
0000
0000
,
0000
0000
0000
0000
,
0000
0000
0000
0000
,
1010
0202
0300
1000
,
0100
0000
0000
0100
0000
0000
0203
0000
0000
0301
1000
0001
,
2000
0000
0000
0010
0000
0000
3010
0000
0000
1000
0001
1000
,
0002
0000
0000
0103
0000
0000
0120
0000
0000
1030
0100
1000
,
0100
0000
0000
0100
0000
0100
0010
0000
0010
0001
1000
0001
,
2000
0000
0000
3010
0100
0001
0100
0000
0000
0101
0000
0000
,
1100
0000
0000
0001
0000
0001
1000
0000
1000
0010
0100
0010
,
0100
0000
0000
0001
1000
0001
1000
0000
0100
0000
0010
0000
,
0011
0000
0000
1000
0000
1000
0100
0000
0000
0100
0000
0100
,
0010
0000
0000
0010
0000
0010
0001
0000
0000
0001
0000
0001
,
1000
0000
1000
0001
0000
0001
1000
0000
1000
0001
0010
0100
,
2000
0000
0000
3001
0010
0001
0010
0000
0010
0100
0000
0000
,
0110
0000
0001
1000
0000
0000
1010
0000
0000
1010
0000
0000
,
1010
0000
0000
0001
0000
0010
0001
0000
1000
0100
0000
0000
,
1001
0000
0000
0001
0000
1000
0100
0000
0000
1000
0000
0001
,
1000
0000
1000
0010
0000
0010
0100
0000
0100
0001
0000
0000
,
0011
0000
0000
0001
0000
0100
0010
0000
0000
1000
0000
0001
,
1000
0000
1000
0010
0000
0010
0100
0000
0100
0001
0000
0000
,
0101
0000
0000
1100
0000
1000
0001
0000
0000
0100
0000
0100
,
0001
0000
0001
0010
0000
0010
0001
0000
1000
0000
0100
0000
,
0010
0000
0000
0010
0001
0010
0001
0000
1000
0100
1000
0100
,
1000
0000
0001
0000
1000
0001
1000
0000
0000
1000
0100
0010
,
0001
0011
1000
1010
,
0001
0000
0000
0101
0000
0000
1000
0000
0000
1100
0000
0010
,
0100
0000
0000
0110
0000
0000
0110
0000
0100
0010
0000
0100
,
0020
0000
0000
1030
0000
1000
0002
0000
0000
0103
0000
0000
,
1001
0000
0000
1000
0000
0001
0200
0000
0000
0320
0000
0000
,
2030
0000
0000
3100
0000
0010
0002
0000
0000
1003
0001
1000
,
0001
0000
0000
1000
0000
0010
0200
0000
0000
0302
0000
0000
,
0023
0000
0000
0031
0000
1000
0020
0000
0000
0130
0000
0000
,
0110
0000
0000
1000
0000
0001
0020
0000
0000
0230
0000
0000
,
0320
0000
0000
0031
1000
0001
2000
0000
0000
3100
0000
0000
,
1010
0000
1000
0010
0000
1000
0010
0000
1000
0001
1000
0001
,
1000
0000
0100
0000
0010
0001
0020
0000
0000
0130
0000
0000
,
1100
0000
0000
0202
0000
0000
0003
0000
0000
0310
0000
0010
,
2000
3001
2000
3100
,
0021
0100
0100
0130
,
0010
0001
0010
0001
0000
0001
1000
0000
1000
0100
0000
0000
,
1001
0000
0000
0110
0000
0000
1001
0000
0000
1000
0001
1000
,
0001
0000
0100
0000
0010
0100
0020
0000
0000
1030
0000
0000
,
1100
0000
0000
0101
0000
0000
1100
0000
0000
0010
0100
0010
,
0200
0000
0000
0301
0010
0001
1000
0000
1000
0000
1000
0000
,
1010
0000
0000
0011
0000
0000
1010
0000
0000
0100
1000
0100
,
1000
0000
0001
0000
0010
0001
0100
0000
0000
0100
0000
0000
,
0110
0000
0010
1000
0000
1000
0001
0000
0001
0100
0010
0100
,
0001
0000
0001
0000
0001
2000
0002
0000
0000
3003
0000
0000
,
0102
1003
2100
3001
,
0021
0031
1020
1030
,
0001
0000
0001
1000
0000
1000
0001
0000
0001
1000
0100
0010
,
0001
0000
0001
0100
0010
0100
0010
0000
0010
0100
0000
0000
,
0110
0000
0000
0110
0000
0000
0110
0000
0000
0001
1000
0010
,
0100
0000
0000
0001
0010
0100
1000
0000
0000
0101
0000
0000
,
1010
0000
0000
1010
0000
0000
1010
0000
0000
1000
0100
1000
,
0001
0000
0000
0001
0100
0010
1000
0000
0001
0000
1000
0000
,
1100
0000
0000
1100
0000
0000
1100
0000
0000
0010
0100
0001
,
2000
0000
0000
0000
3001
1000
0020
0000
0000
0130
0000
0000
,
0010
0000
1000
0001
0000
1000
0001
0000
0100
0010
0100
0010
,
1000
0000
0001
0000
1000
0001
0200
0000
0000
0310
0000
0000
,
0101
0000
0000
0000
1100
0000
0000
0000
1100
0000
0000
0000
0001
0000
1000
0100
,
1000
0000
0000
1000
0000
0000
1000
0001
2000
0000
0000
0000
3100
0000
0010
0001
,
0010
0000
0000
0000
1001
0000
0000
0000
1001
0000
0000
0000
0010
0000
0100
0001
,
0200
0000
0000
0000
0310
0000
1000
0000
0002
0000
0000
0203
0000
0000
0320
0000
,
0130
0000
0000
0000
0001
0000
0100
0000
1000
0000
0000
0000
1000
0000
0010
0100
,
0010
0000
0000
1000
0000
0000
0001
0010
0002
0000
0000
0000
0103
0000
0010
0000
,
2000
0000
0000
3001
1000
0000
0010
0000
0100
0000
0001
0000
0010
0000
0100
1000
,
0200
0000
0000
0320
0000
0000
0031
1000
0002
0000
0000
0000
0103
0000
0000
0000
,
0101
0000
0000
0101
0000
0000
0102
0000
0000
0000
1000
0000
1003
0000
0001
0010
,
0001
0000
0000
0100
0000
0000
0001
2000
0002
0000
0000
0000
3003
0000
0000
0000
,
0010
1000
0010
1000
0100
0010
0001
0100
,
0000
0001
1000
0001
1000
0001
1000
0001
,
0011
1100
0101
1010
,
1000
0100
0010
0001
1001
0000
0110
0000
,
0010
0000
1000
0001
1000
0000
0100
0010
,
0001
0000
0001
0100
0010
1000
0100
0000
,
0010
0000
0001
0100
0001
0000
1000
0100
,
1000
0010
1000
0001
0010
0100
1000
0000
,
0010
0000
0000
0000
1100
0000
0000
0000
0101
0000
0000
0000
1000
0000
0001
0100
,
0001
0000
0000
0000
0001
0000
0000
0000
0010
0100
0010
0000
0001
0000
1000
0000
,
0110
0000
0000
0000
1001
0000
0001
0000
0010
0000
0100
0000
1000
0001
1000
0001
,
1000
0000
0010
0000
0100
0000
0001
1000
0001
0000
0000
0000
0101
0000
0000
0000
,
2020
0000
0000
0000
,
0000
0000
0000
0000
,
0000
0000
0000
0000
,
0000
0000
0000
0000
,
0000
0000
0000
0000
,
3030
0000
0000
0000
;

//---------------dance-single - ----------------
#NOTEDATA:;
#CHARTNAME:;
#STEPSTYPE:dance-single;
#DESCRIPTION:;
#CHARTSTYLE:;
#DIFFICULTY:Easy;
#METER:7;
#RADARVALUES:0.382085,0.493266,0.453074,0.226537,0.000000,366.000000,304.000000,62.000000,31.000000,0.000000,0.000000,0.000000,0.000000,0.000000,0.382085,0.493266,0.453074,0.226537,0.000000,366.000000,304.000000,62.000000,31.000000,0.000000,0.000000,0.000000,0.000000,0.000000;
#CREDIT:;
#DISPLAYBPM:160.000000;
#NOTES:
0000
0000
0000
0000
,
0000
0000
0000
0000
,
0000
0000
0000
0000
,
0000
0000
0000
0000
,
0000
0000
0000
0000
,
2000
0002
0003
0001
,
0010
0100
0200
3300
,
0002
0010
0010
0010
,
2000
0003
0002
3003
,
1001
0001
0100
0010
,
1000
1000
0001
0001
,
0110
0010
1000
0100
,
1000
0010
0100
0001
,
1010
0001
0011
1000
,
1100
0001
0101
1000
,
0010
0010
0010
0010
,
1000
0001
1000
1000
,
1100
1100
1000
0001
,
1001
0010
0100
0100
,
0101
0101
1000
0001
,
1000
0010
0100
0001
,
0010
0011
0010
0100
,
1000
0010
0100
0001
,
0010
1000
0100
0001
,
1000
0001
0110
1001
,
0010
1010
1010
1010
,
0001
0100
1000
0101
,
0100
0101
0010
1010
,
1000
1100
0001
0011
,
1000
1000
1000
1000
,
0001
0100
0010
0100
,
0110
1000
2000
3002
,
0013
0010
0100
0100
,
1100
0001
0002
0203
,
0310
0010
0100
1001
,
1001
2000
3002
0013
,
0002
0103
0020
1030
,
0001
0010
0001
1000
,
0010
0010
1000
0100
,
0002
2000
0003
3200
,
2000
0300
0020
3000
,
0200
0000
0000
0330
,
0001
0001
1000
1000
,
1010
0100
0011
0100
,
0010
0010
0010
1000
,
0001
0001
0001
1000
,
0010
0100
0010
0010
,
0010
1000
0001
0100
,
1001
1001
1001
0100
,
0110
0110
0110
0001
,
1000
0010
1000
0000
,
1100
0001
1010
0001
,
0101
1000
0011
1000
,
1001
0110
1001
0110
,
1000
0100
0001
0001
,
0010
0010
0010
0001
,
0100
0010
2000
3002
,
0013
0001
0100
1000
,
0001
0100
0010
1000
,
0100
0100
0100
0100
,
2000
0000
3002
1003
,
1010
0010
1000
0001
,
0100
0100
0101
0010
,
1000
1000
1000
1000
,
0001
0001
0001
0000
,
0100
0010
0100
0010
,
1000
0100
0001
0001
,
0001
0011
1010
0100
,
0001
0001
0001
1000
,
0010
1000
0001
0001
,
0010
0001
0100
1000
,
1010
1010
1010
0100
,
1001
0110
2002
3003
,
0010
1000
0100
0001
,
0000
0021
0032
0203
,
0301
1000
1100
0101
,
0010
0010
0010
0110
,
1000
0100
0001
0010
,
0001
0100
0100
0000
,
0001
0010
1000
0100
,
1000
0001
0001
0000
,
0010
1100
1100
1100
,
1100
0001
0100
0100
,
0011
0001
0010
1000
,
0100
0100
0100
0010
,
0220
0000
0000
0000
,
0000
0000
0000
0000
,
0000
0000
0000
0000
,
0000
0000
0000
0000
,
0000
0000
0000
0000
,
0330
0000
0000
0000
;

//---------------dance-single - ----------------
#NOTEDATA:;
#CHARTNAME:;
#STEPSTYPE:dance-single;
#DESCRIPTION:;
#CHARTSTYLE:;
#DIFFICULTY:Beginner;
#METER:5;
#RADARVALUES:0.223405,0.279517,0.204614,0.058461,0.000000,214.000000,186.000000,28.000000,8.000000,0.000000,0.000000,0.000000,0.000000,0.000000,0.223405,0.279517,0.204614,0.058461,0.000000,214.000000,186.000000,28.000000,8.000000,0.000000,0.000000,0.000000,0.000000,0.000000;
#CREDIT:;
#DISPLAYBPM:160.000000;
#NOTES:
// measure 0
0000
0000
0000
0000
,  // measure 1
0000
0000
0000
0000
,  // measure 2
0000
0000
0000
0000
,  // measure 3
0000
0000
0000
0000
,  // measure 4
0000
0000
0000
0000
,  // measure 5
1000
2000
3000
0000
,  // measure 6
0010
0010
0010
0000
,  // measure 7
0200
0000
0300
0000
,  // measure 8
0001
0000
1000
0000
,  // measure 9
1001
0000
0100
0000
,  // measure 10
0001
0000
0001
0000
,  // measure 11
0110
0000
0010
0000
,  // measure 12
1000
0000
0100
0000
,  // measure 13
1000
0000
1001
0000
,  // measure 14
0001
0000
1001
0000
,  // measure 15
0100
0000
0010
0000
,  // measure 16
0110
0000
0000
0000
,  // measure 17
0001
0001
0001
0001
,  // measure 18
0002
0000
0003
0000
,  // measure 19
0100
0100
0000
0000
,  // measure 20
0010
0000
1000
1000
,  // measure 21
0000
0110
0000
0000
,  // measure 22
0001
0000
0100
0000
,  // measure 23
1000
1000
1000
0000
,  // measure 24
0010
0000
0100
0100
,  // measure 25
0000
0001
0001
0000
,  // measure 26
0010
0000
0001
0000
,  // measure 27
0100
0000
0110
0000
,  // measure 28
0010
0000
0110
0000
,  // measure 29
1000
1000
1000
0000
,  // measure 30
0001
0000
0100
0000
,  // measure 31
1001
0000
0010
0000
,  // measure 32
0000
0000
0010
0000
,  // measure 33
1001
0000
0100
0000
,  // measure 34
0000
0000
0100
0000
,  // measure 35
0110
0000
0001
0000
,  // measure 36
0000
0000
1000
0000
,  // measure 37
0010
0000
0010
0000
,  // measure 38
1000
0000
1001
0000
,  // measure 39
0001
0002
0003
0000
,  // measure 40
0100
0000
0010
0000
,  // measure 41
2000
0000
3000
0000
,  // measure 42
0001
0001
0001
0000
,  // measure 43
0100
0000
0100
0000
,  // measure 44
0100
0000
0100
0000
,  // measure 45
0010
0000
0010
0000
,  // measure 46
0010
0000
0010
0000
,  // measure 47
1000
1000
1000
0000
,  // measure 48
0001
0000
0010
0000
,  // measure 49
0001
0001
0001
0000
,  // measure 50
0100
0000
0010
0000
,  // measure 51
1001
0000
1001
0000
,  // measure 52
0110
0000
0110
0000
,  // measure 53
1000
1000
1000
1000
,  // measure 54
2000
0000
3000
0000
,  // measure 55
0001
0000
1001
0000
,  // measure 56
1001
0000
0010
0000
,  // measure 57
0100
0000
0100
0000
,  // measure 58
0110
0000
0110
0000
,  // measure 59
1000
1000
1000
0000
,  // measure 60
0100
0100
0100
0000
,  // measure 61
0110
0000
1001
0000
,  // measure 62
0100
0100
0100
0000
,  // measure 63
0110
0000
1001
0000
,  // measure 64
0001
0001
0001
0000
,  // measure 65
0010
0010
0010
0010
,  // measure 66
0010
0010
0010
0000
,  // measure 67
0001
0000
0100
0000
,  // measure 68
1000
1000
1000
0000
,  // measure 69
0010
0010
0010
0010
,  // measure 70
0010
0010
0010
0000
,  // measure 71
2002
0000
3003
0000
,  // measure 72
0010
0000
0100
0000
,  // measure 73
0001
0001
0001
0001
,  // measure 74
0000
1000
1000
0000
,  // measure 75
0010
0010
0010
0010
,  // measure 76
0010
0000
0110
0000
,  // measure 77
0001
0001
0001
0000
,  // measure 78
0100
0100
0100
0000
,  // measure 79
1000
1000
1000
1000
,  // measure 80
1000
1000
1000
0000
,  // measure 81
0110
0000
0010
0010
,  // measure 82
0010
0010
0010
0000
,  // measure 83
1000
0000
0001
0000
,  // measure 84
0100
0100
0100
0000
,  // measure 85
1001
0000
0000
0000
;
