#TITLE:Macuilxochitl;
#ARTIST:TOMOSUKE;
#BANNER:Macuilxochitl-bn.png;
#BACKGROUND:Macuilxochitl-bg.png;
#JACKET:Macuilxochitl-jacket.png;
#MUSIC:Macuilxochitl.ogg;
#SAMPLESTART:19.764;
#SAMPLELENGTH:20;
#DISPLAYBPM:148;
#BPMS:0=148;
#BGCHANGES:;

//---------------dance-single - ----------------
#NOTES:
     dance-single:
     :
     Beginner:
     4:
     :
0000
0000
0000
0000
,
0000
0000
0000
0000
,
0000
0000
0000
0000
,
0000
0000
0000
0000
,
0000
0000
0000
0000
,
1001
0000
0001
0000
,
0110
0000
1000
0000
,
0100
0100
0000
1000
,
0000
0001
0000
0100
,
0100
0000
0010
0000
,
1000
1000
1000
1000
,
0000
1001
0000
0110
,
0000
0000
1000
1000
,
0000
0001
0001
0000
,
0010
0000
0100
0000
,
1000
0000
0001
0000
,
0010
0010
0010
0000
,
0001
0000
0100
0000
,
1000
0000
0001
0000
,
0001
0000
0001
0000
,
1000
0000
0010
0010
,
0000
0100
0100
0000
,
0001
0000
1000
1000
,
1000
0000
0000
0001
,
0001
0000
1001
0000
,
0010
0000
1001
0000
,
0100
0000
0110
0000
,
0001
0000
0110
0000
,
1000
0000
0001
0001
,
0001
0000
0010
0000
,
0100
0000
1000
1000
,
1000
0000
0010
0000
,
1001
0000
0110
0000
,
0001
0000
0100
0000
,
0010
0010
0010
0000
,
1000
0000
0100
0000
,
0010
0010
0010
0000
,
0001
0000
1000
0000
,
0010
0010
0010
0000
,
1001
0000
0000
0000
,
0110
0000
0000
0000
,
1001
0000
0000
0000
,
0110
0000
0000
0000
,
1000
1000
1000
0000
,
0001
0001
0001
0000
,
0000
0010
0000
0001
,
0000
0100
0000
0100
,
0000
0010
0000
1000
,
0000
0100
0000
0010
,
0000
0001
0000
1000
,
0000
0001
0000
0001
,
0000
0010
0000
0100
,
0000
1000
0000
0001
,
0000
0100
0100
0100
,
0000
0001
0000
1000
,
0000
0010
0010
0010
,
0000
1000
0000
0001
,
0000
1000
1000
1000
,
0000
0010
0000
0100
,
0000
0001
0001
0001
,
0000
0100
0000
0010
,
0000
1001
0000
0110
,
0000
0001
0000
0000
;

//---------------dance-single - ----------------
#NOTES:
     dance-single:
     :
     Easy:
     8:
     :
0000
0000
0000
0000
,
0000
0000
0000
0000
,
0000
0000
0000
0000
,
0000
0000
0000
0000
,
0000
0000
0000
0000
,
1001
0000
1000
0001
,
0110
0100
0001
1000
,
1001
1001
0010
0100
,
0001
1000
0000
0110
,
0001
0100
1000
0010
,
0001
0000
0000
0000
0100
0000
0000
0002
0000
0000
2000
0000
0000
0000
0000
0000
,
3003
0010
0010
0110
,
0000
0000
1001
0100
,
1000
0010
0100
0001
,
0010
1000
0100
0010
,
0001
0100
0001
0010
,
1000
0100
0010
1000
,
0100
0010
0001
0100
,
0001
1000
1100
0010
,
0101
0010
1000
0001
,
1000
0010
0100
0101
,
1000
0001
0010
0100
,
1000
0000
0010
0000
0100
0001
0100
0001
,
0100
0001
0000
0000
0000
1000
0010
1000
,
0010
1000
0000
0000
1001
0000
0010
0000
,
1000
0100
0110
0010
,
0001
0100
0101
0001
,
1000
0100
1100
0010
,
0100
0001
0010
0010
,
0001
0100
1000
1000
,
0010
0001
0100
0010
,
1000
0001
0010
0100
,
0010
0000
0000
0010
0000
0000
0000
0000
0001
0000
0000
0001
0000
0000
0000
0000
,
1001
0100
0001
1000
,
0010
0010
1000
0100
,
0110
0001
0100
0100
,
0010
1000
0100
0001
,
0010
0001
0101
0101
,
1000
0010
0100
0001
,
1000
1000
0010
0000
0010
0000
0010
0000
,
0100
0100
0001
0000
0001
0000
0001
0000
,
0001
0001
1000
0000
1000
0000
1000
0000
,
0010
0010
0100
0000
0100
0000
0100
0000
,
0101
1100
0101
1100
,
0010
0000
0000
0100
0000
0000
0001
0000
0000
1000
0000
0000
0000
0000
0000
0000
,
0000
1001
0010
0001
,
0100
2000
3010
2000
,
3001
0010
0010
0001
,
0100
0020
1030
0020
,
0130
0110
0001
0100
,
1000
0020
0130
0002
,
1003
0100
0100
0010
,
0100
2000
3001
0200
,
0310
0000
1000
0100
1000
0100
1000
0100
,
0000
0010
0010
0001
,
1000
0000
0001
0100
0001
0100
0001
0100
,
0000
0010
0010
1000
,
0100
0000
1000
0010
1000
0010
1000
0010
,
0000
0100
0100
0001
,
1000
0000
0001
0010
0001
0010
0001
0010
,
0000
0100
0100
1000
,
0001
0000
1001
1001
0000
0000
0001
1000
,
0100
1000
0001
0000
0000
0000
0000
0000
;

//---------------dance-single - ----------------
#NOTES:
     dance-single:
     :
     Medium:
     12:
     :
0000
0000
0000
0000
,
0000
0000
0000
0000
,
0000
0000
0000
0000
,
0000
0000
0000
0000
,
0000
0000
0000
0000
,
0110
0000
0010
0100
0001
0100
0010
1000
,
1001
0000
1000
0100
1000
0001
0010
0100
,
1000
0001
0000
0000
1001
0000
0000
0000
0010
0000
0100
0000
0101
0000
0000
0000
,
1100
0000
0000
0000
0101
0000
0000
0000
0000
1000
0000
0001
0000
2000
0000
0000
,
3010
0000
0010
0000
0000
0000
0000
1000
0001
0000
0010
0000
0100
0000
1000
0000
,
0010
0000
0100
0000
0010
0000
1000
0001
0000
0002
2000
0000
0000
0000
0000
0000
,
3003
0000
0000
0000
1010
0000
0000
0000
0101
0000
0000
0000
0010
0001
0000
0000
,
0000
0000
0000
0100
0000
0100
0000
0001
1000
0000
0000
0000
0110
0000
0000
0000
,
0001
0000
0000
0000
0100
0010
0100
0000
0001
0000
0000
0000
0010
0000
0100
0000
,
1000
0000
0010
0000
1000
0000
0001
0000
0100
0000
0000
0100
0000
0000
0001
0000
,
1000
0010
1000
0001
0010
0100
1000
0010
,
1000
0001
0100
0010
1000
0000
0001
0100
,
0001
1000
0001
0100
0010
0000
0100
0001
,
0010
0000
0001
0000
1000
0000
0100
0000
1000
0000
0000
1010
0000
0000
0001
0000
,
1000
0000
0100
0000
1000
0001
0000
0100
0000
0000
0010
0000
0010
0000
0000
0000
,
1000
0000
0000
0100
0000
0000
1000
0000
0001
0000
0100
0000
0202
0000
0000
0000
,
0300
0000
1000
0000
1003
0000
0001
0000
0100
0010
0000
0100
0000
0000
0001
0000
,
1000
0000
0100
0000
1000
0000
0001
0000
0100
0010
0000
0100
0000
0100
0000
0100
,
0000
0000
1001
0000
0000
0000
0000
0000
0000
1000
0000
0001
0000
1000
0000
0001
,
0000
1001
0000
0000
0010
0100
0001
0100
,
0010
1000
0100
0000
1000
0010
1000
0001
,
0010
0100
1000
0000
0001
0100
0001
0010
,
0100
1000
0001
0000
1000
0010
0100
1000
,
0100
0001
0010
0000
0000
0001
1000
0001
,
0010
0100
1000
0001
0100
0000
0100
0010
,
1000
0010
0100
0001
1000
0100
0010
0001
,
0100
0000
0001
0000
0010
0000
0000
0000
0001
0000
0000
1000
0000
0000
0001
0000
,
1001
0000
0000
0110
0000
0000
0000
0000
1000
0001
0000
1000
0000
0100
0000
1100
,
0000
0000
0000
0000
0001
0000
1000
0000
0010
0000
0000
0100
0000
0100
0001
0000
,
0010
0100
1000
0010
1000
0001
1000
0100
,
0010
0000
0000
0000
0001
0000
1000
0000
0100
0000
0000
0010
0000
0010
0001
0000
,
0100
0010
1000
0001
1000
0100
0010
0001
,
0100
0000
0000
0000
0010
0000
1000
0000
0001
0000
0000
1000
0000
1000
0100
0000
,
0010
0001
1000
0001
0100
0010
1000
0001
,
1100
1100
0001
0100
0000
0010
1000
0010
,
1010
1010
1000
0100
0000
1000
0010
0001
,
0101
0101
0001
1000
0000
0100
0010
0001
,
0011
0011
0100
0001
0000
0001
1000
0010
,
2000
0000
0000
3002
0000
0000
2003
0000
0000
3200
0000
0000
0310
0001
0000
0000
,
0200
0000
0000
0320
0000
0000
2030
0000
0000
3002
0000
0000
0003
0000
0010
0000
,
0100
0000
1000
0000
0002
0000
0000
0000
0003
0000
0100
0010
0100
0000
0001
0000
,
1000
0000
0100
0000
2000
0000
0000
0000
3000
0000
0001
0100
0002
0000
0000
0000
,
0003
0000
0000
0000
0020
0000
0000
0000
0030
0001
1000
0001
2000
0000
0000
0000
,
3200
0000
0320
0000
0031
0000
0100
0010
,
1000
0000
0001
0000
2000
0000
0000
0000
3000
0000
0010
1000
0010
0000
0100
0000
,
0001
0000
0010
0000
0002
0000
0000
0000
0003
0000
0100
0001
0200
0000
0000
0000
,
0300
0000
0000
0000
0020
0000
0000
0000
0030
1000
0001
1000
0002
0000
0000
0000
,
0203
0000
0320
1000
1030
0000
0200
0010
,
0310
0000
0001
0100
0010
1000
0100
0010
,
0001
0000
0000
0000
1000
0000
0000
0001
0000
0000
1000
0000
0010
0000
0000
0100
,
0000
0001
1000
0100
1000
0010
0100
0001
,
1000
0000
0000
0000
0100
0000
0000
0010
0000
0000
0100
0000
1000
0000
0000
0001
,
0000
0100
0010
0001
0010
1000
0100
0010
,
0001
0000
0000
0000
0100
0000
0000
0001
0000
0000
1000
0000
0100
0000
0000
0010
,
0000
0001
1000
0001
0010
1000
0010
0001
,
0100
0000
0000
0000
0010
0000
0000
1000
0000
0000
0001
0000
1000
0000
0000
0100
,
0000
0010
1001
1001
0000
0010
1000
0001
,
1000
0100
0001
0000
0000
0000
0000
0000
;

//---------------dance-single - ----------------
#NOTES:
     dance-single:
     :
     Hard:
     15:
     :
0000
0000
0000
0000
,
0000
0000
0000
0000
,
0000
0000
0000
0000
,
0000
0000
0000
0000
,
0000
0000
0000
0000
,
1010
0000
0000
0000
0000
0010
0100
0010
1000
0100
1000
0000
0001
0100
0001
0000
,
0011
0000
0000
0001
0100
0000
0010
0000
1000
0000
0100
1000
0000
1000
0001
0000
,
0100
0010
0000
0000
1001
0000
0010
1000
0000
0100
1000
0001
1000
0000
0000
0010
,
0100
0000
0000
0001
1000
0000
0000
0100
0010
0001
0000
0101
0000
0101
0000
0000
,
1100
0000
1100
0000
0001
0000
0100
0010
1000
0000
0100
0010
0001
0000
0100
0001
,
1000
0010
1000
0010
0100
0001
0100
0001
0000
0002
2000
0000
0000
0000
0000
0000
,
3003
0000
0000
0000
0110
0000
0000
0000
1000
0001
1000
0100
0010
0001
0000
0000
,
0000
0000
0000
0100
0000
0100
0000
0001
1000
0000
0010
0000
0100
0000
1000
0000
,
0100
0000
0001
0010
0000
0100
1000
0000
0010
0000
0100
0000
1000
0000
0100
0001
,
0100
0000
0010
0000
1000
0100
1000
0100
0010
0000
0000
0001
0000
0000
0100
0010
,
0000
0010
1000
0001
0000
0001
0100
0000
0010
1000
0010
1000
0000
0100
0000
0010
,
0000
0001
0000
0100
0000
0100
0000
0100
0000
0000
0001
0010
0000
0100
0000
1000
,
0000
0001
0000
1000
0000
0010
0000
0000
0100
0001
0100
0001
0000
0010
0000
0100
,
0000
1000
0000
0001
0000
1000
0000
0000
0010
0100
0010
0100
0000
0000
0001
1000
,
0001
1000
0000
0000
0010
0100
0001
1000
0000
0000
0100
0000
0100
0000
0010
0001
,
1000
0000
0010
0100
0000
0010
0100
0000
0001
0010
0100
0010
0001
0000
0000
0000
,
0000
1000
0000
0010
1000
0001
0000
0100
0000
0110
0000
0110
0000
0010
0000
1000
,
0001
0100
0001
1000
0100
0000
0010
0000
0001
1000
0000
1010
0000
1010
0000
1010
,
0000
0000
1001
0000
0010
0100
0000
0000
0000
0101
0000
1100
0000
0101
0000
1100
,
0000
0000
1001
0000
0000
0000
0000
0000
0010
0100
0010
1000
0000
1000
0001
0000
,
0010
0100
1000
0000
0000
0100
1000
0000
0000
0000
0001
0010
0000
0001
1000
0000
,
0010
0100
0000
0010
1000
0010
0000
0000
0100
0001
1000
0001
0000
0010
0100
0000
,
1000
0001
0100
0000
0000
0001
0100
0000
0000
0000
0010
1000
0000
0100
1000
0000
,
0100
0010
0000
0001
1000
0001
0000
0000
0000
0010
0001
1000
0001
0010
0100
1000
,
0001
0010
0000
0011
0000
0011
0000
0001
1000
0001
0000
1000
0010
0100
0000
0001
,
1000
0100
1000
0001
1000
0100
0000
0000
0010
0001
0010
0001
0000
1000
0001
0000
,
0100
0010
1000
0010
0100
0001
0000
0000
1000
0010
0100
0001
0000
0001
1000
0000
,
1100
0000
0000
0011
0000
0001
0100
0000
0010
0100
0000
0110
0000
1001
0000
0110
,
0000
0000
0000
0001
1000
0100
1000
0001
0200
0010
0000
0010
0000
0310
1000
0010
,
1000
0100
1000
0100
0010
0001
0000
0100
0000
0000
0000
0001
1000
0001
1000
0001
,
0010
0100
0010
0100
0000
1000
0010
0100
0002
0000
0000
1000
0000
1003
0100
0000
,
0000
0010
0001
1000
0000
1000
0000
0000
0001
0010
0100
1000
0100
0010
0001
0000
,
0100
0001
0100
0001
0000
1000
0100
1000
0020
0000
0000
0100
0000
0130
0001
0000
,
1000
0100
0010
0001
0000
0001
0000
0000
0100
0010
0000
0100
0010
1000
0001
1000
,
0100
0000
1100
0000
0010
0100
0010
0000
0100
0010
0100
0000
0010
0100
0010
0000
,
1000
0000
0101
0000
0001
1000
0001
0000
1000
0001
1000
0000
0001
1000
0001
0000
,
0010
0000
0011
0000
0100
0010
0100
0000
0010
0100
0010
0000
0100
0010
0100
0000
,
0001
0000
1010
0000
1000
0001
1000
0000
0001
1000
0001
0000
1000
0001
1000
0000
,
1100
0000
0000
0110
0000
0000
0011
0000
0000
0101
0000
0000
1000
0001
0000
0000
,
0011
0000
0000
1001
0000
0000
1010
0000
0000
0101
0000
0000
0000
1000
0001
1000
,
0010
0100
0001
1000
0100
0000
0010
0000
0001
0000
0100
0010
1000
0000
0100
0000
,
1000
0000
0001
0000
0010
0000
0100
0000
1000
0000
0010
0100
0010
0000
1000
0000
,
0001
0000
0100
0000
0010
0000
1000
0100
0000
1000
0001
1000
0010
0000
0100
0000
,
1000
0100
0001
0010
1000
0010
0100
1000
,
0001
0000
0001
0000
0001
0000
0100
0000
0010
0000
1000
0001
1000
0000
0100
0000
,
0010
0000
1000
0000
0010
0000
0001
0100
0000
0010
1000
0001
1000
0100
0000
1000
,
0000
0001
0100
0000
0010
0000
1000
0001
0000
1000
0001
0010
0100
0000
1000
0000
,
0001
0000
1000
0000
0010
0000
0100
0000
0010
0000
1000
0000
0100
0010
0000
0001
,
0000
0001
1000
0000
0010
0100
0010
0100
0000
0101
0000
0102
0000
0000
1000
0000
,
1003
0000
0000
0000
0010
0100
0000
0010
0000
1000
0001
0000
0010
0000
0000
0100
,
1000
0001
1000
0000
0100
0010
0100
0010
0000
0011
0000
0021
0000
0000
0001
0000
,
0031
0000
0000
0000
1000
0001
1000
0010
0000
0100
0001
0000
1000
0000
0000
1000
,
0100
1000
0001
0000
1000
0001
1000
0001
0000
1100
0000
2100
0000
0000
0010
0000
,
3010
0000
0000
0000
0100
0001
0010
0001
0000
1000
0100
0000
0100
0000
0000
0010
,
0001
1000
0000
0000
0001
1000
0001
1000
0000
1010
0000
2010
0000
0000
0100
0000
,
3100
0000
0000
0000
1000
0001
0010
0100
0000
0010
0100
0000
1000
0000
0000
0010
,
0100
0001
1000
0000
0110
0000
1001
0000
0000
0010
0001
1000
0100
0010
0100
1000
,
0010
1000
0100
0010
0001
0000
0000
0000
0000
0000
0000
0000
0000
0000
0000
0000
;

//---------------dance-single - ----------------
#NOTES:
     dance-single:
     :
     Challenge:
     17:
     :
0000
0000
0000
0000
,
0000
0000
0000
0000
,
0000
0000
0000
0000
,
0000
0000
0000
0000
,
0000
0000
0000
0000
,
1010
0000
0000
0000
0000
0001
0010
0100
1000
0010
1000
0001
0010
0100
1000
0001
,
0100
0000
0000
0010
1000
0000
1100
0000
0001
1000
0001
0010
0000
0001
0100
0010
,
1000
0001
0000
0001
1000
0001
0010
0100
0000
0100
1000
0010
0100
0001
0100
0001
,
0010
0100
0010
0100
1000
0001
0000
0000
0010
0100
0000
1001
0000
0110
0000
0000
,
1100
0000
1100
0000
0001
0000
0010
0100
1000
0010
1000
0001
0010
0100
1000
0001
,
0100
0010
0100
0001
0010
0100
1000
0001
0000
0002
2000
0000
0000
0000
0000
0000
,
3003
0000
0000
0010
0100
0000
0000
0010
1000
0001
1000
0100
0010
0001
0000
0000
,
0000
0000
0000
0100
0000
0100
0000
0001
1000
0000
0100
0000
0001
0000
0100
0000
,
0010
0000
0100
1000
0000
1000
0001
0000
0100
0000
0010
0000
0001
0000
0010
1000
,
0100
1000
0001
1000
0010
0100
0010
0001
0010
0000
1000
0100
0000
1000
0001
1000
,
0010
0100
0010
1000
0100
0010
0001
0100
0001
0010
0100
1000
0000
0010
0100
0010
,
0000
1000
0001
1000
0000
0100
0010
0001
0100
0010
1000
0010
0000
1010
0000
1001
,
0000
0011
0000
0110
0000
0100
1000
0000
0010
0100
0001
0100
0000
0010
1000
0001
,
0010
0100
0010
0001
0100
0010
1000
0000
0001
0100
1000
0100
0000
0000
0001
0100
,
1000
0100
0001
0100
0010
1000
0001
0100
0010
0100
0001
0000
0001
0000
0010
0100
,
1000
0000
0010
1000
0000
0001
1000
0000
0100
0010
0001
0100
1000
0000
0000
0000
,
0010
1000
0000
0001
0010
1000
0010
0100
1000
0001
0000
0010
0000
0001
0000
0100
,
0010
1000
0010
1000
0001
0000
0100
0000
0010
1000
0000
1100
0000
0101
0000
0011
,
0000
0000
1001
0000
0100
0010
0000
0000
0000
1010
0000
0101
0000
1100
0000
0011
,
0000
0000
1001
0000
0000
0000
0000
0000
1000
0010
0100
0010
1000
0100
0010
0100
,
1000
0001
0010
0000
0001
1000
0010
0000
0100
0001
0010
0001
0010
0001
0100
0001
,
1000
0010
0100
0001
0010
0100
1000
0000
0010
1000
0001
1000
0100
1000
0001
1000
,
0010
0100
0001
0000
0010
0100
1000
0000
0001
0100
0001
0010
0001
0010
0001
0100
,
0001
0010
0100
1000
0100
0010
0001
0000
0100
0010
1000
0001
0010
0001
0100
0010
,
1000
0100
0000
1001
0000
0110
0000
0010
1000
0001
0000
0010
0001
1000
0000
0100
,
1000
0010
0001
0010
1000
0100
0000
0100
1000
0001
0010
0100
0000
0100
1000
0010
,
0001
0010
1000
0100
1000
0001
0000
0010
0001
0100
0001
1000
0000
0010
1000
0100
,
0010
0000
0001
1000
0000
0010
0100
0000
0001
1000
0000
0011
0000
0101
0000
1001
,
0000
0000
0000
0010
1000
0100
1000
0001
0010
0100
0000
1000
0000
0001
1000
0010
,
1000
0100
0010
0001
1000
0010
1000
0100
0000
0000
0000
0010
0001
1000
0001
0010
,
0100
1000
0010
1000
0100
0010
0001
1000
0010
0000
0000
0100
0000
0010
1000
0000
,
0001
0010
0001
1000
0000
0110
0000
0000
0010
1000
0001
0010
0000
0010
0100
0000
,
1000
0010
0100
0001
0000
0010
0001
0100
0010
1000
0000
1000
0000
0001
0100
0000
,
0001
0010
0100
1000
0000
1010
0000
0000
0001
0100
0000
0010
1000
0001
1000
0001
,
0010
0000
1100
0000
0001
0100
0001
0100
0010
0100
0010
0100
0001
0010
0100
1000
,
0001
0000
1010
0000
0100
1000
0100
1000
0001
1000
0001
1000
0100
0010
0001
0100
,
0010
0000
0101
0000
1000
0001
1000
0100
0010
0001
0100
0001
0010
0100
1000
0001
,
0100
0000
0011
0000
0100
0001
0010
0001
0100
0010
1000
0001
1000
0100
1000
0100
,
0010
0001
0010
0100
1000
0010
1000
0001
0100
0010
0000
1000
0001
0100
0001
0000
,
0010
0100
1000
0010
1000
0100
0010
0001
0100
0010
1000
0000
0000
0001
1000
0010
,
1000
0001
0010
0100
1000
0000
0010
0000
0100
1000
0100
0001
0010
0000
0100
0000
,
0010
0000
0001
0000
0100
0000
0010
1000
0000
1000
0100
1000
0001
0010
0000
0010
,
0000
0001
0100
0000
0010
1000
0100
0010
0000
0001
1000
0001
0100
0000
0010
0100
,
0001
0000
1000
0100
1000
0000
0010
0000
0100
0000
0001
0000
0010
0000
0100
0000
,
1000
0000
0001
0000
0100
0000
0010
0000
0001
0000
0010
1000
0100
0000
0001
0000
,
0100
0000
1000
0000
0010
0000
0100
0001
0000
0001
0010
0100
1000
0010
0000
0010
,
0000
0100
0001
0000
1000
0100
0010
0001
0000
0100
0010
1000
0001
0000
0010
0000
,
0100
0000
0001
0000
0100
0000
0010
0000
0001
0000
0100
0000
1000
0000
0010
0100
,
0000
0001
1000
0000
0100
0010
0100
1000
0000
1100
0000
0012
0000
0000
0100
0000
,
1003
0000
0001
0000
0010
0001
0010
0100
0000
1000
0001
0000
0100
0010
1000
0001
,
0000
1000
0100
0010
0001
1000
0001
0100
0000
0101
0000
2010
0000
0000
0001
0000
,
3100
0000
1000
0000
0010
1000
0010
0100
0000
0100
0001
0000
0010
0100
1000
0001
,
0000
1000
0100
0000
0010
0001
1000
0001
0000
1001
0000
0120
0000
0000
1000
0000
,
0130
0000
0010
0000
1000
0001
0000
0010
0000
0001
0100
0000
0010
0000
1000
0100
,
0000
1000
0001
0000
0010
0100
0010
0001
0000
1001
0000
0201
0000
0000
1000
0000
,
0301
0000
0100
0000
0010
1000
0000
0001
0000
1000
0100
0000
0010
0000
0001
0100
,
0000
0100
0010
0000
1001
0000
0110
0000
0000
0010
1000
0001
0010
0100
1000
0001
,
0100
0010
1000
0100
0001
0000
0000
0000
0000
0000
0000
0000
0000
0000
0000
0000
;
