#TITLE:MY GIFTS;
#ARTIST:D-crew;
#BANNER:MY GIFTS-bn.png;
#BACKGROUND:MY GIFTS-bg.png;
#JACKET:MY GIFTS-jacket.png;
#MUSIC:MY GIFTS.ogg;
#SAMPLESTART:33.816;
#SAMPLELENGTH:20;
#DISPLAYBPM:185;
#BPMS:0=185;
#BGCHANGES:;

//---------------dance-single - ----------------
#NOTES:
     dance-single:
     :
     Beginner:
     5:
     :
0000
0000
0000
0000
,
0000
0000
0000
0000
,
0000
0000
0000
0000
,
0000
0000
0000
0000
,
0002
0000
0000
0000
,
0003
0000
1000
0000
,
0010
0000
1000
0000
,
0010
0000
0100
0000
,
0020
0000
0000
0000
,
0030
0000
1000
1000
,
1000
0000
0001
0000
,
0100
0000
0010
0000
,
0200
0000
0000
0000
,
0300
0000
0001
0001
,
0001
0000
0010
0000
,
0001
0000
1000
1000
,
1000
0000
0010
0000
,
1001
0000
0100
0000
,
0001
0000
0110
0000
,
0000
0000
0010
0010
,
0010
0000
0001
0000
,
0100
0000
0001
0000
,
1000
0000
0010
0000
,
1000
0000
0100
0000
,
1000
1000
1000
1000
,
1000
1000
1000
0000
,
0002
0000
0000
0000
,
0003
0000
1000
0000
,
1000
0000
0100
0000
,
0010
0000
0100
0000
,
0020
0000
0030
0000
,
0001
0000
1000
0000
,
0002
0000
0003
0000
,
2000
0000
3000
0000
,
0200
0000
0300
0000
,
0100
0000
1000
0000
,
0010
0000
0100
0000
,
0010
0000
0100
0000
,
0001
0000
0010
0010
,
0010
0000
0001
0001
,
0001
0000
1000
0000
,
1001
0000
0000
0000
,
0010
0000
0100
0000
,
0010
0000
0100
0100
,
0100
0000
0110
0000
,
1000
1000
0000
0001
,
0002
0000
0000
0000
,
0003
0000
0100
0100
,
0100
0000
0010
0000
,
1000
1000
1000
0000
,
0001
0001
0001
0000
,
0010
0000
0100
0000
,
0010
0000
0100
0000
,
0010
0010
0010
0010
,
0020
0000
0030
0000
,
0001
0000
0100
0100
,
0100
0000
1000
0000
,
0010
0010
0010
0000
,
1001
0000
0001
0000
,
0100
0000
1000
0000
,
0010
0000
0110
0000
,
0100
0000
0010
0000
,
1000
1000
1000
1000
,
1000
1000
1000
0000
,
1001
0000
0000
0000
,
0000
0000
0000
0000
,
0000
0000
0000
0000
,
0000
0000
0000
0000
,
0000
0000
0000
0000
,
0000
0000
0000
0000
,
0010
0010
0010
0010
,
0010
0010
0010
0010
,
0020
0000
0030
0000
,
1000
0000
0001
0000
,
0100
0000
0110
0000
,
0001
0000
0010
0000
,
0010
0000
0001
0001
,
0001
0000
1000
1000
,
1000
0000
0100
0000
,
2000
0000
3000
0000
,
0010
0000
1000
0000
,
0100
0000
0001
0000
,
0100
0000
0010
0000
,
1000
1000
1000
1000
;

//---------------dance-single - ----------------
#NOTES:
     dance-single:
     :
     Easy:
     8:
     :
0000
0000
0000
0000
,
0000
0000
0000
0000
,
0000
0000
0000
0000
,
0000
0000
0000
0000
,
0001
0010
1000
0001
,
0100
0000
1001
0100
,
1010
0000
0001
0100
,
1000
0010
0100
0001
,
0010
0001
0100
0001
,
0010
1000
0001
0100
,
0001
0010
0100
1000
,
0010
1000
0100
0001
,
0011
0001
0010
0100
,
1000
0010
1000
0100
,
1100
0001
0100
1000
,
0010
0100
0010
0010
,
1000
0100
1000
0001
,
0001
0010
0001
1000
,
0010
0100
0010
0100
,
0010
1000
0100
1000
,
0101
0010
1000
0100
,
0110
0001
0100
0100
,
0010
1000
0010
1000
,
0001
0100
0001
0100
,
0101
0110
1010
1000
,
1100
1001
0011
0100
,
1010
0001
0100
1000
,
0010
0100
0101
0010
,
1000
0100
1000
0001
,
0010
0001
0010
1000
,
0100
0010
0100
0010
,
0001
0100
0010
1000
,
0100
1000
0001
0100
,
0001
0010
1000
0010
,
1001
0010
0001
0100
,
0001
0010
0001
1000
,
0100
0010
0110
1000
,
0010
1000
0100
0001
,
0011
0100
0010
1000
,
1100
0001
1000
0010
,
1000
0010
1000
0001
,
0010
0001
0100
0010
,
1000
0100
1000
0001
,
0010
0100
1000
0010
,
0100
0010
0100
0001
,
0010
1000
0100
0001
,
0011
0000
1000
0001
,
0100
0010
1000
0001
,
1000
0010
1000
0010
,
0100
0001
0100
0001
,
1001
0010
0001
0010
,
1000
0100
1000
0001
,
0000
0100
0010
1000
,
0100
1100
0001
0100
,
1010
0001
0010
1000
,
0110
0010
0010
0010
,
0001
0100
0101
0010
,
1000
0100
0100
0100
,
1000
0001
1000
0010
,
0001
0100
0010
0100
,
0001
0010
1000
0010
,
0001
0100
1000
0100
,
0001
0001
1000
1000
,
0010
0010
0100
0100
,
0220
0000
0000
0330
,
2002
0000
0000
3003
,
0022
0000
0000
0033
,
0202
0303
2020
3030
,
2200
0000
0000
3300
,
2020
3030
0202
0303
,
0010
0010
0100
0100
,
1000
0001
1000
0001
,
0011
0100
1000
0001
,
1100
0010
0001
0100
,
0110
0010
0100
0010
,
1001
0100
1000
0001
,
0010
0001
0010
0100
,
1000
0010
1000
0001
,
0100
0010
0100
0001
,
0010
0100
1000
1000
,
0001
0100
0010
0010
,
1000
0001
1000
1000
,
0001
0100
0010
1000
,
0001
0010
0100
1000
;

//---------------dance-single - ----------------
#NOTES:
     dance-single:
     :
     Medium:
     10:
     :
0000
0000
0000
0000
,
0000
0000
0000
0000
,
0000
0000
0000
0000
,
0000
0000
0000
0000
,
0002
0000
0000
1000
0000
0000
0103
0010
,
0100
0000
0000
0001
2000
0000
3100
0000
,
0110
0000
0000
0001
1000
0000
0010
0000
,
0100
0000
0001
1000
0001
1000
0001
1000
,
0010
1000
0100
0010
0000
0000
1001
0000
,
0001
0010
0100
0000
1000
0001
0100
0000
,
0010
0000
1000
0000
0100
0010
0001
1000
,
0001
0000
0100
0000
0010
1000
0010
1000
,
0100
1000
0001
0100
0000
0010
1000
0000
,
1100
0000
0101
0000
1000
0100
0001
0000
,
0020
0000
0031
0200
0000
0310
2000
0000
,
3100
0020
0000
0031
1000
0001
1000
0100
,
0010
0100
0010
0100
0000
1000
0001
0000
,
0101
0000
1010
0000
0010
1000
0100
0000
,
1002
0013
2100
3100
,
1000
0001
0100
0000
0100
0001
0010
0000
,
0001
0000
1000
0010
0000
1000
0001
0010
,
0001
0100
0010
0000
1000
0100
1000
0000
,
1001
0110
1001
0110
,
0002
0000
0013
0200
0000
1300
0001
0000
,
0101
1010
0101
1010
,
0001
0100
1000
0000
1000
0100
0001
0000
,
0021
0000
1000
0000
0001
0000
0130
0010
,
0000
0001
1000
0000
1020
0000
1030
0100
,
1000
0000
0010
0100
0002
0000
0013
0000
,
0002
0000
0103
0000
1000
0010
0001
0000
,
1000
0100
0001
0000
0010
0100
0000
1100
,
0000
0001
0100
0000
0010
1000
0100
1000
,
0000
0010
0001
0000
0011
0000
1000
0001
,
0000
0100
0010
0100
0000
0010
0100
0010
,
1000
0100
2000
0000
0001
0000
3100
0000
,
0010
0002
1000
0000
0100
0000
1003
0000
,
0001
0100
0010
0000
1000
0001
0010
0000
,
0100
1000
0001
0000
1000
0010
0100
0000
,
1001
0000
0001
0100
0000
0010
1000
0000
,
0110
0000
0010
0001
0000
1000
0100
0000
,
2000
3020
0230
0302
,
0013
0001
0000
0100
0001
0000
1000
0001
,
1000
0010
1000
0010
0000
0100
0001
0000
,
0101
0000
1000
0010
0000
0100
0000
0001
,
1000
0100
0000
1000
0001
0100
0000
0000
,
0010
1000
0010
0100
0000
0001
1000
0001
,
0020
0000
0000
0031
1000
0000
1100
0000
,
0020
0000
0030
0100
0001
0000
1000
0001
,
0020
0000
0230
0000
1300
0010
1000
0010
,
0200
0000
0302
0000
0013
0100
0010
0100
,
2000
0000
3002
0000
1003
0100
0001
0000
,
0010
0001
0000
0001
0100
0000
0100
1000
,
0000
1000
0010
0000
0010
0001
0000
0101
,
0000
1100
0000
0101
0000
1000
0100
0010
,
0002
0100
0010
1003
,
0012
2003
3020
0230
,
0302
0000
0013
0001
1000
0001
0100
0000
,
0110
1001
0110
1001
,
0020
0000
0130
0001
2000
0000
3001
0100
,
0020
0000
1030
0100
1000
0100
0010
0000
,
0002
0103
2000
3010
,
0200
0000
0310
0200
0000
0301
0200
0000
,
0310
1010
0101
1010
,
0100
0001
0010
0000
1100
0000
0110
0000
,
0022
0000
0000
0003
,
2000
3000
0002
0003
,
0200
0030
0020
0030
,
2000
3000
0002
0003
,
2000
0000
0000
0300
,
0020
0030
0002
3000
,
0103
0010
0100
0000
0010
0100
0010
0000
,
1000
0001
1000
0001
0000
1000
0001
1000
,
0001
0100
0010
0000
0000
1000
0001
0000
,
0010
0001
0100
0000
0010
1000
0000
0100
,
0000
1000
0001
0000
0010
0001
0010
0100
,
0000
1000
0001
0000
1000
0100
0010
0000
,
0001
0100
0000
0001
0100
0000
0110
0000
,
1010
0000
1000
0100
0010
0001
0100
0000
,
0001
0100
0000
0001
0100
0000
0010
1000
,
0100
0010
0100
1000
0000
0001
0100
0001
,
0020
0000
0032
0000
1003
0100
1000
0000
,
1100
0000
0010
1000
0000
0001
0000
0100
,
0010
0100
0000
0101
0000
1000
0001
0000
,
0010
0000
0001
0100
0000
0001
0100
2000
,
0000
3000
0000
0000
0000
0000
0000
0000
;

//---------------dance-single - ----------------
#NOTES:
     dance-single:
     :
     Hard:
     13:
     :
0000
0000
0000
0000
,
0000
0000
0000
0000
,
0000
0000
0000
0000
,
0000
0000
0000
0000
,
0001
0100
1000
0100
0001
0100
0010
0100
,
0001
0000
0000
1000
0200
0000
0310
0000
,
0002
0000
0103
0010
0000
1000
0001
0000
,
0110
0000
0001
0100
0010
1000
0100
0010
,
0001
0100
0001
0100
0000
0010
1000
0000
,
1100
0000
1000
0010
0000
0100
0001
0000
,
0010
0001
0010
0100
1000
0001
0100
0000
,
0001
0010
0001
0100
0010
1000
0001
0000
,
1000
0010
1000
0010
0000
0100
0001
0100
,
0001
0010
0100
1000
0100
0010
0001
0000
,
1000
0010
1000
0001
0000
0010
0100
0000
,
1000
0001
0000
1000
0100
0010
0001
0000
,
0101
0000
0000
0000
0001
0000
0010
0000
0100
0000
1000
0000
0010
0000
0100
0001
,
0100
0000
0010
1000
0100
0010
0001
0000
,
1002
0000
0013
0100
1000
0010
0100
0001
,
0200
0000
0310
0100
0001
1000
0100
0000
,
1000
0000
0001
0010
0001
0000
1000
0000
0000
0000
0010
0000
0100
0000
0001
0000
,
0000
0010
0100
1000
0001
0010
1000
0000
,
1000
0010
0001
0000
1000
0100
0001
0000
,
0010
0001
0100
0010
1000
0100
0001
0000
,
0011
0110
1100
1001
,
0001
0100
0010
0000
1000
0100
0010
0001
,
0100
0010
1000
0000
0001
1000
0010
0100
,
0000
0001
0010
0000
0001
1000
0100
0010
,
0000
0100
0010
0100
1000
0010
1000
0001
,
0000
0100
0001
0010
0001
1000
0001
0100
,
0010
1000
0010
1000
0100
0010
0001
0100
,
0000
0010
1000
0010
0100
0001
0010
0100
,
1000
0001
0100
0010
1000
0100
0000
0010
,
0001
0000
0100
0010
0000
1000
0001
0100
,
0001
0000
0010
0000
0001
1000
0000
0000
0001
0000
0100
0000
0010
0000
1000
0000
,
0000
0100
1000
0010
0001
0010
1000
0100
,
0000
1000
0010
0100
1000
0100
0001
0010
,
0000
0001
0100
1000
0000
0010
1000
0100
,
0001
0010
0000
0001
1000
0010
1000
0100
,
0000
0010
0001
0100
0000
0010
1000
0001
,
1000
0010
0000
0100
0001
0000
1000
0001
,
1000
0010
0001
0010
1000
0010
0001
0010
,
2000
0000
3100
0010
0001
0100
0002
0000
,
0013
0100
1000
0010
1000
0001
1000
0100
,
0010
0000
0001
0100
0001
1000
0100
0000
,
1000
0010
0100
0001
0000
1000
0010
0001
,
0202
0000
0003
1000
1000
0000
0001
0000
,
0000
0310
0100
0001
0100
1000
0100
0010
,
1000
0100
1000
0100
1000
0100
1000
0100
,
0010
0001
0010
0001
0010
0001
0010
0001
,
1001
0000
1010
0000
1000
0010
1000
0001
,
0010
0100
0000
0010
0100
0000
1000
0001
,
0000
0000
0011
0000
0100
0001
1000
0010
,
0000
1000
0100
0001
0000
0100
0001
0010
,
0100
0000
1000
0000
0010
1000
0001
0010
,
0200
0000
0320
0000
0031
0100
1000
0000
,
2000
0010
3010
0000
0200
1000
1300
0000
,
0001
0010
0001
0100
0010
1000
0100
0000
,
1001
0100
0001
0000
0010
0001
0010
0100
,
0000
1000
0100
1000
0001
0100
1000
0000
,
1010
0110
1010
0110
,
1000
0010
0100
0001
0010
0100
1000
0000
,
1001
0011
1100
0011
,
1100
0001
0100
0010
1000
0100
0001
0000
,
0020
0001
1000
0001
,
0100
1000
0032
0100
,
2003
0010
3002
0100
,
0023
1000
0230
0001
,
2300
0010
0001
0100
,
3002
0010
0203
1000
,
0310
0100
0010
0100
0001
1000
0001
1000
,
0000
0100
1000
0010
0100
0001
1000
0001
,
0010
0001
1010
0000
0001
0100
1000
0010
,
0000
0100
0001
0010
0001
0010
0001
1000
,
0000
0110
0001
1000
0010
0100
0000
0001
,
0000
0010
0001
0100
0000
0001
1000
0000
,
0010
1000
0010
0100
0010
1000
0001
0010
,
0000
0001
1000
0000
1000
0100
0010
0000
,
0001
0100
0000
0001
1000
0000
0100
0010
,
1000
0010
0100
0010
1000
0010
0001
0100
,
0010
1000
0100
0010
0100
1000
0001
0000
,
0100
0001
0010
0001
0010
0100
1000
0000
,
1001
0001
0100
0000
0011
1000
0010
0000
,
0100
0010
1000
0001
0010
0001
0100
2000
,
0000
3000
0000
0000
0000
0000
0000
0000
;

//---------------dance-single - ----------------
#NOTES:
     dance-single:
     :
     Challenge:
     14:
     :
0000
0000
0000
0000
,
0000
0000
0000
0000
,
0000
0000
0000
0000
,
0000
0000
0000
0000
,
0001
0100
1000
0100
0010
0100
1000
0100
,
0001
0000
0010
0100
2000
0000
3001
0100
,
0020
0000
1030
0001
0200
0000
0301
1000
,
0002
0000
0000
0000
0013
0000
0001
0000
0100
0000
0010
0000
1000
0001
1000
0001
,
1000
0010
0100
0001
0010
0100
1000
0000
,
0001
0010
0001
0100
0010
1000
0001
0000
,
0010
1000
0010
0001
0100
0010
1000
0001
,
0010
1000
0010
0100
0010
0001
1000
0000
,
1010
0001
0100
0010
1000
0001
1000
0000
,
0101
0010
0100
0001
0010
0100
1000
0000
,
0010
1000
0100
0001
0100
0010
0100
0001
,
0100
0000
1000
0000
0010
0000
0100
0001
0000
0100
0001
0000
1000
0010
1000
0000
,
0001
0000
0010
0000
1000
0000
0010
0000
0001
0000
1000
0000
0100
0000
0000
1000
,
0010
1000
0100
0010
0001
0100
1000
0000
,
0011
0001
0100
0001
0010
0100
1000
0000
,
1100
0010
0100
0010
1000
0100
0001
0100
,
1000
0000
0001
0100
0001
0000
0010
0000
0100
0000
1000
0000
0001
0000
1000
0000
,
0010
0001
0010
1000
0100
0010
0001
0000
,
0100
0001
0010
0100
0010
0001
1000
0000
,
0001
1000
0010
1000
0100
0010
0001
0000
,
1001
1010
1001
0101
,
0010
0001
0010
0100
1000
0010
1000
0001
,
0100
0000
0010
0000
0100
0000
0001
0000
0000
0000
1000
0000
1000
0000
0001
0010
,
0001
0100
0010
0100
1000
0100
0001
1000
,
0010
1000
0100
0000
1000
0001
0010
0100
,
0010
0000
0000
0000
0001
1000
0001
0000
0100
0000
0010
0000
1000
0001
1000
0000
,
0100
0010
0001
0100
1000
0100
0001
1000
,
0000
0010
1000
0001
0010
0100
1000
0100
,
0010
0000
0001
0000
0100
0001
0100
0001
0100
0000
0010
0000
1000
0100
0000
0000
,
1000
0010
0000
0000
0100
0001
0000
0000
1000
0010
0000
0000
0100
0001
0000
0000
,
0010
0000
0001
0000
1000
0001
0000
0000
0100
0000
0010
0000
1000
0000
0001
0000
,
0010
0100
1000
0010
0001
0010
1000
0100
,
0010
0000
0001
0000
1000
0100
1000
0000
0010
0000
0100
0000
0001
1000
0001
0000
,
0010
0001
0100
0010
1000
0100
1000
0001
,
0010
1000
0010
0100
0010
0001
0010
0000
,
0001
0000
1000
0100
1000
0000
0001
0000
0100
0000
0010
0000
1000
0000
0001
0010
,
0001
0100
0010
0001
0010
1000
0100
1000
,
0001
0010
0001
0100
0010
1000
0100
0010
,
0001
0000
0100
0000
0001
1000
0001
0000
0100
0000
0010
0000
1000
0100
1000
0000
,
0010
1000
0001
0010
0001
0100
0010
0100
,
1000
0100
0010
0100
1000
0100
0001
0000
,
0010
0001
0010
0100
0000
1000
0001
1000
,
2200
0000
3000
0001
0001
0000
1000
0000
,
0310
0000
0001
0100
1000
0100
0001
0100
,
0010
1000
0100
0001
0100
0010
0001
1000
,
0010
0001
0010
1000
0100
0001
0100
1000
,
0110
0000
0001
0100
0010
1000
0100
0010
,
0001
0100
0000
0001
1000
0010
1000
0100
,
0010
0000
0001
1000
0001
0010
1000
0100
,
0000
0000
0100
0000
0010
0000
0001
0000
0100
0000
0010
0000
1000
0001
1000
0001
,
2000
0000
0000
0000
3010
0000
0100
0000
0001
0000
0010
0000
0100
0000
1000
0001
,
1000
0010
0001
0010
1000
0010
0200
0000
,
0301
0010
0001
0010
1000
0010
1000
0010
,
0001
0000
0100
0000
0010
0000
0100
0000
0001
0000
0100
0000
0010
1000
0010
0000
,
1000
0000
0100
0010
0100
0000
1000
0000
0001
0000
0010
0000
0001
0000
0100
0000
,
0001
1000
0010
0100
1000
0100
0001
0010
,
0100
1000
0001
1000
0100
0010
0100
1000
,
0001
0100
0010
1000
0010
0001
0010
0000
,
1010
1100
0110
0011
,
1000
1000
0001
0001
0100
0100
0010
0010
,
1000
0100
0001
0000
0010
0100
0000
1000
,
0000
0001
0100
0000
0001
1000
0010
0100
,
0000
0001
0010
1000
0010
0100
0010
0001
,
0200
0310
2000
3001
,
1001
0001
0100
0010
1000
0001
1000
0100
,
0020
0001
0031
0000
1100
1000
0000
0001
,
0100
0010
0100
0001
0010
0100
1000
0001
,
1000
0010
0100
0010
0001
0010
1000
0001
,
1000
0000
0100
0000
1000
0001
1000
0000
0000
0000
0010
0000
0100
0000
0001
0000
,
0010
1000
0010
0100
0010
1000
0010
0100
,
1000
0001
0100
0000
0001
0010
0100
1000
,
0010
0000
0100
0001
0100
0000
0010
0000
1000
0001
0000
0000
1000
0000
0100
0000
,
0010
0001
0100
0001
0010
0100
1000
0001
,
1000
0000
0010
0000
0100
0000
1000
0000
0100
0000
0001
0000
0010
0000
0100
1000
,
0100
0010
0001
0100
0001
1000
0001
0010
,
1000
0010
0001
0100
0010
1000
0001
0100
,
0010
0000
1000
0000
0100
0000
0001
0000
0100
0000
0010
0000
0001
1000
0001
1000
,
0001
0100
0001
0010
0100
1000
0001
1000
,
0010
0100
0001
1000
0000
0001
0100
0000
,
0010
1000
0010
0100
0001
0010
0100
2000
,
0000
3000
0000
0000
0000
0000
0000
0000
;
