#TITLE:MOONLIGHT;
#ARTIST:brz1128;
#BANNER:MOONLIGHT-bn.png;
#BACKGROUND:MOONLIGHT-bg.png;
#JACKET:MOONLIGHT-jacket.png;
#MUSIC:MOONLIGHT.ogg;
#OFFSET:0.5;
#SAMPLESTART:87.271;
#SAMPLELENGTH:20;
#DISPLAYBPM:175;
#BPMS:0=175;
#BGCHANGES:;

//---------------dance-single - ----------------
#NOTES:
     dance-single:
     :
     Beginner:
     5:
     :
0000
0000
0000
0000
,
0000
0000
0000
0000
,
0000
0000
0000
0000
,
0000
0000
0000
0000
,
0000
0000
0000
0000
,
0000
0000
0000
0000
,
0000
0000
0000
0000
,
0000
0000
0000
0000
,
0001
0000
1000
0000
,
1001
0000
0000
0000
,
0110
0000
0000
0000
,
1001
0000
0000
0000
,
0110
0000
0000
0000
,
1001
0000
1000
0000
,
0110
0000
0001
0000
,
1001
0000
0000
0000
,
0010
0000
0100
0000
,
0110
0000
0100
0000
,
0010
0000
1000
1000
,
1000
0000
0010
0000
,
0100
0000
0001
0001
,
0001
0000
0010
0000
,
0100
0000
1000
0000
,
1001
0000
0110
0000
,
0010
0010
0010
0000
,
1001
0000
1000
0000
,
0100
0000
0010
0010
,
0010
0000
0001
0000
,
0100
0000
0001
0001
,
0001
0000
1000
0000
,
0100
0000
0010
0000
,
0110
0000
1001
0000
,
0100
0100
0100
0000
,
0110
0000
0000
0000
,
0001
0000
0000
0000
,
1000
0000
0000
0000
,
0010
0000
0100
0000
,
0010
0000
0000
0000
,
1000
0000
0000
0000
,
0001
0000
0000
0000
,
1000
0000
0010
0000
,
0110
0000
0000
0000
,
1001
0000
0000
0000
,
0110
0000
0000
0000
,
1001
0000
0000
0000
,
0110
0000
0010
0000
,
1001
0000
0100
0000
,
0110
0000
0000
0000
,
0001
0000
1000
0000
,
1001
0000
0010
0000
,
1000
1000
1000
0000
,
0100
0100
0100
0000
,
0010
0000
0001
0000
,
0100
0000
0010
0010
,
0010
0000
1000
1000
,
1000
0000
0001
0001
,
0001
0000
0100
0000
,
0010
0000
1000
1000
,
1000
0000
0010
0010
,
0010
0000
1000
1000
,
1000
0000
0100
0000
,
0010
0010
0010
0000
,
0001
0001
0001
0000
,
0110
0000
1001
0000
,
1000
1000
1000
0000
,
0010
1000
0100
0000
,
0010
0001
0100
0000
,
0001
1000
0010
0000
,
1000
0000
0001
0000
,
1000
0001
1000
0000
,
0010
0100
0010
0000
,
0100
0001
1000
0000
,
0110
0000
1001
0000
,
0110
0000
0001
0000
,
1001
0000
0000
0000
,
0110
0000
1000
0000
,
1001
0000
0010
0000
,
1000
0100
1000
0000
,
0001
0100
0001
0000
,
1001
0000
0000
0000
,
0010
0010
0010
0000
,
0110
0000
0010
0000
,
0100
0000
0001
1000
,
0001
0000
0010
0000
,
0100
0000
1000
1000
,
1000
0000
0001
0000
,
1000
0000
0010
0000
,
0110
0000
1001
0000
,
0001
1000
0001
1000
,
0001
0000
0000
0000
;

//---------------dance-single - ----------------
#NOTES:
     dance-single:
     :
     Easy:
     9:
     :
0000
0000
0000
0000
,
0000
0000
0000
0000
,
0000
0000
0000
0000
,
0000
0000
0000
0000
,
0000
0000
0000
0000
,
0000
0000
0000
0000
,
0000
0000
0000
0000
,
0000
0000
0000
0000
,
0001
0000
0100
0000
0010
1000
0001
0000
,
1001
0010
1000
0100
,
0110
0001
0010
1000
,
1001
0010
0100
0001
,
0110
1000
0001
0100
,
1010
0001
0100
1000
,
0011
0100
0001
0010
,
1100
0001
0100
0001
,
0010
0100
1000
1001
,
0210
0310
0210
0310
,
0210
0000
0310
0000
1000
0001
1000
0001
,
1000
2100
3001
0102
,
0203
0310
0110
1001
,
0120
1030
2010
3001
,
0012
0103
2001
3010
,
0101
0010
0001
0100
,
0011
0000
0110
0000
1100
0000
0001
1000
,
0001
0101
0010
1010
,
0100
0000
1100
0000
0010
0100
0010
0100
,
0010
1010
0001
0101
,
0010
1000
1100
0101
,
2100
3001
0012
0103
,
0120
1030
1200
0301
,
0110
0001
0010
1000
,
1010
0101
1010
0100
,
1001
0010
0001
0100
,
0010
1000
0100
1000
,
0010
1000
0001
0010
,
0001
0100
0010
1000
,
0100
0010
0100
0010
,
0001
0100
1000
0010
,
1000
0001
1000
0100
,
0010
0001
0100
0010
,
0110
0001
0010
0100
,
1001
0010
1000
0001
,
0110
0100
0001
1000
,
1001
0010
1000
0100
,
1100
0001
0100
0010
,
0101
0010
1000
0001
,
0011
0100
0010
0100
,
1000
0010
0001
0100
,
1001
0010
0001
0100
,
0010
1000
0100
0001
,
0010
0100
0010
0001
,
0100
0000
0010
0000
1000
0000
0100
1000
,
0001
0010
0001
0100
,
0010
1000
0100
0001
,
1000
0001
1000
0010
,
0110
1001
0110
1001
,
0110
0000
0001
0000
0010
0000
0001
0100
,
0010
0000
1000
0000
0100
0000
1000
0001
,
0100
0000
0010
0000
1000
0000
0100
0010
,
0001
0000
1000
0000
0001
0100
0010
1000
,
0001
0000
0010
0001
1000
0000
0010
0100
,
0010
0000
1000
0100
1000
0000
0001
0100
,
0010
1000
0100
0001
,
1100
0110
0011
0100
,
1001
0000
0010
1000
0100
0000
0010
0001
,
1000
0000
0010
1000
0001
0000
0010
0100
,
1000
0000
0001
0100
0001
0000
0010
0100
,
0010
0000
0001
0000
1000
0010
1000
0000
,
0100
0000
1000
0010
1000
0000
0100
0010
,
0001
0000
0100
0001
0010
0000
0001
0100
,
1000
0000
0010
1000
0100
0010
0001
0000
,
0101
1001
1010
1001
,
0101
0010
1000
0001
,
1000
0100
0010
0001
0010
0100
1000
0000
,
0011
0000
0100
0010
1000
0000
0001
0000
,
1000
0001
0100
0010
1000
0001
0100
0000
,
1010
0000
0010
0000
1000
0100
0001
0000
,
0011
0000
0010
0000
0001
0100
1000
0000
,
1001
0010
1000
0100
,
1000
0001
1000
0001
0100
0010
1000
0000
,
0210
0310
0210
0310
,
0210
0000
0310
0000
1000
0001
1000
0001
,
1000
2010
3001
0012
,
0203
0310
1001
0110
,
1002
0103
2010
3001
,
1200
0310
0021
0031
,
1001
0010
1000
0100
,
1100
0110
0011
0110
,
2100
0002
0000
0000
,
0000
0000
0000
3003
;

//---------------dance-single - ----------------
#NOTES:
     dance-single:
     :
     Medium:
     13:
     :
0000
0000
0000
0000
,
0000
0000
0000
0000
,
0000
0000
0000
0000
,
0000
0000
0000
0000
,
0000
0000
0000
0000
,
0000
0000
0000
0000
,
0000
0000
0000
0000
,
0000
0000
0000
0000
,
0001
0010
0100
1000
0010
0100
0001
0000
,
1001
0000
0000
0000
0010
0000
0000
1000
0000
0000
0001
0000
0000
0000
0100
0000
,
0110
0000
0000
0000
0001
0000
0000
0010
0000
0000
0001
0000
1000
0000
0100
0000
,
1100
0000
0000
0000
1000
0000
0000
0010
0000
0000
0100
0000
0000
0000
0001
0000
,
0011
0000
0000
0000
1000
0000
0000
0001
0000
0100
0000
0000
0010
0000
1000
0000
,
1001
0000
0000
0000
0010
0000
0000
0100
0000
0000
0001
0000
1000
0000
0100
0000
,
0110
0000
0000
0000
1000
0000
0000
0010
0000
0000
0100
0000
0001
0000
1000
0000
,
1010
0000
1000
0100
1000
0001
0100
0001
,
0000
0010
0000
0001
0100
0010
1000
0000
,
1001
0000
0010
0100
0001
0000
0010
0100
,
1000
0000
0010
0100
0001
1000
0001
1000
,
0010
0000
1000
0001
0100
0000
0001
0010
,
0100
0000
1000
0001
0011
0000
0110
0000
,
1100
0000
0000
0010
0000
0000
1000
0000
0100
0000
0000
0010
0000
0000
0001
0000
,
0100
0000
0000
0001
0000
0000
1000
0000
0100
0000
0000
0010
0000
0000
0001
0000
,
0101
0000
0001
0010
0001
1000
0010
1000
,
0002
0000
0000
0000
2003
0000
0000
0000
3020
0000
0000
0000
1030
0100
1000
0100
,
1000
0000
0000
0010
0000
0000
1000
0000
0100
0000
0000
0010
0000
0000
0001
0000
,
0100
0000
0000
0001
0000
0000
1000
0000
0010
0000
1000
0000
0001
0000
0100
0000
,
0001
0000
0000
0010
0000
0000
0100
0000
1000
0000
0000
0001
0000
0000
1000
0000
,
0010
0000
0000
0100
0000
0000
0001
0000
0101
0000
0000
0000
1010
0000
0000
0000
,
1100
0000
0000
0000
1000
0000
0001
0000
0010
0000
0000
0001
0000
0000
0100
0000
,
1000
0000
0000
0001
0000
0000
0010
0000
0001
0000
0000
0100
0000
0000
1000
0000
,
1001
0000
0010
1000
0100
0010
0001
0100
,
0020
2030
3002
0103
,
0110
0000
0000
0000
0001
0000
0000
0100
0000
0000
0010
0000
1000
0000
0001
0000
,
1000
0000
0000
0000
0010
0000
0000
1000
0000
0000
0100
0000
0010
0000
0001
0000
,
0100
0000
0000
0010
0000
0000
0100
0000
0000
0000
0001
0000
1000
0000
0001
0000
,
0010
0000
0000
0001
0000
0000
1000
0000
0001
0000
0010
0000
0100
0000
1000
0000
,
0010
0000
0000
0000
0100
0000
0000
0001
0000
0000
0100
0000
0010
0000
1000
0000
,
0100
0000
0000
0000
0010
0000
0000
0100
0000
0000
0010
0000
0001
0000
1000
0000
,
0010
0000
0000
0000
1000
0000
0000
0001
0000
0000
1000
0000
0100
0000
0010
0000
,
0001
0000
0000
0100
0000
0000
0001
0000
1000
0000
0010
0000
1000
0000
0100
0000
,
0110
0000
0000
0000
0001
0000
0000
0100
0000
0000
0010
0000
0000
0000
1000
0000
,
1100
0000
0000
0000
0001
0000
0000
1000
0000
0000
0010
0000
0100
0000
0001
0000
,
0011
0000
0000
0000
1000
0000
0000
0001
0000
0000
0100
0000
0000
0000
0010
0000
,
1010
0000
0000
0000
0100
0000
1000
0000
0001
0000
0100
0010
0100
0000
0000
0000
,
1001
0000
0000
0000
0001
0000
0000
0010
0000
0000
0001
0000
1000
0000
0100
0000
,
1100
0000
0000
0000
0010
0000
0000
0100
0000
0000
0010
0000
0001
0000
1000
0000
,
1010
0000
1000
0100
1000
0001
0010
0001
,
0000
0000
0100
0000
0000
0000
0000
0000
0001
1000
0001
1000
0001
0000
0000
0000
,
0010
0000
0000
0000
0001
0000
0000
0100
0000
0000
0010
0000
1000
0000
0001
0000
,
0010
0000
0000
0000
0100
0000
0000
0010
0000
0000
0001
0000
1000
0000
0100
0000
,
1000
0000
0000
0000
0010
0000
0000
0100
0000
0000
0010
0000
1000
0000
0001
0000
,
0010
0000
0000
0001
0000
0000
0100
0000
0001
0000
0000
1000
0000
0000
0010
0100
,
0010
0000
1000
0100
1000
0010
0100
0001
,
1000
0000
0001
0010
0001
0100
0010
1000
,
0001
0000
0010
0001
0010
0100
1000
0001
,
1001
0000
0000
0110
0000
0000
1001
0000
0100
0000
0010
0000
1000
0000
0001
0100
,
0001
0000
0000
0000
0010
0000
0001
0100
0000
0000
0010
0000
1000
0000
0001
0000
,
1000
0000
0000
0000
0100
0000
0010
0001
0000
0000
0100
0000
0010
0000
1000
0000
,
0010
0000
0000
0000
1000
0000
0001
0010
0000
0000
0001
0000
0100
0000
0010
0000
,
1000
0000
0000
1000
0000
0000
1000
0000
0001
0000
0010
0000
0001
0000
0100
0000
,
0001
0000
0000
0000
0010
0000
0001
0100
0000
0000
0010
0000
1000
0000
0100
0000
,
1000
0000
0000
0000
0001
0000
1000
0010
0000
0000
0100
0000
0001
0000
0010
0000
,
0011
0000
0001
0100
0010
1000
0100
0010
,
0002
0000
2003
0000
3020
0000
0130
0010
,
0110
0000
0000
0000
1000
0000
0010
1000
0010
0000
0100
0000
0001
0000
1000
0000
,
0100
0000
0000
0000
0010
0000
0001
0100
0001
0000
1000
0000
0010
0000
1000
0000
,
0100
0000
0000
0000
1000
0000
0001
0010
0001
0000
0100
0000
0010
0000
1000
0000
,
0100
0000
1000
0001
0010
1000
0010
0001
,
0100
0000
0000
0000
0010
0000
1000
0001
0000
1000
0001
0000
0010
0000
0100
0000
,
1000
0000
0000
0000
0100
0000
0010
0001
0000
0010
0001
0000
1000
0000
0100
0000
,
1000
0000
0000
0000
0010
0000
0100
0001
0000
0100
0001
0000
1000
0000
0010
0000
,
1010
0000
0000
0101
0000
0000
1010
0000
0000
0000
0001
1000
0001
0000
0000
0000
,
0010
0000
0001
0100
0010
1000
0100
0010
,
0001
0000
0100
0000
1000
0000
0100
0010
0100
0000
0001
0000
1000
0000
0000
0000
,
0110
0000
1000
0010
0100
0010
1000
0001
,
0010
0000
0001
0000
0100
0000
0010
1000
0010
0000
0100
0000
0001
0000
0000
0000
,
1100
0000
0000
0000
1000
0000
0010
0100
0000
0000
0001
0000
1000
0000
0001
0000
,
0011
0000
0000
0000
0100
0000
0010
1000
0000
0000
0001
0000
0010
0000
0100
0000
,
1100
0000
1000
0001
1000
0001
1000
0001
,
0000
0100
0000
0001
0010
0100
1000
0000
,
2010
3001
0102
1003
,
0021
0000
0130
0000
1000
0010
0100
0001
,
0010
0000
0001
0100
0001
0000
1000
0010
,
1000
0000
0100
0010
0002
0000
2003
0000
,
3020
0000
0000
0000
1030
0000
0100
0000
1000
0000
0000
0001
0000
0000
0100
0000
,
0010
0000
0000
0010
0000
0000
1000
0000
0100
0000
0000
1000
0000
0000
0001
0000
,
1001
0000
0010
0001
0010
0100
1000
0001
,
2000
3020
2030
3002
,
0023
0031
0000
0000
;

//---------------dance-single - ----------------
#NOTES:
     dance-single:
     :
     Hard:
     16:
     :
0000
0000
0000
0000
,
0000
0000
0000
0000
,
0000
0000
0000
0000
,
0000
0000
0000
0000
,
0000
0000
0000
0000
,
0000
0000
0000
0000
,
0000
0000
0000
0000
,
0000
0000
0000
0000
,
0001
0000
0100
0000
0001
1000
0001
1000
0010
1000
0100
0000
1001
0000
0000
0000
,
1010
0000
0000
0000
0101
0000
0000
0101
0000
0000
0101
0000
0000
0000
0110
0000
,
0110
0000
0000
0000
1010
0000
0000
1010
0000
0000
1010
0000
0000
0000
1100
0000
,
1100
0000
0000
0000
0011
0000
0000
0011
0000
0000
0011
0000
0000
0000
1001
0000
,
1001
0000
0110
0010
1000
0100
1000
0001
,
0011
0000
0000
0000
0010
0000
0001
1000
0000
0001
1000
0000
0010
0000
0100
0000
,
0101
0000
0000
0000
0010
0000
1000
0100
0000
1000
0100
0000
0010
0000
0001
0000
,
1001
0000
1000
1000
0100
0100
0001
0001
,
0010
0000
0001
0000
1000
0010
0000
1000
0100
1000
0100
0010
0001
0000
0000
0000
,
1001
0000
0000
0010
1000
0000
0100
0000
0010
0000
0001
1000
0000
0000
0100
0000
,
0010
0001
0010
0001
0000
0000
0100
0000
0002
0000
0023
0000
0230
0000
2300
0000
,
3010
0000
1000
0001
0000
0000
0100
0010
0100
0000
0001
1000
0000
0000
0001
0100
,
0001
0000
0010
0001
0000
1000
0100
0000
1010
0000
0000
0000
0011
0000
0000
0000
,
0101
0000
0010
1000
0000
0010
1000
0000
0100
0000
0010
0001
0000
0010
0001
0000
,
1000
0000
0010
0100
0000
0010
0100
0000
0001
0000
1000
0100
0000
1000
0100
0000
,
0110
0000
0001
0001
0100
0100
1000
1000
,
1001
0000
0000
0000
1010
0000
0000
0000
1100
0000
0000
0000
0001
0100
0001
0100
,
0001
0000
0000
0010
0001
0000
1000
0000
0010
1000
0100
1000
0000
0001
0100
0000
,
0010
0100
0010
0100
0000
0001
1000
0001
2000
0000
3200
0000
0320
0000
0032
0000
,
0103
0010
1000
0001
0000
0000
0100
0000
0001
0010
0100
1000
0000
0000
0001
0000
,
1000
0010
0100
0001
0000
1000
0001
0000
0011
0000
0000
0000
1100
0000
0000
0000
,
0101
0000
0010
1000
0000
0001
0100
0000
0001
0010
0001
0010
0000
0100
1000
0000
,
0010
0100
0001
1000
0000
0010
0100
0000
0001
1000
0010
0100
0000
0001
1000
0000
,
1100
1100
1000
1000
0100
0100
0001
0001
,
0011
0000
1100
0000
0101
0100
0010
1000
,
1001
0000
0000
0000
0010
0000
0000
1000
0000
0000
0100
0000
1000
0000
0001
0000
,
0100
0000
0000
0000
0001
0000
0000
0010
0000
0000
0001
0000
1000
0000
0100
0000
,
0010
0000
0000
0000
0100
0000
0000
1000
0000
0000
0100
0000
1000
0000
0001
0000
,
0010
0000
0000
0001
0000
0000
0100
0000
0010
0000
0000
1000
0000
0000
0100
0000
,
1000
0000
0000
0000
0010
0000
1000
0001
0000
0000
0100
0000
0001
0000
0010
0000
,
0100
0000
0000
0000
1000
0000
0100
0010
0000
0000
0001
0000
1000
0000
0010
0000
,
1000
0000
0000
0000
0100
0000
1000
0001
0000
0000
0010
0000
0001
0000
0100
0000
,
0001
0000
0000
0010
0001
0000
0100
0000
0010
0000
0000
1000
0100
0000
1000
0000
,
1001
0000
0000
0000
0110
0000
0000
0110
0000
0000
0110
0000
0000
0000
1010
0000
,
1010
0000
0000
0000
0001
0000
0100
0010
0000
0000
1000
0000
0100
0000
0001
0000
,
0011
0000
0000
0000
1100
0000
0000
1100
0000
0000
1100
0000
0000
0000
0101
0000
,
0101
0000
0000
0010
0000
0000
1000
0000
0100
0010
0000
0001
1000
0000
0001
0100
,
0001
0000
0000
0000
0010
0000
0001
1000
0000
1000
0100
0000
1000
0000
0010
0000
,
0110
0000
0000
0000
0100
0000
0001
0010
0000
0010
0100
0000
1000
0000
0001
0000
,
0011
0000
0001
0001
0100
0100
1000
1000
,
0010
1000
0010
1000
0010
0001
0010
0001
0010
0100
0010
0100
0010
0000
0000
0000
,
0101
0000
0000
0000
1100
0000
1000
0010
0000
0100
0001
0000
0010
0000
0100
0000
,
1000
0000
0000
0000
0010
0100
0001
1000
0000
0001
0010
0000
0100
0000
1000
0000
,
0010
0000
0000
0000
0100
0001
1000
0001
0000
1000
0010
0000
0100
0000
0001
0000
,
0010
0000
0001
1000
0000
0001
1000
0000
0010
0100
0000
0001
0000
1000
0100
0010
,
0001
0000
0000
0000
0010
0000
0001
0100
0000
0010
1000
0000
0100
0000
1000
0000
,
0001
0000
0000
0000
1000
0000
0010
1000
0000
0100
0010
0000
0001
0000
0100
0000
,
0010
0000
0000
0000
1000
0001
1000
0100
0000
1000
0010
0000
0100
0000
0001
0000
,
0011
0000
0000
0101
0000
0000
1001
0000
1000
0010
0000
0100
0000
0001
0010
0100
,
1000
0000
0000
0000
0010
0100
0010
1000
0000
0001
0010
0000
0001
0000
0100
0000
,
0110
0000
0000
0000
1000
0010
0100
0001
0000
0010
0100
0000
1000
0000
0001
0000
,
1001
0000
0000
0000
0100
0010
1000
0001
0000
0010
0001
0000
1000
0000
0100
0000
,
1000
0010
0100
0001
0000
0001
0010
0000
0100
1000
0000
0010
0000
1000
0001
0100
,
0010
0000
0000
0000
1000
0100
1000
0001
0000
0010
0001
0000
0100
0000
1000
0000
,
1010
0000
0000
0000
0100
0001
0010
0001
0000
0100
0010
0000
1000
0100
1000
0000
,
1100
0000
1000
1000
0100
0100
0001
0001
,
1001
0000
0110
0000
1001
0010
0100
0010
,
1001
0000
0000
0000
0101
0000
0001
0010
0000
0100
1000
0000
0010
0000
0100
0000
,
0101
0000
0000
0000
1010
0000
0010
1000
0000
0100
0010
0000
0001
0000
1000
0000
,
0110
0000
0000
0000
0101
0000
0010
0100
0000
0001
1000
0000
0001
0000
0100
0000
,
0001
0000
0010
0100
0000
1000
0010
0000
0100
0010
0000
1000
0000
0001
0100
0001
,
1000
0000
0000
0000
0100
0010
0100
0010
0000
0001
1000
0000
0001
1000
0100
0000
,
1100
0000
0000
0000
0010
0001
0010
0001
0000
0100
0010
0000
1000
0001
1000
0000
,
0110
0000
0000
0000
1000
0010
0100
0001
0000
0010
0001
1000
0001
0000
0100
0000
,
0101
0000
0000
1010
0000
0000
0101
0000
0001
0010
0100
1000
0100
0010
0001
0000
,
1001
0000
0000
0000
0010
1000
0010
1000
0000
0100
0010
0001
0100
0010
1000
0000
,
1010
0000
0001
0100
0001
0000
1000
0100
1000
0000
0010
0000
0110
0000
0000
0000
,
1001
0000
0000
0000
0011
0000
0010
0100
0000
0100
1000
0000
0001
1000
0001
0010
,
0001
0000
1000
0000
1000
0000
0010
0100
0001
0000
0101
0000
0101
0000
0000
0000
,
0010
0000
0100
0000
1000
0000
0010
1000
0000
1000
0001
0000
0100
0000
0010
0000
,
1000
0000
0001
0000
0010
0100
0010
0100
0000
1000
0001
1000
0001
0000
0100
0000
,
0110
0000
0001
0001
0100
0100
1000
1000
,
0010
0000
0100
0000
0001
0010
0100
1000
0100
0010
0001
0000
1001
0000
0000
0000
,
1100
0000
0000
0010
0000
0000
0001
0000
0101
0000
0000
0010
0000
0000
1000
0000
,
0110
0000
0000
0001
0000
0000
1000
0000
0002
0000
0023
0000
0230
0000
2300
0000
,
3010
0000
1000
0100
0000
1000
0100
0000
0010
0000
0001
0100
0000
0001
0100
0000
,
0010
0000
1000
0001
0000
1000
0001
0000
0011
0000
0000
0000
1010
0000
0000
0000
,
1001
0000
0000
0010
1000
0000
0100
0000
1000
0000
0001
0010
0000
0001
0100
0000
,
0010
0000
1000
0100
0000
1000
0100
0000
0010
0000
0001
0100
0000
0001
0100
0000
,
0110
0000
1000
1000
0100
0100
0001
0001
,
0011
1100
0101
1010
,
2001
0002
0000
0000
,
0000
0000
0000
0000
,
0000
0000
0000
0000
,
0000
0000
0000
3003
;

//---------------dance-single - ----------------
#NOTES:
     dance-single:
     :
     Challenge:
     17:
     :
0000
0000
0000
0000
,
0000
0000
0000
0000
,
0000
0000
0000
0000
,
0000
0000
0000
0000
,
0000
0000
0000
0000
,
0000
0000
0000
0000
,
0000
0000
0000
0000
,
0000
0000
0000
0000
,
0001
0000
0100
0000
0010
1000
0001
0000
0100
0001
1000
0000
1001
0000
0000
0000
,
1010
0000
0000
0000
0101
0000
0000
1100
0000
0000
0101
0000
0000
0000
0110
0000
,
0110
0000
0000
0000
1010
0000
0000
0101
0000
0000
1010
0000
0000
0000
1100
0000
,
1100
0000
0000
0000
0011
0000
0000
0110
0000
0000
1100
0000
0000
0000
1001
0000
,
1001
0000
0000
0000
0010
0000
1000
0000
0100
0010
0001
0000
1000
0000
0001
0000
,
0011
0000
0000
0000
0100
0000
0010
1000
0000
0010
1000
0000
0010
0000
0100
0000
,
1010
0000
0000
0000
0001
0000
0100
0010
0000
0100
0010
0000
0100
0000
0001
0000
,
1001
0000
1000
1000
0100
0100
0001
0001
,
0010
0000
0010
0000
0001
0100
0000
0001
0100
0010
1000
0000
0110
0000
0000
0000
,
1001
0000
1000
0100
0000
0010
0001
0000
0100
0000
0010
1000
0000
0001
0100
0000
,
0001
0010
0001
0010
0000
0100
1000
0000
0020
0000
0230
0000
0302
0000
2003
0000
,
3100
0000
1000
0010
0000
1000
0001
0000
0010
0000
0001
0100
0000
0001
1000
0000
,
0010
0000
1000
0100
0000
0010
0001
0000
0101
0000
0000
0000
1010
0000
0000
0000
,
1100
0000
0010
0001
0000
0001
0100
0000
0010
1000
0010
1000
0000
1000
0100
0000
,
1000
0010
1000
0010
0000
0100
0001
0100
0001
0000
0010
0001
0000
1000
0010
0100
,
0001
0001
1000
1000
0010
0010
0100
0100
,
1010
0000
0000
0000
0011
0000
0000
0000
1010
0000
0000
0000
0001
0100
0001
0100
,
0001
0000
0010
0001
0010
0100
1000
0000
0010
0000
1000
0001
1000
0100
0010
0000
,
0001
0100
0001
0100
0000
0010
1000
0010
1000
0000
0100
0010
0001
0000
0100
0010
,
1000
0000
0001
0100
0010
0100
0001
0000
1000
0000
0010
1000
0100
0010
0001
0000
,
0100
0010
1000
0001
0000
1000
0100
0010
0001
0000
0000
0000
1001
0000
0000
0000
,
0110
0000
0010
1000
0100
0010
0001
0000
0100
0010
0100
0001
1000
0001
1000
0000
,
0100
1000
0100
1000
0000
0010
0100
0001
0010
0000
0001
0100
0000
0010
1000
0000
,
1100
0000
1100
0000
0010
0000
0001
0100
0001
0000
1000
0010
1000
0000
0100
0010
,
0001
0101
1010
1001
,
0110
0000
0000
0000
0001
0000
1000
0001
0000
0000
0100
0000
0010
0000
1000
0000
,
0100
0000
0000
0000
0010
0000
0001
1000
0000
0000
0001
0000
0100
0000
0010
0000
,
1000
0000
0000
0000
0100
0000
1000
0001
0000
0000
0010
0000
0001
0000
0100
0000
,
0010
0000
1000
0010
0000
0000
0100
0000
0001
0000
1000
0000
0001
0000
0100
0000
,
0010
0000
0000
0000
1000
0000
0100
0010
0000
0000
0001
0000
1000
0000
0100
0000
,
1000
0000
0000
0000
0010
0000
1000
0001
0000
0000
0100
0000
0010
0000
0100
0000
,
0010
0000
0000
0000
1000
0000
0100
1000
0000
0000
0001
0000
0100
0000
0010
0000
,
1000
0000
0100
1000
0000
1000
0001
0000
0100
0000
0001
0010
0000
0010
0100
0000
,
0110
0000
0000
0000
0011
0000
0000
1010
0000
0000
0101
0000
0000
0000
1010
0000
,
1010
0000
0000
0000
0100
0000
1000
0001
0000
0001
0100
0000
0010
0000
1000
0000
,
1100
0000
0000
0000
1001
0000
0000
0110
0000
0000
1001
0000
0000
0000
0101
0000
,
0101
0000
0000
0010
0000
0000
1000
0000
0100
0010
0000
0100
0000
1000
0001
0000
,
1010
0000
0000
0000
0010
0000
1000
0001
0000
0001
0100
0000
0010
0000
1000
0000
,
0101
0000
0000
0000
0010
0000
1000
0100
0000
0100
0010
0000
0001
0000
1000
0000
,
1001
0000
1000
1000
0100
0100
0001
0001
,
0010
0001
0010
0001
0010
1000
0010
1000
0010
0100
0010
0100
0010
0000
0000
0000
,
1100
0000
0001
0000
0100
0000
0010
1000
0000
0010
0100
0000
0001
0000
1000
0000
,
0100
0000
0010
0000
0001
0000
1000
0001
0000
0010
0100
0000
1000
0000
0001
0000
,
0100
0000
0010
0000
1000
0000
0100
1000
0000
0001
0100
0000
0001
0000
0010
0000
,
0100
1000
0001
1000
0000
0010
0100
0000
0001
0010
0000
0001
0000
1000
0010
0100
,
0001
0000
0010
0000
0001
0000
0100
0010
0000
1000
0100
0000
1000
0000
0001
0000
,
1000
0010
1000
0000
0100
0000
0010
0001
0000
0001
0100
0000
0001
0000
1000
0000
,
0010
0000
1000
0000
0100
0000
0010
0001
0000
1000
0001
0000
1000
0000
0100
0000
,
0010
0001
0010
0100
0000
1000
0010
0000
1000
0010
0100
0001
0000
1000
0100
1000
,
0001
0000
0010
0000
0100
1000
0010
1000
0000
0001
1000
0001
0010
0000
0100
0000
,
1000
0001
1000
0000
0010
0100
0001
0100
0000
0010
1000
0010
1000
0000
0100
0000
,
0010
0000
0001
0000
0100
0010
0100
0001
0000
1000
0001
1000
0001
0000
0100
0000
,
0010
1000
0010
1000
0100
0010
0001
1000
0001
1000
0000
0100
1000
0100
0010
0001
,
1000
0000
0010
0000
1000
0100
0010
0001
0000
0100
0010
0100
0001
0000
1000
0000
,
0010
1000
0001
0000
1000
0100
0010
0001
0000
0100
0010
0100
0001
0000
1000
0000
,
0101
0000
0101
0000
0010
0000
1000
0001
1000
0000
0100
0000
0010
0000
0001
0000
,
0100
0000
0001
1000
0100
0000
1000
0001
0100
0000
0010
0000
1000
0000
0001
0000
,
0010
0000
0001
0000
0100
0010
1000
0001
0000
1000
0100
0000
1000
0010
0100
0000
,
0001
0010
0100
0000
1000
0010
1000
0001
0000
0100
0010
0100
0001
1000
0100
0000
,
0010
0001
1000
0000
0010
1000
0100
0010
0000
0001
0100
0001
1000
0000
0010
0000
,
1000
0100
1000
0100
0010
0001
0010
0001
1000
0010
1000
0010
0100
0001
0100
0001
,
0010
0000
0000
0000
0001
1000
0001
1000
0000
0100
1000
0100
0010
0001
0100
0000
,
0010
1000
0010
0100
0001
0010
0100
1000
0000
0010
0100
0010
1000
0001
0100
0000
,
0110
0000
0000
0000
0001
0010
0100
1000
0000
0010
1000
0001
0100
0000
0010
0000
,
1000
0100
0010
0100
1000
0100
0010
0001
0100
0010
0000
1010
0000
1010
0000
0001
,
0100
0000
0010
0000
1000
0100
0010
0001
0000
0100
0010
1000
0001
0100
0001
0000
,
0011
0000
0100
0010
0100
1000
0100
0010
0100
1000
0100
0010
0001
0000
0000
0000
,
0101
0000
0100
0000
0010
0000
1000
0001
0000
0010
0001
0010
0100
0000
1000
0000
,
1001
0000
1010
0000
1100
0000
0100
0010
0001
1000
0100
0000
0110
0000
0000
0000
,
1001
0000
0000
0000
0010
1000
0010
0100
0000
0001
0010
0001
1000
0000
0100
0000
,
0110
0000
0000
0000
0010
0001
0010
0001
0000
1000
0100
1000
0100
0000
0010
0000
,
0011
0000
1000
1000
0100
0100
0001
0001
,
0010
0000
0010
0000
0001
0100
0010
1000
0001
0100
0010
1000
0001
0000
0000
0000
,
1010
0000
1000
0100
0000
1000
0100
0000
0110
0000
0010
0001
0000
0010
0001
0000
,
0100
0010
0100
0010
0000
0100
0010
0000
2000
0000
3002
0000
2003
0000
3002
0000
,
0013
0001
0010
0001
0000
1000
0100
0000
1000
0010
1000
0010
0000
0100
0001
0000
,
0010
0100
1000
0010
0000
0100
0001
0000
0101
0000
0000
0000
1100
0000
0000
0000
,
0101
0000
0000
0100
0010
0000
1000
0000
0100
0010
0100
0010
0000
0001
1000
0000
,
0010
1000
0010
0100
0000
0001
1000
0001
0010
0000
0001
0100
0000
0010
1000
0100
,
1000
0000
0010
0000
0100
0000
0001
1000
0001
0000
0010
0100
0010
0000
0001
1000
,
0001
0101
1001
1010
,
2000
0002
0000
0000
,
0000
0000
0000
0000
,
0000
0000
0000
0000
,
0000
0000
0000
3003
;
