#TITLE:MIRACLE MEETS;
#ARTIST:Lucky Vacuum;
#BANNER:MIRACLE MEETS-bn.png;
#BACKGROUND:MIRACLE MEETS-bg.png;
#JACKET:MIRACLE MEETS-jacket.png;
#MUSIC:MIRACLE MEETS.ogg;
#SAMPLESTART:90;
#SAMPLELENGTH:20;
#DISPLAYBPM:160;
#BPMS:0=160;
#BGCHANGES:;

//---------------dance-single - ----------------
#NOTES:
     dance-single:
     :
     Beginner:
     3:
     :
0000
0000
0000
0000
,
0000
0000
0000
0000
,
0000
0000
0000
0000
,
0000
0000
0000
0000
,
1001
0000
0100
0000
,
2000
0000
3000
0000
,
0001
0000
1000
0000
,
0001
0000
0100
0000
,
0110
0000
0000
0000
,
0001
0001
0001
0002
,
0000
0000
0000
0000
,
0000
0003
0000
2000
,
0000
0000
0000
0000
,
0000
3000
0000
0020
,
0000
0000
0000
0000
,
0030
0000
0100
0200
,
0000
0000
0000
0000
,
0000
0300
0000
0002
,
0000
0000
0000
0000
,
0000
0003
0000
0020
,
0000
0000
0000
0000
,
0000
0030
0000
0200
,
0000
0000
0000
0000
,
0300
0000
1000
2000
,
0000
0000
0000
0000
,
0000
0000
3000
0000
,
0020
0000
0000
0000
,
0000
0030
0000
1000
,
2000
0000
0000
0000
,
3000
0000
0001
0001
,
0002
0000
0000
0000
,
0000
0003
0000
0100
,
0200
0000
0000
0300
,
0000
1000
0000
0001
,
0002
0000
0000
0000
,
0000
0003
0000
0010
,
0020
0000
0000
0000
,
0030
0000
0001
0001
,
0002
0000
0000
0000
,
0000
0003
0000
1000
,
2000
0000
0000
3000
,
0000
0010
0000
0000
,
1000
0000
0001
0000
,
0200
0000
0300
0000
,
0010
0000
1000
0000
,
0001
0000
0010
0000
,
0001
0000
1000
0000
,
0200
0000
0300
0000
,
1000
0000
0010
0000
,
1000
0000
0001
0000
,
0010
0000
0010
0000
,
0100
0000
0100
0000
,
1000
0000
0001
0000
,
1000
0000
0001
0000
,
1001
0000
0100
0000
,
0110
0000
1000
0000
,
0001
0001
0001
0000
,
1000
1000
1000
0000
,
0010
0010
0010
0000
,
1001
0000
0110
0000
,
1000
0000
0001
0000
,
0020
0000
0030
0000
,
0001
0000
0100
0000
,
0010
0000
1000
0000
,
0100
0000
0010
0000
,
0002
0000
0003
0000
,
1000
0000
0001
0000
,
0100
0100
0100
0000
,
0010
0010
0010
0000
,
2000
0000
3000
0000
,
0001
0001
0001
0000
,
1000
0000
0100
0000
,
0010
0010
0010
0000
,
0200
0000
0300
0000
,
1000
0000
0001
0000
,
0010
0010
0010
0010
,
0020
0000
0000
0000
,
0000
0000
0000
0000
,
0030
0000
0000
0000
;

//---------------dance-single - ----------------
#NOTES:
     dance-single:
     :
     Easy:
     7:
     :
0000
0000
0000
0000
,
0000
0000
0000
0000
,
0000
0000
0000
0000
,
0000
0000
0000
0000
,
1001
0110
1000
0001
,
0020
0001
0031
0100
,
1000
0010
1000
0001
,
0100
0010
0100
0001
,
0020
0000
0000
0030
,
1001
0000
0110
0000
1000
0001
1000
0002
,
0000
0000
0000
0000
,
0000
0000
0000
0000
0000
0103
0010
0200
,
0000
0000
0000
0000
,
0000
0000
0000
0000
0000
0310
1000
0020
,
0000
0000
0000
0000
,
0000
0000
0000
0000
1030
0100
1000
0200
,
0000
0000
0000
0000
,
0000
0000
0000
0000
0000
1300
0010
2000
,
0000
0001
0000
0100
,
0000
0000
0001
0000
0000
3010
0100
0020
,
0000
1000
0000
0001
,
0000
0000
1000
0000
0000
0130
0001
0200
,
0000
0010
0000
1000
,
0000
0000
0001
0000
0000
0301
0010
0002
,
0000
0000
0100
0000
0000
1003
0000
0001
,
0000
1000
0000
0001
0000
0000
0000
0000
,
2000
0010
0010
0010
,
0001
0100
3001
1100
,
0002
0100
0100
0100
,
1000
0103
0101
0101
,
0020
0001
0001
0001
,
1000
0001
0130
0110
,
0200
1000
1000
1300
,
0000
1001
0000
0110
,
0002
0010
0100
0010
,
1000
0100
1003
0101
,
0200
1000
0010
1000
,
0001
0310
1010
1010
,
2000
0100
0001
0100
,
0010
0001
3010
1100
,
0200
0010
1000
0001
,
1300
1001
0010
0110
,
0001
1000
0001
0100
,
0020
0000
0000
0130
,
0001
0010
0001
0100
,
0020
0000
0000
2030
0000
0000
3001
0000
,
1000
0010
1000
0001
,
0200
0000
0000
0310
,
1000
0100
1000
0001
,
0100
0100
0010
1000
,
1001
0001
1000
0100
,
0110
0001
1000
0100
,
1001
0001
1000
0100
,
0110
0001
1000
0100
,
1000
1000
0001
0001
,
0100
0100
0010
0010
,
1000
0100
0010
0001
,
0101
1100
0101
1100
,
0001
1000
1000
0100
,
0010
0001
0011
1100
,
0001
0100
1000
0010
,
0200
0000
0000
0301
,
0010
0100
1000
0010
,
1000
0000
0001
0200
0000
0000
0310
0000
,
1000
0100
0001
0010
,
0002
0000
0000
1003
,
0010
1000
0100
0010
,
0001
0100
1010
0101
,
0010
1001
0001
0100
,
2000
0010
0100
3001
,
0100
0101
0001
0010
,
1000
0000
0010
0200
0000
0000
0301
0000
,
0011
1010
0100
1000
,
0002
0010
1000
0103
,
0010
1000
0001
0100
,
0110
1001
0002
1000
,
0020
0000
0000
0000
,
0000
0000
0000
0000
,
0003
0000
0000
0000
,
0000
0000
0000
0000
,
0000
0000
0000
0030
;

//---------------dance-single - ----------------
#NOTES:
     dance-single:
     :
     Medium:
     10:
     :
0000
0000
0000
0000
,
0000
0000
0000
0000
,
0000
0000
0000
0000
,
0000
0000
0000
0000
,
1001
0000
0110
0000
1000
0100
0010
0001
,
0200
0000
0010
0000
0310
1000
0001
1000
,
0002
0000
0013
0100
0000
1100
0000
0101
,
0000
1000
0001
1000
0002
0000
0203
0000
,
0020
0000
0000
0330
,
1010
0000
0101
0000
1000
0010
0100
0002
,
0000
0000
0013
0100
0000
1000
0100
1000
,
0000
1010
0000
0101
0000
1000
0001
0200
,
0000
0000
0310
1000
0000
0100
1000
0001
,
0000
0011
0000
1100
0000
1000
0010
0200
,
0000
0000
0301
0010
0000
0001
1000
0100
,
0000
1100
0000
0101
0000
0010
0001
2000
,
0000
0000
3100
0010
0000
0110
0000
1001
,
0000
0110
0000
1001
0000
1000
0100
0020
,
0000
0000
0031
1000
0000
0010
1000
0100
,
0000
1000
0100
0010
0000
0001
1000
0020
,
0000
0000
1030
0100
0000
0010
0001
1000
,
0000
0100
1000
0010
0000
1000
0001
0200
,
0000
0000
0301
1000
0000
0100
1000
0001
,
0000
0001
0100
0001
0000
0100
0010
2000
,
0000
0000
3100
1000
0000
0001
0100
0010
,
0000
1010
0000
1100
0000
1000
0001
0000
,
0020
0001
1000
0001
,
0130
0010
0100
0010
0001
0100
1000
0000
,
0020
0100
0001
0100
,
1030
0100
0010
0100
2000
0000
3001
0000
,
0200
1000
0001
1000
,
0310
1000
0100
1000
0001
0100
0010
0000
,
0002
0000
0100
0000
1000
0000
0013
0100
,
0000
1000
0001
1000
0000
0001
0100
0000
,
0010
1000
0100
0010
0000
0011
0000
1100
,
0000
0101
0000
1010
0000
0001
0100
0000
,
0010
1000
0001
1000
0000
1100
0000
0110
,
0000
0011
0000
0001
0010
0100
0010
0000
,
0001
1000
0001
0100
0000
0110
0000
1001
,
0000
1100
0000
0101
0000
0100
0010
0000
,
1000
0001
1000
0010
0000
1010
0000
0011
,
0000
0100
0010
0000
1000
0001
0100
0000
,
0001
0000
0001
0000
0001
1000
0100
1000
,
0020
0000
0000
0000
0000
0130
0001
1000
,
0100
0000
0100
0000
0100
1000
0010
1000
,
0100
0000
0010
0001
0000
0010
0001
0100
,
1000
0000
1000
0000
1000
0010
0100
0001
,
2000
0000
0000
0000
0000
3100
0010
0001
,
0100
0000
0010
1000
0000
0001
0000
1001
,
0000
0100
1000
0100
1000
0000
0001
0000
,
0020
0001
0100
0031
,
0200
1000
0001
1300
,
0002
0010
1000
0013
,
2000
0100
0010
3100
,
1200
1300
0201
0301
,
0012
0013
2010
3100
,
1001
0110
1001
0110
,
1000
0001
1000
0001
0100
0010
0100
0010
,
1000
0000
0001
0000
1000
0000
0100
0010
,
0000
0100
0000
1000
0001
1000
0001
0100
,
0010
0000
0110
0000
1000
0001
1000
0100
,
0020
0000
0000
0000
0000
0031
1000
0001
,
0010
0000
1001
0000
0100
0010
1000
0001
,
1000
0000
0100
0010
0000
0010
0001
1000
,
0001
0000
1100
0000
1000
0010
1000
0001
,
0200
0000
0000
0000
0000
0310
0100
0010
,
1000
0000
0001
0100
0000
0110
0000
1001
,
0000
1000
0100
0010
0002
0000
2003
0000
,
3010
0000
0101
0000
1000
0100
0010
0001
,
0200
0000
0010
0000
0310
1000
0001
0010
,
0100
0000
1100
0000
1000
0010
1000
0001
,
0200
0000
0310
1000
0000
0001
1000
0100
,
0010
0000
0011
0000
0100
0001
0010
0100
,
2000
0000
0000
0000
0000
3100
1000
0001
,
0100
0000
0010
1000
0000
1100
0000
0011
,
0000
0100
1000
0100
2000
0000
3002
0000
,
0020
0000
0000
0000
,
0000
0000
0000
0000
,
0003
0000
0000
0000
,
0000
0000
0000
0000
,
0000
0000
0000
0030
;

//---------------dance-single - ----------------
#NOTES:
     dance-single:
     :
     Hard:
     13:
     :
0000
0000
0000
0000
,
0000
0000
0000
0000
,
0000
0000
0000
0000
,
0000
0000
0000
0000
,
1001
0000
0000
0000
0110
0000
0000
0000
1000
0000
0001
0100
0001
0000
0010
0000
,
0200
0000
1000
0000
1300
0001
0100
0010
,
1000
0000
0010
0100
0010
0000
1000
0000
0100
0000
0010
0000
0001
0000
0200
0000
,
0000
0010
0310
1000
0001
1000
0200
0000
,
0020
0000
0000
0330
,
0011
0000
0000
0000
1100
0000
0000
0000
0001
1000
0001
1000
0001
0000
0100
0000
,
0000
0010
1000
0001
0000
0010
0100
1000
,
0000
0010
0100
0001
0000
1000
0100
0010
,
0001
0100
0001
1000
0000
0010
1000
0001
,
0000
1000
0100
1000
0010
0100
0001
1000
,
0100
0010
0100
1000
0000
0010
0100
0001
,
0000
0010
0001
1000
0001
0010
0100
1000
,
0010
1000
0001
0010
0000
0001
0100
1000
,
0000
0010
1000
0010
1000
0100
0010
0001
,
0100
0001
0010
0100
0000
1000
0001
1000
,
0000
0010
1000
0100
0010
0001
0100
0001
,
0010
0001
1000
0001
0000
1000
0100
0010
,
0000
0100
0010
0001
0100
0001
1000
0010
,
1000
0100
0010
0001
0000
0100
0001
0010
,
0000
0001
1000
0010
0100
0010
1000
0001
,
0010
0001
1000
0001
0000
0100
0010
1000
,
0000
1000
0100
0001
0010
0001
0100
0010
,
1000
0100
1000
0100
0001
0100
0001
0100
,
1000
0000
0100
0000
0001
0000
0100
0000
1000
0100
1000
0100
1000
0000
0000
0000
,
0001
0100
0001
0100
1000
0100
1000
0100
,
0001
0000
0100
0000
1000
0000
0100
0000
0001
0100
0001
0100
0001
0000
0000
0000
,
1000
0010
1000
0010
0001
0010
0001
0010
,
1000
0000
0010
0000
0001
0000
0010
0000
1000
0010
1000
0010
1000
0000
0000
0000
,
0001
0010
0100
1000
0001
0010
0100
1000
,
0000
0010
1000
0001
0100
0100
0010
0010
,
1000
0100
1000
0100
0001
0100
0001
0100
,
1000
0000
0010
0000
0001
0000
0010
0000
1000
0010
1000
0010
1000
0000
0001
0000
,
1000
0010
1000
0010
0001
0010
0001
0010
,
1000
0000
0100
0000
0001
0000
0100
0000
1000
0100
1000
0100
1000
0000
0001
0000
,
0100
0000
0010
0000
0100
0000
0010
0000
0100
0000
1000
0000
0100
0000
0001
0100
,
0001
0000
0010
0000
1000
0000
0010
0000
0001
0100
0001
0100
0001
0000
1000
0000
,
0010
1000
0100
1000
0010
1000
0100
1000
,
0010
0000
1000
0000
0100
0000
1000
0000
0001
0100
0001
0100
0001
0000
0000
0000
,
0010
0000
0000
0000
0001
0000
0000
0000
1000
0000
0010
1000
0010
0000
0100
0000
,
0002
0000
0000
0000
0000
1003
0001
0010
,
0100
0000
0000
0000
1000
0000
0000
0000
0001
0000
0100
0010
0100
0000
0001
0000
,
0020
0000
0031
2000
0000
3001
0100
0010
,
1000
0000
0000
0000
0100
0000
0000
0000
0010
0000
0001
0100
0001
0000
1000
0000
,
0200
0000
0000
0000
0000
1300
0001
1000
,
0020
0000
0130
0002
0000
1003
0000
0020
,
0000
1030
0001
1000
0002
0000
0103
0000
,
0101
0000
0000
0000
1100
0000
0000
0000
0101
0000
0000
0001
1000
0000
0100
0000
,
1100
0000
0000
0000
0101
0000
0000
0000
1100
0000
0000
1000
0001
0000
0100
0000
,
1010
0000
0000
0000
0011
0000
0000
0000
1010
0000
0000
1000
0001
0000
0010
0000
,
0011
0000
0000
0000
1010
0000
0000
0000
0011
0000
0000
0001
1000
0000
0010
0000
,
1000
0100
1000
0100
0001
0100
0001
0100
,
1000
0010
1000
0010
0001
0010
0001
0010
,
0110
1001
0110
1001
,
1000
0001
1000
0001
0100
0010
0100
0010
,
0200
0000
0302
0000
2003
0000
3001
0100
,
0000
0020
0000
1030
0001
0100
0001
1000
,
1100
0000
0000
0000
0011
0000
0000
0000
1000
0000
0001
0010
0001
0000
1000
0000
,
0200
0000
0001
0000
1300
0010
0100
0001
,
0101
0000
0000
0000
1100
0000
0000
0000
0010
0000
1000
0001
1000
0000
0100
0000
,
0020
0000
0031
2000
0000
3001
0100
0010
,
1010
0000
0000
0000
1100
0000
0000
0000
0100
0000
0010
0001
0010
0000
0100
0000
,
2000
0000
0010
0000
3001
1000
0100
0010
,
0001
0100
0001
2000
0000
3010
0000
0200
,
0000
0301
0010
0001
1000
0100
0001
0000
,
1001
0000
0000
0000
0011
0000
0000
0000
1100
0000
0001
0100
0001
0000
1000
0000
,
0020
0000
0100
0000
1030
0010
1000
0001
,
0101
0000
0000
0000
0011
0000
0000
0000
0110
0000
1000
0010
1000
0000
0001
0000
,
0200
0000
0310
2000
0000
3100
0010
0001
,
1001
0000
0000
0000
1010
0000
0000
0000
0101
0000
0010
1000
0010
0000
0100
0000
,
0002
0000
0010
0000
1003
0001
1000
0100
,
0110
0000
0001
1000
0000
1010
0000
0101
,
0000
1000
0100
1000
0001
0100
0002
0000
,
0020
0000
0000
0000
,
0000
0000
0000
0000
,
0003
0000
0000
0000
,
0000
0000
0000
0000
,
0000
0000
0000
0030
;
