#TITLE:MGS2 mission R;
#ARTIST:L.E.D.;
#BANNER:MGS2 mission R.png;
#BACKGROUND:MGS2 mission R-bg.png;
#JACKET:MGS2 mission R-jacket.png;
#MUSIC:MGS2 mission R.ogg;
#SAMPLESTART:46.43;
#SAMPLELENGTH:20;
#DISPLAYBPM:150;
#BPMS:0=150;
#BGCHANGES:;

//---------------dance-single - ----------------
#NOTES:
     dance-single:
     :
     Beginner:
     3:
     :
0000
0000
0000
0000
,
0000
0000
0000
0000
,
0000
0000
0000
0000
,
0010
0000
0000
0000
,
0100
0000
0001
0000
,
1000
0000
0001
0000
,
0100
0000
0010
0000
,
1000
0000
0001
0000
,
1000
0000
0001
0000
,
0010
0000
0000
0001
,
0000
0010
0000
0100
,
0000
0010
0000
0100
,
0000
0000
0000
0000
,
1000
0000
1001
0000
,
0001
0000
1000
0000
,
1001
0000
0000
0100
,
0000
1000
0000
1000
,
0000
0000
0010
0000
,
0100
0000
0010
0000
,
1000
0000
0010
0000
,
1000
0000
0010
0000
,
1001
0000
0000
0000
,
0000
0000
0000
0000
,
0001
0000
0000
0000
,
0000
0000
0000
0000
,
0001
0000
0000
0000
,
0100
0000
0000
0000
,
1001
0000
1000
0000
,
1000
0000
0100
0000
,
1000
0000
0010
0000
,
0000
0001
0000
0001
,
0000
1000
0000
0100
,
0000
0100
0000
0100
,
0100
0000
0001
0000
,
0010
0000
1000
0000
,
1001
0000
1000
0000
,
0010
0000
0010
0000
,
1001
0000
0100
0000
,
0100
0000
0000
0100
,
0000
0100
0000
0100
,
0000
0100
0000
1000
,
0000
1000
0000
1000
,
0000
0010
0000
1000
,
0000
0010
0000
1000
,
0000
0010
0000
1001
,
0000
1000
0000
0100
,
0000
0100
0000
0100
,
0000
0100
0100
0100
,
0000
1000
0000
1000
,
0000
0100
0000
0100
,
0000
0001
0000
1000
,
0000
0100
0000
0010
,
0000
0000
0000
0000
,
1000
0000
0010
0000
,
0010
0000
0010
0000
,
0000
1000
0000
0100
,
0000
0100
0000
0100
,
0100
0000
0001
0000
,
0010
0000
0010
0000
,
0010
0000
1000
0000
,
0010
0000
0010
0000
,
1001
0000
0000
0000
;

//---------------dance-single - ----------------
#NOTES:
     dance-single:
     :
     Easy:
     6:
     :
0000
0000
0000
0000
,
0000
0000
0000
0000
,
0000
0000
0000
0000
,
1010
0000
0000
0000
0000
0000
0000
1000
,
0100
0010
0001
0000
,
1000
0000
0001
0000
,
0100
0000
0010
0000
,
1000
0000
0001
0000
,
1000
0000
0001
1000
,
0010
1000
0000
0001
,
0000
0010
0000
0100
,
0000
0010
0000
0100
,
0220
0000
0000
0330
,
1000
0000
1001
0000
,
0001
0000
1000
0000
,
1001
0100
0000
0100
,
0000
1000
0000
1000
,
1001
0000
0010
0001
,
0100
0000
0010
0000
,
1000
0000
0010
0000
,
1000
0001
0010
0100
,
2002
0000
0000
0000
,
0000
0000
0000
0000
0000
3003
0000
1000
,
0001
0220
0000
0000
,
0330
0000
0000
0000
0000
0000
0000
1000
,
0001
0000
0000
0000
,
0011
0000
0000
0000
,
1001
0000
1100
0000
,
1000
0010
0100
0001
,
1000
0000
0010
0100
,
0000
0001
0010
0001
,
0000
1000
0000
0100
,
0010
0100
0010
0100
,
0100
0010
0001
0100
,
0010
0000
1000
0000
,
1001
0000
1000
0000
,
0010
0000
0010
0000
,
1001
0000
0100
0000
,
0100
1001
0000
0100
,
0010
0100
0010
0100
,
0010
0100
0010
1000
,
0010
1000
0110
1000
,
0100
0010
0001
1000
,
0100
0010
0001
1000
,
0100
0010
0001
1001
,
0001
1000
0001
0100
,
0010
0100
0010
0100
,
0010
0100
0100
0100
,
0010
1000
0100
1000
,
0101
0011
1000
0100
,
0010
0001
0000
1000
,
0010
0100
0001
0010
,
0200
0000
0000
0300
,
1000
0100
0010
0100
,
0010
0001
0010
0001
,
0000
1000
0000
0100
,
0010
0100
0010
0100
,
0100
1000
0001
0100
,
0010
1000
0010
1000
,
1010
0101
1000
0100
,
0010
0001
0010
0100
,
1001
0000
0000
0000
;

//---------------dance-single - ----------------
#NOTES:
     dance-single:
     :
     Medium:
     8:
     :
0000
0000
0000
0000
,
0000
0000
0000
0000
,
0000
0000
0000
0000
,
1010
0000
0000
0000
0000
0000
0000
1000
,
0010
1001
0101
0000
,
1000
0100
0010
0001
,
1000
0010
0100
0001
,
0010
0100
1000
0001
,
1000
0100
0010
0001
,
0011
0002
0000
2003
,
0000
3010
0100
0001
,
1000
0010
0100
0001
,
0202
0000
0000
0303
,
1000
0010
0101
1000
,
0010
0100
0001
1000
,
1100
0100
0010
0100
,
1000
0000
0000
0000
0001
0000
0000
0000
0100
0000
0000
0000
0001
0000
0000
0010
,
0001
0001
0010
0001
,
1100
0010
0101
1000
,
0001
1000
1010
0000
,
0100
1000
0100
1000
0001
0100
0001
0100
,
0202
0000
0000
0000
,
0000
0000
0000
0000
0000
0303
0000
1000
,
0001
2200
0000
0000
,
3300
0000
0000
0000
0000
0000
0000
1000
,
0001
0000
0000
0000
,
0011
0000
1001
0000
,
1010
0000
1100
0000
,
0100
1000
0100
1000
0001
0100
0001
0100
,
0001
0100
0010
0100
,
0010
1000
0010
1000
,
0001
1000
0000
0100
,
0010
0000
0000
0000
0100
0000
0000
0000
0010
0000
0000
0000
0100
0000
0000
0010
,
0100
1000
0001
1000
,
1000
0100
0010
0001
,
0011
0110
1000
0100
,
0010
0000
0000
0000
0001
0000
0000
0000
0010
0000
0000
0000
0100
0000
0000
1000
,
0100
1000
0001
0110
,
0001
0011
1100
0010
,
0100
0010
0100
0000
,
0001
0000
0000
0000
0100
0000
0000
0000
0001
0000
0000
0000
1000
0000
0000
0100
,
0010
0001
1100
1000
,
0100
0010
0001
0100
,
0010
1000
0001
0010
,
0100
1000
0001
1000
,
1001
0000
0000
0000
1000
0100
0010
0000
,
0001
0000
0100
0000
0001
0010
0100
0000
,
1001
0100
0100
0100
,
0010
1000
0100
1000
,
1100
0101
1000
0100
,
0010
0002
0023
0230
,
2300
0002
0000
3003
,
1000
0100
0010
0001
0100
0010
1000
0002
,
2000
0003
3010
0100
,
0010
1000
0010
1000
,
0001
1000
0010
0100
,
0001
0000
0000
0000
1000
0000
0000
0000
0001
0000
0000
0000
1000
0000
0000
0010
,
0100
0010
1000
0100
,
1000
0100
0010
0001
,
0011
1010
0001
0010
,
0100
0000
0000
0000
1000
0000
0000
0000
0010
0000
0000
0000
0000
0000
0000
0010
,
1000
0000
0000
0000
;

//---------------dance-single - ----------------
#NOTES:
     dance-single:
     :
     Hard:
     12:
     :
0000
0000
0000
0000
,
0000
0000
0000
0000
,
0000
0000
0000
0000
0000
0000
0000
0000
1000
0100
1000
0100
1000
0100
1000
0100
,
1000
0000
0000
0000
0000
0000
0000
0100
,
1000
0000
0000
0001
0000
0000
0100
0000
0000
0001
1000
0001
1000
0001
1000
0001
,
1000
0000
0000
0001
0000
0000
0100
0000
0010
0000
0000
0100
0000
0000
0001
0000
,
1000
0000
0000
0010
0000
0000
0100
0000
0001
0000
0000
1000
0000
0000
0100
0000
,
1000
0000
0000
0001
0000
0000
0100
0000
0010
0000
0000
0100
0000
0000
0001
0000
,
1000
0000
0000
0010
0000
0000
0100
0000
0001
0000
0000
1000
0000
0000
0100
0000
,
0010
0000
1000
0000
0100
0000
0000
0000
0001
0010
0001
0010
0000
0000
0100
0000
,
0010
0000
0001
0000
0100
0000
0000
0000
0001
0100
0001
0100
0000
0000
0001
0000
,
0010
0000
0001
0000
0100
0000
0000
0000
0100
0010
0100
0010
0000
0000
0100
0000
,
0002
1000
1000
1003
,
1010
0000
0101
0000
1000
0001
0100
0000
,
1000
0010
0100
0001
1000
0001
0100
0000
,
0011
0000
1100
0000
0001
1000
0100
0000
,
0001
0010
0100
1000
0001
1000
0100
0000
,
0101
0000
1010
0000
0001
1000
0010
0000
,
1001
0001
0100
0001
0010
0100
1000
0000
,
0120
0030
2001
3000
,
1010
0101
0011
0101
,
1100
0000
0000
0000
0000
0101
0000
0000
0000
0000
1100
0000
0000
0000
0000
0000
,
0000
0000
0000
0000
0000
0000
0000
0001
,
1000
0000
0110
0000
0000
1001
0000
0000
,
0000
0000
0000
0000
0000
0000
0000
1100
,
0101
0000
0000
0000
0000
1100
0000
0000
0000
0000
0101
0000
0000
0000
0000
0000
,
1010
0000
0000
0000
0000
0000
0100
0000
0000
0000
0000
1100
0000
0000
0000
0000
,
0011
0001
1100
1000
,
2000
0001
0001
3001
,
1000
0100
0010
0001
0100
0010
1000
0100
,
0010
0000
0000
1100
0000
0000
0000
0000
,
0001
1000
0000
1000
0010
0100
0000
1000
,
0001
0010
0001
1000
0001
0100
0000
0000
,
0001
0100
0010
1000
0100
0010
0001
0100
,
0010
0000
0000
0101
0000
0000
1001
0000
,
0100
0000
0000
0010
0100
0010
0000
0001
,
1000
0010
0100
0001
0010
0100
1000
0100
,
1000
0001
0100
0001
1000
0100
0010
0001
,
0010
0100
1000
0001
1000
0100
1000
0000
,
1000
0101
0000
0001
1100
0000
0001
0100
,
0001
0010
0100
1000
0001
1000
0100
0010
,
0001
0100
0010
1000
0010
1000
0001
0100
,
0001
1000
0010
1000
0001
0100
0001
1000
,
0010
1000
0001
0100
0001
1000
0010
1000
,
0001
0100
0001
1000
0010
1000
0001
0100
,
0001
0000
1100
0000
0001
1000
0100
0000
,
1000
0001
1000
0010
0000
0101
0000
1100
,
0000
0100
0000
0011
0000
0100
0000
1000
,
0001
1100
0000
1000
0101
0000
0001
1100
,
0000
0001
0100
0001
1000
0100
0010
0001
,
1000
0001
0100
0010
0100
0010
1000
0001
,
0100
0010
0100
0001
1000
0010
1000
0100
,
2000
0000
0000
0000
0001
0000
0000
0000
0001
0000
0000
0000
3001
0000
0001
0100
,
0001
1000
0010
1000
0010
0100
0001
1000
,
0001
0000
0010
0000
0001
0000
1000
0000
0001
0000
1000
0000
0100
0000
1000
0001
,
1000
0001
0010
0001
0010
0100
1000
0001
,
1000
0000
0010
0000
1000
0000
0001
0000
1000
0000
0001
0000
0100
0000
0001
0100
,
0001
1000
0100
1000
0010
0100
0001
1000
,
0001
0000
0010
0000
0001
0000
1000
0000
0001
0000
1000
0000
0100
0000
1000
0001
,
1000
0001
0010
0001
0010
0100
1000
0001
,
1000
0000
0010
0000
1000
0000
0001
0000
1000
0000
0001
0000
0100
0000
0001
0100
,
0002
0000
0000
0000
0000
0003
0000
0000
;

//---------------dance-single - ----------------
#NOTES:
     dance-single:
     :
     Challenge:
     17:
     :
0000
0000
0000
0000
,
0000
0000
0000
0000
,
0000
0000
0000
0000
0000
0000
0000
0000
0010
0100
1000
0100
0001
1000
0001
0010
,
0100
0000
0000
0100
0000
0000
0100
0000
0100
0000
0000
0100
0000
0000
0110
0000
,
0011
0000
0000
0101
0000
0000
1010
0000
1000
0100
0010
0001
0010
1000
0100
0001
,
1000
0010
0000
0010
0100
0001
0000
0001
0010
0100
0000
0100
1000
0001
0000
1000
,
0001
0100
0000
0010
1000
0100
0000
1000
0001
0010
0000
0001
1000
0100
0000
0010
,
0001
0010
0001
0010
1000
0010
0100
0010
1000
0100
1000
0001
0100
0001
1000
0100
,
0010
0001
0100
1000
0010
1000
0001
1000
0010
0001
0100
0001
0100
0010
0100
1000
,
0100
0000
0000
0000
0001
0000
1000
0010
1000
0000
0001
0010
0000
0001
0100
0000
,
0010
0000
1000
0100
0000
0100
0010
0000
0001
0000
1000
0010
0000
1000
0001
0100
,
0010
0000
1000
0001
0000
0001
0010
0000
0001
0100
1000
0100
0000
0100
0010
0000
,
1001
0000
0000
0010
0000
0000
1000
0000
0100
0000
0000
0010
0001
0100
0001
1000
,
0001
0000
0000
0000
0011
0000
0010
0100
1000
0000
1100
0000
0010
0100
0001
1000
,
0100
0000
0010
0001
0000
0001
1000
0000
0010
0000
1000
0100
0000
1000
0100
0010
,
0001
0000
0000
0000
0101
0000
1000
0001
0100
0000
1010
0000
0010
1000
0010
0100
,
0001
0000
0010
0100
0000
0100
1000
0000
0010
0000
0000
1000
0001
0010
0100
1000
,
0010
0000
0000
0000
0101
0000
0100
0001
1000
0000
1100
0000
0001
0010
0100
1000
,
0010
0100
0010
1000
0100
0010
0001
0000
1000
0001
0000
1000
0001
0100
0010
1000
,
0100
0000
1000
0010
0000
0010
0100
0000
0001
0000
0010
0001
0000
0001
1000
0000
,
0010
0100
0001
0100
1000
0001
1000
0001
0100
0010
1000
0010
0001
1000
0010
0100
,
0001
0000
1100
0000
0000
1010
0000
0000
,
1000
0000
0000
1000
0000
0000
1000
0000
1000
0000
0000
1000
0000
0000
1000
0100
,
1000
0000
0000
0000
0011
0000
0000
0000
0000
0000
0101
0000
0010
0100
0010
0100
,
0001
0010
0001
0010
0100
1000
0100
1000
0001
0100
0001
0100
0010
1000
0010
1000
,
0100
0000
1000
0000
1100
0000
0100
1000
0001
0000
0101
0000
0010
0001
0010
0000
,
0011
0000
0001
1000
0100
0000
0110
0000
0010
0100
1000
0000
1100
0000
0001
0010
,
0001
0100
1000
0000
1001
0000
0010
1000
0001
0000
0110
0000
1000
0100
0010
0000
,
0001
1000
0000
0001
1000
0000
0001
1000
0000
0001
1000
0000
0001
1000
0001
1000
,
0100
0011
0101
0010
1100
1010
0001
1100
,
0011
0000
0100
0000
1010
0000
0101
0000
1000
0100
0010
0001
0000
0100
0010
1000
,
0001
0110
0001
0011
0110
1100
0010
1001
,
0101
0000
1010
0000
1100
0000
0011
0000
1100
0000
0101
0000
0010
0100
0001
1000
,
0010
0101
1001
0010
0110
1010
0100
0011
,
1010
0000
0100
0000
0101
0000
1100
0000
0010
0000
0100
0000
1010
0000
0001
0100
,
0001
1000
0010
0100
0000
0010
1000
0000
1100
0000
0110
0000
0001
0000
1001
0000
,
0011
0110
1100
1010
0101
0011
0110
1100
,
1001
0000
0010
1000
0000
1000
0100
0000
0010
0001
0010
0001
0000
0100
0001
0000
,
1000
0100
0010
0001
0010
0100
1000
0000
0001
0010
0100
1000
0100
0010
0001
0000
,
0011
0000
1100
0000
0010
0000
0011
0000
1100
0000
0001
0100
1000
0100
0001
0000
,
0010
0000
0001
0100
1000
0100
0001
0000
1000
0010
0100
0010
1000
0100
0010
0001
,
0100
0000
0010
1000
0001
1000
0010
0000
1010
0000
1010
0000
1100
0000
0011
0000
,
0011
1001
0101
0101
0110
1001
1001
0110
,
1000
0000
1100
0000
0001
0000
0011
0000
0101
0000
0100
0010
1000
0001
0010
0000
,
0001
0100
1000
0100
0001
0000
0010
0000
1001
0000
1000
0100
0010
0100
0001
0000
,
0100
1000
0100
1000
0100
1000
0100
0000
0010
0001
0010
0001
0010
0001
0010
0000
,
0001
0100
0001
0100
0001
0100
0001
0000
1000
0010
1000
0010
1000
0010
1000
0000
,
0001
1000
0001
1000
0001
1000
0001
0000
0010
0100
0010
0100
0010
0100
0010
0000
,
0011
0101
1010
1100
0011
0101
1010
1100
,
0001
0010
0001
0010
0001
0010
0001
0010
0001
0100
0001
0100
0001
0100
0001
0100
,
0010
1000
0010
1000
0010
1000
0010
1000
0100
1000
0100
1000
0100
1000
0100
1000
,
0010
0001
1000
0100
0001
1000
0010
0100
0001
0010
1000
0010
1000
0100
0001
0100
,
1000
0001
0000
1000
0001
0000
1000
0001
0000
1000
0001
0000
1000
0001
1000
0001
,
0100
0000
0110
0010
1000
1001
0001
0100
,
0010
0000
1000
0100
0000
1000
0100
0000
0010
0000
0001
0100
0000
0000
0001
0100
,
0010
0000
0000
0000
0101
0000
0001
0000
1000
0000
1010
0000
0100
0010
0100
0000
,
1000
0010
1000
0010
1000
0010
1000
0000
0001
0100
0000
0001
0100
0001
0100
0001
,
0100
0010
1010
0001
1000
1100
0010
0100
,
0001
0000
0010
0001
0000
0001
1000
0000
0010
0000
1000
0100
0000
0100
1000
0010
,
0100
0000
0000
0000
1001
0000
0010
0000
0100
0000
1001
0000
1000
0001
1000
0001
,
0100
0000
0010
1000
0000
1000
0100
0000
0010
0000
0001
0100
0000
0001
0010
0001
,
1000
0000
0000
0000
;

//---------------dance-double - ----------------
#NOTES:
     dance-double:
     :
     Easy:
     6:
     :
00000000
00000000
00000000
00000000
,
00000000
00000000
00000000
00000000
,
00000000
00000000
00000000
00000000
,
00011000
00000000
00000000
00000000
00000000
00000000
00000000
00010000
,
00000100
00000010
00000001
00000000
,
00000010
00000000
00000100
00000000
,
00010000
00000000
00001000
00000000
,
01000000
00000000
00010000
00000000
,
10000000
00000000
00010000
00100000
,
00001000
00010000
00000000
00000100
,
00000000
00000010
00000000
00000100
,
00000000
00010000
00000000
00001000
,
00022000
00000000
00000000
00033000
,
00100000
00000000
10010000
00000000
,
00010000
00000000
00001000
00000000
,
00011000
00000100
00000000
00000010
,
00000000
00000100
00000000
00010000
,
00011000
00000000
00100000
00001000
,
00010000
00000000
00000100
00000000
,
00001000
00000000
00000010
00000000
,
00010000
00001000
00100000
01000000
,
20020000
00000000
00000000
00000000
,
00000000
00000000
00000000
00000000
00000000
30030000
00000000
10000000
,
00010000
02200000
00000000
00000000
,
03300000
00000000
00000000
00000000
00000000
00000000
00000000
00010000
,
00001000
00000000
00000000
00000000
,
00001100
00000000
00000000
00000000
,
00001001
00000000
00000101
00000000
,
00000010
00010000
00001000
01000000
,
00010000
00000000
00100000
01000000
,
00000000
10000000
00100000
10000000
,
00000000
00010000
00000000
01000000
,
00001000
00010000
00000010
00000100
,
00000100
00000010
00001000
00000100
,
00010000
00000000
00001000
00000000
,
00011000
00000000
01000000
00000000
,
00100000
00000000
00100000
00000000
,
10010000
00000000
01000000
00000000
,
01000000
00011000
00000000
00000100
,
00000010
00000100
00000010
00000100
,
00000010
00000100
00010000
00001000
,
00100000
00010000
01100000
10000000
,
01000000
00100000
00001000
00010000
,
00000100
00000010
00000001
00000010
,
00000100
00010000
00001000
00011000
,
00100000
01000000
10000000
01000000
,
00100000
00001000
00010000
00000100
,
00000010
00000001
00000001
00000001
,
00000010
00000100
00010000
00001000
,
01010000
10100000
10000000
01000000
,
00100000
00010000
00000000
10000000
,
00100000
01000000
00010000
00100000
,
02000000
00000000
00000000
03000000
,
10000000
01000000
00100000
01000000
,
00100000
00001000
00010000
00000100
,
00000000
00001000
00000000
00000100
,
00000010
00000100
00000010
00000100
,
00010000
00001000
00100000
01000000
,
00100000
00010000
00100000
00001000
,
00011000
00001100
00001000
00000100
,
00000010
00000001
00000010
00000100
,
00001001
00000000
00000000
00000000
;

//---------------dance-double - ----------------
#NOTES:
     dance-double:
     :
     Medium:
     8:
     :
00000000
00000000
00000000
00000000
,
00000000
00000000
00000000
00000000
,
00000000
00000000
00000000
00000000
,
10100000
00000000
00000000
00000000
00000000
00000000
00000000
10000000
,
00100000
01010000
00011000
00000000
,
00000100
00000000
00010000
00000000
,
00001000
00000000
01000000
00000000
,
00100000
00000000
01000000
00000000
,
00001000
00000000
00010000
00000100
,
00000010
00000001
00000000
00001000
,
00000000
00000010
00000000
00000100
,
00000000
00000010
00000000
00000100
,
00000220
00000000
00000000
00000330
,
00010000
00001000
00011000
00100000
,
00010000
00010000
10000000
10000000
,
10010000
01000000
00100000
01000000
,
00010000
00000000
00000000
00000000
10000000
00000000
00000000
00000000
01000000
00000000
00000000
00000000
10000000
00000000
00000000
00010000
,
10000000
00000000
00100000
01000000
,
00011000
00000100
00001100
00001000
,
00001000
00001000
00001100
00000000
,
00000100
00001000
00000100
00001000
00000001
00000100
00000001
00000100
,
00000202
00000000
00000000
00000000
,
00000000
00000000
00000000
00000000
00000000
00000303
00000000
00001000
,
00000001
00000220
00000000
00000000
,
00000330
00000000
00000000
00000000
00000000
00000000
00000000
00010000
,
00001000
00000000
00000000
00000000
,
00011000
00000000
00000000
00000000
,
01010000
00000000
11000000
00000000
,
01000000
10000000
01000000
10000000
00010000
01000000
00010000
01000000
,
00010000
01000000
00100000
01000000
,
00100000
01000000
00001000
00010000
,
00000000
00000010
00000000
00000100
,
00000010
00000000
00000000
00000000
00000100
00000000
00000000
00000000
00000010
00000000
00000000
00000000
00000100
00000000
00000000
00000010
,
00000100
00000010
00000001
00000100
,
00001000
00000100
00000010
00000001
,
00001001
00000110
00001000
00000100
,
00000010
00000000
00000000
00000000
00000001
00000000
00000000
00000000
00000010
00000000
00000000
00000000
00000100
00000000
00000000
00001000
,
00000001
00000100
00000010
00010000
,
00001000
00011000
01010000
01000000
,
00100000
01000000
00100000
00000000
,
00100000
00000000
00000000
00000000
01000000
00000000
00000000
00000000
00010000
00000000
00000000
00000000
10000000
00000000
00000000
01000000
,
00100000
10000000
01100000
10000000
,
01000000
00100000
00001000
00010000
,
00000100
00000010
00000001
00001000
,
00000100
00000010
00000001
00001000
,
00001001
00000000
00000000
00000000
00001000
00000100
00000010
00000000
,
00000001
00000000
00000100
00000000
00000001
00000010
00000100
00000000
,
00001001
00000100
00000100
00000100
,
00010000
00001000
01000000
00010000
,
01010000
10100000
10000000
01000000
,
00100000
00001000
00000000
00010000
,
00000010
00000100
00000001
00000010
,
00000100
00001000
00000100
00001000
00000001
00000100
00000001
00000100
,
00000001
00000010
00000100
00001000
,
00000100
00000010
00000001
00001000
,
00000000
00001000
00000000
00000100
,
00000010
00000000
00000000
00000000
00000100
00000000
00000000
00000000
00000010
00000000
00000000
00000000
00000100
00000000
00000000
00000010
,
00000100
00010000
00001000
01000000
,
00010000
00100000
01000000
10000000
,
10010000
01100000
10000000
01000000
,
00100000
00000000
00000000
00000000
00010000
00000000
00000000
00000000
00100000
00000000
00000000
00000000
00000000
00000000
00000000
00100000
,
10000000
00000000
00000000
00000000
;

//---------------dance-double - ----------------
#NOTES:
     dance-double:
     :
     Hard:
     12:
     :
00000000
00000000
00000000
00000000
,
00000000
00000000
00000000
00000000
,
00000000
00000000
00000000
00000000
00000000
00000000
00000000
00000000
10000000
01000000
10000000
01000000
10000000
01000000
10000000
01000000
,
10000000
00000000
00000000
00000000
00000000
00000000
00000000
00000100
,
00001000
00000000
00000000
00001000
00000000
00000000
00001000
00000000
00000000
00001000
00000100
00001000
00000100
00001000
00000100
00001000
,
00000100
00001100
00000010
00000110
,
00000100
00011000
01000000
01010000
,
00100000
00110000
00010000
01100000
,
10000000
00000000
00000000
00000000
11000000
00000000
00000000
00000000
00010000
00000000
00000000
00000000
10000000
00000000
00000000
00100000
,
00100000
00100000
01000000
11000000
,
01000000
00000000
01100000
00000000
00100000
00001000
00010000
00000000
,
00000010
00000100
00000100
00000000
00000010
00000010
00000100
00000000
,
00000002
00000000
00000000
00000000
00000000
00000000
00000000
00000000
00000003
00000000
00000000
00000000
00001000
00000100
00001000
00000100
,
00001000
00000100
00010000
00011000
,
00001000
00000000
00100000
00000000
00010000
00100000
01000000
00000000
,
11000000
00100000
00001000
00010000
,
00000100
00000000
00000000
00000000
00000010
00000000
00000000
00000000
00000100
00000000
00000000
00000000
00001000
00000000
00000000
00000010
,
00001000
00000000
00000100
00010000
,
00011000
00001000
00110000
10000000
,
10000000
10000000
00110000
00000000
,
00100000
00010000
00100000
00010000
00100000
00010000
00100000
00010000
00100000
00010000
00100000
00010000
00100000
00010000
00100000
00010000
,
02000000
00000000
00000000
00000000
,
00000000
00000000
00000000
00000000
00000000
00000000
03000000
00001000
,
00010000
00011000
00000000
00001100
,
00001001
00000000
00000101
00000000
00001010
00000000
00000000
00010000
,
00001000
00000000
00000000
00000000
,
00110000
00000000
10010000
10100000
,
01010000
01100000
00100000
00000000
,
10000000
01000000
00100000
00010000
00100000
01000000
10000000
00100000
,
10100000
11000000
00100000
01100000
,
00100000
01010000
00100000
00011000
,
00000100
00000000
00000010
00000000
00000100
00000100
00000100
00000000
,
00000010
00000010
00000100
00000010
00000100
00000010
00000100
00000010
,
00000100
00000011
00000100
00011000
,
00100000
00000000
00110000
00000000
00100000
01000000
10000000
00000000
,
00010000
00000000
01100000
00000000
10000000
00100000
01000000
00000000
,
00100000
00000000
01000000
00000000
00001000
00000000
00000000
00000000
00010000
00000000
00000010
00000000
00000100
00000000
00000000
00000010
,
00001000
00001100
00000010
00000100
,
00000010
00000000
00010000
00000000
00001000
00010000
00001000
00000000
,
00100000
00000000
01100000
00000000
00100000
01000000
10000000
00000000
,
00100000
00000000
00000000
00000000
01000000
00000000
00000000
00000000
00001000
00000000
00000000
00000000
00010000
00000000
00000000
00000100
,
00000010
00000001
00000110
00001000
,
00000100
00000000
00011000
00000000
00001000
00001000
00010000
00000000
,
00001000
00000000
00010000
00010000
00001000
00000000
00011000
00000000
,
00100000
00000000
01000000
10000000
01000000
00100000
00010000
00000000
,
00110000
00000000
11000000
00000000
10000000
01000000
00100000
00000000
,
00110000
00000000
00100000
00000000
00010000
01000000
00100000
00000000
,
10000000
11000000
01000000
01100000
,
00110000
01000000
00011000
00001000
,
00010000
00001100
00000011
00001100
,
00000010
00000000
00010000
00000000
00001000
00000000
00100000
01000000
,
00100000
01000000
00100000
00000000
00010000
00000000
01000000
00000000
,
00010000
00100000
01000000
10000000
01000000
00100000
00010000
01000000
,
00010000
01010000
00100000
01100000
,
10000000
00000000
10100000
00000000
00100000
00000000
10000000
01000000
,
00100000
00000000
00110000
00000000
01000000
00100000
01000000
00000000
,
00001000
00000000
00000000
00000000
00010000
00000000
00001000
00000000
00010000
00000000
00000000
00000000
00000100
00000000
00000000
00000010
,
00000100
00000000
00010000
00000000
00001000
00100000
00010000
00000000
,
10000000
00000000
01000000
00100000
00010000
00100000
01000000
00000000
,
10000000
10000000
00100000
00010000
10000000
00000000
00100000
00000000
,
01000000
00000000
00010000
00000000
00100000
00000000
00010000
00000000
00100000
01000000
00100000
01000000
00100000
01000000
00100000
01000000
,
10000000
00000000
00000000
00000000
;
