#VERSION:0.83;
#TITLE:MENDES;
#SUBTITLE:;
#ARTIST:Humanoid;
#TITLETRANSLIT:;
#SUBTITLETRANSLIT:;
#ARTISTTRANSLIT:;
#GENRE:;
#ORIGIN:;
#CREDIT:;
#BANNER:MENDES-bn.png;
#BACKGROUND:MENDES-bg.png;
#PREVIEWVID:;
#JACKET:MENDES-jacket.png;
#CDIMAGE:;
#DISCIMAGE:;
#LYRICSPATH:;
#CDTITLE:;
#MUSIC:MENDES.ogg;
#OFFSET:0.000000;
#SAMPLESTART:11.429000;
#SAMPLELENGTH:20.000000;
#SELECTABLE:YES;
#DISPLAYBPM:168.000000;
#BPMS:0.000=168.000;
#STOPS:;
#DELAYS:;
#WARPS:;
#TIMESIGNATURES:0.000=4=4,
32.000=2=4,
34.000=4=4,
106.000=3=4,
109.000=4=4,
117.000=3=4,
129.000=4=4,
241.000=3=4,
304.000=4=4;
#TICKCOUNTS:0.000=4;
#COMBOS:0.000=1;
#SPEEDS:0.000=1.000=0.000=0;
#SCROLLS:0.000=1.000;
#FAKES:;
#LABELS:0.000=Song Start;
#BGCHANGES:;
#KEYSOUNDS:;
#ATTACKS:
;

//---------------dance-single - ----------------
#NOTEDATA:;
#CHARTNAME:;
#STEPSTYPE:dance-single;
#DESCRIPTION:;
#CHARTSTYLE:;
#DIFFICULTY:Hard;
#METER:12;
#RADARVALUES:0.618250,0.658819,0.386250,0.324801,0.118508,493.000000,449.000000,44.000000,37.000000,0.000000,0.000000,0.000000,0.000000,0.000000,0.618250,0.658819,0.386250,0.324801,0.118508,493.000000,449.000000,44.000000,37.000000,0.000000,0.000000,0.000000,0.000000,0.000000;
#CREDIT:;
#DISPLAYBPM:168.000000;
#NOTES:
0000
0000
0000
0000
,
0000
0000
0000
0000
,
0000
0000
0000
0000
,
0000
0000
0000
0000
,
0010
0010
0010
0010
,
0010
0000
0010
0000
0010
1000
0001
1000
,
0100
0100
0100
0100
,
0100
1000
0010
0100
0001
0010
0001
1000
,
1100
0000
0101
0000
1001
0010
1000
0001
,
0010
0100
1000
0000
1010
0001
1000
0001
,
0010
0100
1000
0000
0011
0100
0001
0010
,
0001
0100
1000
0000
0110
0010
1000
0100
,
0010
0001
0100
0000
1001
0001
1000
0010
,
1000
0100
0001
0000
0011
0100
0001
0010
,
0100
1000
0001
0000
2100
0010
3010
0000
,
0201
0010
0310
0000
0001
0100
1000
0010
,
1000
0001
0100
0000
0110
0001
1000
0001
,
1000
0100
0010
0000
1100
0001
1000
0100
,
0001
0010
0100
0000
0011
0100
0010
0100
,
0001
0010
1000
0000
1010
0001
1000
0001
,
0010
1000
0100
0000
0110
0100
1000
0010
,
0100
0001
0010
0000
0101
1000
0001
1000
,
0010
1000
0100
0000
0012
0100
0103
0000
,
1020
0100
0130
0000
0001
1000
0100
1000
,
0010
0100
0001
0010
0100
0100
0110
0000
,
1001
0000
0010
1010
0000
0101
0000
0001
,
1000
1000
0000
0010
0010
0100
0001
0010
,
0100
1000
0001
0001
0011
0000
1100
0000
,
0010
1001
0000
1100
0000
0010
0010
1000
,
0000
0001
0001
0100
0001
0010
0100
1000
,
0010
0100
0010
1000
0010
0001
0100
0001
,
0100
0010
0100
1000
0001
0100
0001
1000
,
0001
0010
2020
0000
0000
0000
0000
0000
,
0000
0000
0000
0000
,
0030
0002
3000
0200
,
0003
0000
0000
0310
0000
0010
1000
0000
1000
0100
0000
0100
,
0001
0000
0001
0020
0000
0000
0030
0000
0000
2200
0000
0000
,
0300
0000
0000
3001
0000
0001
0100
0000
0100
0010
0000
0010
,
1000
0000
1000
0020
0000
0000
0100
0000
0000
0001
0000
0000
,
1030
0000
0000
0001
0000
0001
1000
0000
1000
0010
0000
0010
,
0100
0000
0100
0002
0000
0000
0003
0000
0000
1001
0000
0000
,
0110
0000
0000
0100
0000
0100
0001
0000
0001
0010
0000
0010
,
1000
0000
1000
0002
0000
0000
0000
0000
0000
0013
0000
0000
,
0000
0000
0001
1000
0000
0100
0000
1000
,
0001
0010
0100
0001
0000
0100
1000
0001
,
0000
0000
0010
0000
0100
0000
0001
0000
0000
0000
1000
0000
0010
0000
0000
0100
,
0000
0001
0012
0000
1003
0000
2100
0000
,
3001
0000
1010
0001
0100
0010
1000
0001
,
0100
0000
0001
0010
0010
0100
1000
1000
,
0001
0100
0010
1000
0100
0010
0001
0100
,
0110
0002
1000
0023
,
0130
0000
1100
0001
1000
0010
1000
0100
,
0001
0000
0010
0100
0100
1000
0001
0001
,
1000
0010
0100
0010
1000
0001
0010
0100
,
1000
0000
1002
0010
0013
0000
0102
1000
,
1003
0000
0000
0000
2010
0000
0001
0000
3001
0000
0000
0000
1000
0000
0000
0100
,
0000
0010
0002
0100
0103
0000
0021
0100
,
0130
0000
0000
0000
1200
0000
1000
0000
1300
0000
0000
0000
0001
0000
0000
0100
,
0000
0010
1000
0100
0010
0001
0100
0010
,
1000
0001
0020
0000
0030
0000
0101
0000
,
1100
0000
0010
0100
2000
0000
3001
1000
,
0001
0100
0020
0000
1030
0001
0010
1000
,
0002
0000
0103
0001
1000
0010
0200
0000
,
0301
0010
0100
1000
0002
0000
1003
0010
,
0001
0100
0020
0000
1030
0100
0010
0001
,
2000
0000
3001
0100
0001
0010
0200
0000
,
1300
0000
0001
0000
0010
0000
0001
0000
0100
0000
0000
0010
1000
0000
0001
0000
,
1000
0000
0100
0000
0010
0000
0000
0001
1000
0000
0010
0000
1000
0000
0100
0000
,
0001
0000
0000
0010
0100
0000
1000
0000
0100
0000
0010
0000
0100
0000
0000
1000
,
0001
0000
0010
0000
0001
0000
0100
0000
1000
0000
0000
0001
0010
0000
0100
0000
,
1000
0000
0001
0000
1000
0000
0000
0010
0100
0000
0001
0000
0010
0000
0100
0000
,
1000
0000
0001
0100
0001
0000
1000
0000
0100
0000
0010
0000
0001
0000
1000
0010
,
1000
0100
0010
0001
0010
1000
0010
0100
,
0001
0010
0001
0100
0001
1000
0100
0001
,
0100
1000
0100
0010
2002
0000
0000
0000
,
0000
0000
0003
3010
,
0220
0000
0000
0000
,
0000
0000
0000
0000
,
0000
0000
0000
0000
,
0330
0000
0000
0000
;

//---------------dance-single - ----------------
#NOTEDATA:;
#CHARTNAME:;
#STEPSTYPE:dance-single;
#DESCRIPTION:;
#CHARTSTYLE:;
#DIFFICULTY:Medium;
#METER:10;
#RADARVALUES:0.485320,0.580142,0.368693,0.711050,0.013168,387.000000,345.000000,42.000000,81.000000,0.000000,0.000000,0.000000,0.000000,0.000000,0.485320,0.580142,0.368693,0.711050,0.013168,387.000000,345.000000,42.000000,81.000000,0.000000,0.000000,0.000000,0.000000,0.000000;
#CREDIT:;
#DISPLAYBPM:168.000000;
#NOTES:
0000
0000
0000
0000
,
0000
0000
0000
0000
,
0000
0000
0000
0000
,
0000
0000
0000
0000
,
0010
0010
0010
0010
,
0010
0000
0010
0000
0010
1000
0001
1000
,
0100
0100
0100
0100
,
0100
1000
0001
0000
0100
0010
1000
0000
,
1100
0101
1001
0001
,
0100
0010
1000
0000
1010
0000
0100
0000
,
0010
0001
1000
0000
0011
0000
0010
0000
,
0001
0100
1000
0000
0110
0000
0010
0000
,
1000
0100
0001
0000
0101
0000
0010
0000
,
0100
0001
1000
0000
1010
0000
0001
0000
,
1000
0100
0010
0000
0012
0000
0103
0000
,
2100
3001
1001
0110
,
1000
0100
0010
0001
0020
0000
1000
0000
,
0031
0100
0010
0000
2000
0000
0100
0000
,
3001
1000
0010
0000
0200
0000
0010
0000
,
0301
1000
0100
0000
0002
0000
0010
0000
,
0103
0010
1000
0000
1010
0000
0010
0000
,
1000
0001
0100
0000
0011
0000
1000
0000
,
0100
0010
0001
0000
0201
0000
0310
0000
,
0120
1030
1010
1001
,
1000
0100
0010
0001
0100
0010
1000
0000
,
1000
0000
1000
0001
0000
0010
0000
0001
,
1000
0001
0000
0100
0010
1000
0002
0000
,
2003
0000
3010
1000
0001
0000
0001
0000
,
0001
0010
0000
0001
0000
0100
0010
1000
,
0000
0100
1000
0001
0200
0000
0320
0000
,
1030
0100
1000
0100
1000
0000
0001
0100
,
0001
0100
0001
0000
0010
0100
0010
0100
,
0010
0022
0000
0000
,
0000
0000
0000
0000
,
0030
2000
0003
0200
,
3300
2000
3002
2003
,
3200
0320
0030
1001
,
0000
0002
0203
0320
,
2030
3002
0100
1000
,
0103
0020
0230
0302
,
2003
3200
0300
1100
,
0000
0020
2030
3002
,
2003
3200
0300
0110
,
0000
0000
0002
0000
0000
2003
0000
0000
,
3010
2010
3001
0102
,
0103
0000
0000
0000
1002
0000
0000
0000
1003
0000
0000
0000
0010
0000
0000
0100
,
0000
0001
2000
0002
3003
0000
0120
0000
,
0130
0000
2010
0000
3001
2000
0010
0000
,
3100
0000
1000
0010
1000
0010
0100
0001
,
0100
0000
0012
0000
1003
0020
0001
0000
,
0130
1100
0101
0011
,
1010
0000
0102
0000
0103
0020
0001
0000
,
1030
0000
0010
0100
0010
0100
0001
1000
,
0001
0000
2100
0000
3001
0200
1000
0000
,
0310
1002
0103
0120
,
1030
0000
0000
0000
2200
0000
0000
0000
0300
0000
0000
0000
3001
0000
0000
1000
,
0000
0001
0200
0000
0301
0000
0020
0000
,
1030
0000
0000
0000
0202
0000
0000
0000
0003
0000
0000
0000
0310
0000
0000
0100
,
0000
0010
2000
0000
3100
0000
0002
0000
,
0013
0200
0300
1010
,
0011
0000
1000
0100
0020
0000
0031
0000
,
0100
0010
2000
0000
3001
0000
1000
0001
,
0020
0000
0130
0000
0010
0001
0200
0000
,
1300
0000
0100
0001
2000
0000
3010
0000
,
0001
0010
0200
0000
1300
0000
0010
1000
,
0002
0000
0103
0000
1000
0010
0200
0000
,
0301
0000
0010
0001
0200
0000
0301
1000
,
0010
0100
0002
0000
1003
0001
1000
0100
,
0020
0000
0031
0100
0001
0010
0200
0000
,
1300
0001
1000
0010
2000
0000
3001
0100
,
0010
0100
0020
0000
1030
0001
1000
0100
,
1000
0100
1000
0100
0010
0001
0010
0001
,
0010
0001
0100
0010
0100
0010
0100
0000
,
0001
0010
0001
0010
0001
0000
1000
0010
,
1000
0010
1000
0000
2002
0000
0000
0000
,
0000
0000
0003
3010
,
0220
0000
0000
0000
,
0000
0000
0000
0330
;

//---------------dance-single - ----------------
#NOTEDATA:;
#CHARTNAME:;
#STEPSTYPE:dance-single;
#DESCRIPTION:;
#CHARTSTYLE:;
#DIFFICULTY:Easy;
#METER:7;
#RADARVALUES:0.316022,0.409512,0.228238,0.333579,0.000000,252.000000,226.000000,26.000000,38.000000,0.000000,0.000000,0.000000,0.000000,0.000000,0.316022,0.409512,0.228238,0.333579,0.000000,252.000000,226.000000,26.000000,38.000000,0.000000,0.000000,0.000000,0.000000,0.000000;
#CREDIT:;
#DISPLAYBPM:168.000000;
#NOTES:
0000
0000
0000
0000
,
0000
0000
0000
0000
,
0000
0000
0000
0000
,
0000
0000
0000
0000
,
0010
0000
0000
0000
,
0000
0000
1000
0001
,
0100
0000
0100
0000
,
0100
0010
1000
0001
,
0020
0030
1001
0100
,
0010
1000
0100
0010
,
0001
0100
0001
0010
,
0001
1000
0010
0100
,
0010
1000
1100
0001
,
1000
0100
0011
0010
,
0001
1000
0002
0003
,
2000
3000
0020
0030
,
1000
0001
0110
0100
,
0010
1000
0001
1000
,
0100
0010
0100
1000
,
0010
0100
0001
0010
,
0001
1000
1010
0001
,
1000
0100
0101
0010
,
0100
1000
0020
0030
,
0200
0300
0001
0001
,
1000
1000
0010
1001
,
1001
0100
0001
1000
,
1100
0000
0010
2000
,
3002
0103
0110
0110
,
0001
0010
1000
1010
,
0000
1000
0020
0230
,
0301
0001
0001
0010
,
0010
0010
0100
0100
,
0100
2200
0000
0000
,
0000
0000
0000
0000
,
0300
0002
3000
0020
,
0033
1000
0001
1000
,
0100
0010
0000
0110
,
0000
0001
0100
0010
,
1000
0001
0000
0011
,
0000
1000
0001
0010
,
0001
0100
0000
0110
,
0000
0010
1000
0001
,
0100
0001
0000
1001
,
0000
1100
0000
0000
,
0001
0020
0030
0200
,
0300
1000
0000
0010
,
0100
0002
0003
2000
,
3000
0000
0020
0000
0000
0200
0000
0000
,
0000
0330
0001
0010
,
1000
0000
0200
0000
0000
0020
0000
0000
,
0330
0001
0101
1000
,
1100
0000
0002
0000
0000
2000
0000
0000
,
0000
3003
0010
1000
,
0100
0000
0020
0000
0000
0002
0000
0000
,
0033
0200
0300
0020
,
0030
2000
3000
0020
,
0130
0110
0000
1001
,
0000
0002
0003
2000
,
3100
1001
0000
0110
,
0000
0020
0000
2030
,
3001
0100
0010
1000
,
0100
0010
0001
1000
,
0001
0100
0010
1000
,
0001
1000
0100
0010
,
0001
0100
0010
0100
,
0001
1000
0010
1000
,
0100
1000
1000
0001
,
0010
0010
0100
0001
,
0001
1000
0100
0100
,
0010
0001
0100
1000
,
0010
1000
0001
1000
,
0100
0010
0001
0100
,
0010
1000
1000
1000
,
0001
0001
0001
0100
,
0100
0100
2002
0000
,
0000
0000
0000
3003
,
0220
0000
0000
0000
,
0000
0000
0000
0330
;

//---------------dance-single - ----------------
#NOTEDATA:;
#CHARTNAME:;
#STEPSTYPE:dance-single;
#DESCRIPTION:;
#CHARTSTYLE:;
#DIFFICULTY:Beginner;
#METER:2;
#RADARVALUES:0.141708,0.233505,0.070227,0.000000,0.000000,113.000000,105.000000,8.000000,0.000000,0.000000,0.000000,0.000000,0.000000,0.000000,0.141708,0.233505,0.070227,0.000000,0.000000,113.000000,105.000000,8.000000,0.000000,0.000000,0.000000,0.000000,0.000000,0.000000;
#CREDIT:;
#DISPLAYBPM:168.000000;
#NOTES:
0000
0000
0000
0000
,
0000
0000
0000
0000
,
0000
0000
0000
0000
,
0000
0000
0000
0000
,
0010
0000
0000
0000
,
0000
0000
1000
0000
,
0100
0000
0100
0000
,
0100
0000
0010
0000
,
0000
0000
1001
0000
,
0000
0000
0010
0000
,
0000
0000
1000
0000
,
0000
0000
0100
0000
,
0000
0000
0010
0000
,
0000
0000
0001
0000
,
0000
0000
0100
0000
,
0100
0000
0100
0000
,
0010
0000
0110
0000
,
0000
0000
1000
0000
,
0000
0000
0001
0000
,
0000
0000
1000
0000
,
0000
0000
0010
0000
,
0000
0000
0100
0000
,
0000
0000
0001
0000
,
0001
0000
0001
0000
,
1000
0000
0010
0010
,
0010
0000
0100
0100
,
0100
0000
0001
0000
,
0000
1000
1000
1000
,
0000
0001
0001
0001
,
0000
0100
0000
0000
,
0010
0000
0000
1000
,
0000
0000
0001
0000
,
0000
1001
0000
0000
,
0000
0000
0000
0000
,
0000
0010
0000
0010
,
0000
0110
0000
0000
,
0000
0000
0000
0000
,
0000
1000
0000
0000
,
0000
0000
0000
0000
,
0000
0001
0000
0000
,
0000
0000
0000
0000
,
0000
0100
0000
0000
,
0000
0000
0000
0000
,
0000
0010
0000
0000
,
0000
1000
0000
0001
,
0000
1000
0000
0000
,
0000
0010
0000
0100
,
0000
0001
0000
0001
,
0000
0000
0000
1000
,
0000
0010
0000
0010
,
0000
0100
0000
0001
,
0000
0010
0000
0010
,
0000
0000
0000
0001
,
0000
0100
0000
0100
,
0000
0001
0000
1000
,
0000
1001
0000
0000
,
0000
1000
0000
0010
,
0000
0110
0000
0000
,
0000
0100
0000
0001
,
0000
0000
0000
0000
,
0000
0010
0000
0000
,
0001
0000
0000
0010
,
0000
0000
0100
0000
,
0000
1000
0000
0000
,
0100
0000
0000
1000
,
0000
0000
0001
0000
,
0000
1000
1000
0000
,
0010
0010
0000
0100
,
0100
0000
0001
0001
,
0000
0010
0010
0000
,
0001
0001
0000
0100
,
0100
0000
1000
1000
,
0000
0010
0000
0000
,
1000
0000
0000
0001
,
0000
0000
1001
0000
,
0000
0000
0000
0000
,
0110
0000
0000
0000
;

//---------------dance-single - ----------------
#NOTEDATA:;
#CHARTNAME:;
#STEPSTYPE:dance-single;
#DESCRIPTION:;
#CHARTSTYLE:;
#DIFFICULTY:Challenge;
#METER:17;
#RADARVALUES:0.922986,1.144264,0.667158,0.307244,0.921732,736.000000,660.000000,76.000000,35.000000,0.000000,0.000000,0.000000,0.000000,0.000000,0.922986,1.144264,0.667158,0.307244,0.921732,736.000000,660.000000,76.000000,35.000000,0.000000,0.000000,0.000000,0.000000,0.000000;
#CREDIT:;
#DISPLAYBPM:168.000000;
#NOTES:
// measure 0
0000
0000
0000
0000
,  // measure 1
0000
0000
0000
0000
,  // measure 2
0000
0000
0000
0000
,  // measure 3
0000
0000
0000
0000
,  // measure 4
0010
1000
0000
0000
0010
1000
0000
0000
0010
0001
0000
0000
0010
0001
0000
0000
,  // measure 5
0010
1000
0000
0000
0010
0001
0000
0000
0010
1000
0010
0100
0010
0001
0010
0000
,  // measure 6
1000
0100
0010
0000
0001
0000
0100
0000
0001
0010
0100
0000
1000
0000
0010
0000
,  // measure 7
0100
0001
0100
0010
1000
0100
0010
0001
0100
0010
1000
0001
1000
0010
1000
0000
,  // measure 8
0001
0010
0100
1000
0001
0010
0100
1000
0010
0000
0000
0000
0100
0001
0000
0000
,  // measure 9
1000
0010
0000
0000
0100
0010
0000
0000
1000
0001
0100
0001
1000
0000
0000
0000
,  // measure 10
0001
0010
0000
0000
0100
1000
0000
0000
0010
1000
0100
1000
0010
0000
0000
0000
,  // measure 11
0100
0001
0000
0000
1000
0001
0000
0000
0010
0001
0100
0000
0010
1000
0100
0000
,  // measure 12
0010
0001
1000
0000
0100
1000
0001
0000
0100
0010
1000
0010
0100
0000
0000
0000
,  // measure 13
0001
0010
0000
0000
0001
1000
0000
0000
0001
0100
0010
0100
0001
0000
0000
0000
,  // measure 14
1000
0100
0000
0000
1000
0010
0000
0000
0100
0001
0100
0000
0010
1000
0010
0000
,  // measure 15
1000
0100
1000
0000
0001
0010
0001
0000
1000
0100
0010
0000
0001
0100
0010
0000
,  // measure 16
1000
0001
0100
0000
0001
1000
0010
0000
0100
0001
0010
0001
1000
0000
0000
0000
,  // measure 17
0100
0010
0001
0000
1000
0000
0000
0000
0010
1000
0010
0000
1000
0010
1000
0000
,  // measure 18
0001
0100
0001
0000
0100
0001
0100
0000
0001
0010
0100
1000
0001
0000
0000
0000
,  // measure 19
0100
0010
0000
0000
0100
0001
0000
0000
1000
0010
0100
0001
1000
0000
0100
0000
,  // measure 20
1000
0010
0100
0000
0001
0000
1000
0000
0100
0010
0001
0010
0100
0000
0000
0000
,  // measure 21
1000
0001
1000
0000
0010
0000
0000
0000
0100
0001
1000
0000
0010
1000
0100
0000
,  // measure 22
0010
0001
0010
0000
0100
1000
0001
0000
0100
0010
0100
0000
0010
0100
0010
0000
,  // measure 23
1000
0001
1000
0000
0001
1000
0001
0000
0010
0001
0100
0000
0010
1000
0100
0000
,  // measure 24
0010
0001
0100
0000
0010
1000
0100
0000
1001
0000
0110
0000
1001
0000
0000
0000
,  // measure 25
1010
0000
0101
0011
0000
1100
0000
0011
,  // measure 26
0110
0000
1100
0000
0000
0000
1010
0000
0101
0000
1100
0000
0001
0010
0100
0010
,  // measure 27
0001
0100
0010
0100
0001
0000
1001
0000
1010
0000
0000
0000
0110
0000
0000
0000
,  // measure 28
0101
1100
0000
0011
0000
0101
1001
1010
,  // measure 29
0000
0000
0110
0000
0101
0000
1001
0000
0010
1000
0001
0100
0010
1000
0001
0100
,  // measure 30
0001
0010
0001
0010
0001
0010
0001
0010
0001
0010
0001
0010
0001
0100
0001
0100
,  // measure 31
0001
0100
0001
0100
0001
0100
0001
0100
0001
1000
0001
1000
0001
1000
0001
1000
,  // measure 32
0001
1000
0001
1000
0020
0000
0000
0000
0000
0000
0000
0000
0000
0000
0000
0000
,  // measure 33
0000
0000
0000
0000
,  // measure 34
0000
0200
0300
0200
,  // measure 35
0300
0000
0000
1030
0010
0100
0001
0010
0100
1000
0010
1000
,  // measure 36
0100
0010
0001
0200
0000
0000
0300
0000
0000
0202
0000
0000
,  // measure 37
0303
0000
0000
0001
0010
0100
0010
0001
1000
0010
1000
0100
,  // measure 38
1000
0001
0100
0020
0000
0000
2030
0000
0000
3200
0000
0000
,  // measure 39
0302
0000
0000
0013
1000
0001
0010
0100
1000
0010
0100
0001
,  // measure 40
1000
0001
0100
0020
0000
0000
0030
0000
0000
2010
0000
0000
,  // measure 41
3200
0000
0000
0310
0001
1000
0001
0100
0010
1000
0100
1000
,  // measure 42
0001
0010
0100
2000
0000
0000
3000
0000
0000
0220
0000
0000
,  // measure 43
0330
0000
0000
0000
0001
1000
0001
0000
0100
0000
0010
0000
1000
0000
0100
0000
,  // measure 44
0001
0000
0000
0000
0010
0001
0010
0000
0100
0000
1000
0000
0010
0100
0010
0000
,  // measure 45
1000
0000
0000
0000
0001
0100
0001
0000
0010
0000
0000
0000
0100
1000
0000
0100
,  // measure 46
1000
0001
0011
1100
0010
0100
1001
0001
,  // measure 47
1000
0000
2010
0000
3001
2100
0010
0000
,  // measure 48
3100
0000
0001
0000
1000
0000
0002
0000
0023
0000
0230
0000
1300
0010
2000
0000
,  // measure 49
3002
0000
0203
0000
0310
1000
0100
0000
0010
0000
0011
0000
0001
0000
0100
0000
,  // measure 50
1000
0000
0000
0000
1100
0000
0010
0000
0101
0000
0000
0000
1000
0100
0010
0000
,  // measure 51
0001
0001
0011
1000
0010
0101
1000
0100
,  // measure 52
0001
0000
0000
0010
0100
0000
0020
0000
0032
0000
2003
0000
3010
0100
0002
0000
,  // measure 53
2003
0000
3200
0000
0310
0000
0001
0000
0100
0000
0110
0000
0001
1000
0001
0000
,  // measure 54
0010
0100
1100
1010
0001
0100
1001
0010
,  // measure 55
1000
0000
0100
0010
0001
0000
0100
0000
1000
0000
0000
0000
0010
0000
1000
0001
,  // measure 56
0000
0001
0100
0000
1010
0000
0100
0000
0001
0000
0010
0000
0100
1000
0001
0000
,  // measure 57
0100
0000
0000
0000
0101
0000
0010
0000
1000
0000
0000
0000
1100
0000
0010
0001
,  // measure 58
0000
1000
0001
0000
0110
0000
1001
0000
0110
0000
0010
1000
0100
0010
0001
0000
,  // measure 59
0100
0000
0200
0000
0020
0300
0000
0000
0030
0000
0000
0000
0101
0000
0000
0000
,  // measure 60
1100
0000
0000
0000
0010
0000
0010
0000
0010
0000
1000
0001
0100
0001
1000
0000
,  // measure 61
0100
0000
0100
0000
0100
0000
0010
0001
1000
0001
0010
0000
0001
0000
0001
0000
,  // measure 62
0001
0000
0010
1000
0100
1000
0010
0000
1000
0000
1000
0000
1000
0000
0100
0010
,  // measure 63
0001
0010
0100
0000
1000
0000
1000
0000
1000
0000
0001
0010
0100
0010
0001
0000
,  // measure 64
0100
0000
0100
0000
0100
0000
0001
1000
0010
1000
0001
0000
0010
0000
0010
0000
,  // measure 65
0010
0000
0100
1000
0001
1000
0100
0000
0001
0000
0001
0000
0001
0000
1000
0100
,  // measure 66
0010
0100
1000
0000
1010
0000
1010
0000
1010
0000
0100
0001
0100
0010
1000
0000
,  // measure 67
0101
0000
0101
0000
0101
0000
1000
0001
0010
0001
0100
0000
0110
0000
0110
0000
,  // measure 68
0110
0000
0100
0001
0010
0100
1000
0000
1100
0000
1100
0000
1100
0000
0010
0100
,  // measure 69
1000
0001
0100
0000
0011
0000
0011
0000
0011
0000
0100
0010
1000
0001
0100
0000
,  // measure 70
1001
0000
1001
0000
1001
0000
0001
0010
0100
1000
0001
0000
0011
0000
0110
0000
,  // measure 71
1100
0000
0010
1000
0001
1000
0100
0000
1010
0000
1001
0000
0101
0000
0010
0100
,  // measure 72
0010
0001
1000
0000
0001
0010
0001
0010
0001
0010
0001
0010
0001
0010
0001
0010
,  // measure 73
0001
0100
0001
0100
0001
0100
0001
0100
0001
0100
0001
0100
0001
1000
0001
1000
,  // measure 74
0001
1000
0001
1000
0001
1000
0001
1000
0020
0000
0000
0000
0000
0000
0000
0000
,  // measure 75
0000
0000
0030
1001
,  // measure 76
0220
0000
0000
0000
,  // measure 77
0000
0000
0000
0000
,  // measure 78
0000
0000
0000
0000
,  // measure 79
0330
0000
0000
0000
;
