#TITLE:MEMORIES;
#ARTIST:NAOKI feat. PAULA TERRY;
#BANNER:MEMORIES.png;
#BACKGROUND:MEMORIES-bg.png;
#JACKET:MEMORIES-jacket.png;
#MUSIC:MEMORIES.ogg;
#SAMPLESTART:41.407;
#SAMPLELENGTH:20;
#DISPLAYBPM:145;
#BPMS:0=142.4,4=145;
#BGCHANGES:;

//---------------dance-single - ----------------
#NOTES:
     dance-single:
     :
     Beginner:
     2:
     :
0000
0000
0000
0000
,
0000
0000
0000
0000
,
0000
0000
0000
0000
,
0000
0000
0000
0000
,
0000
0000
0000
0000
,
1000
0000
0100
0000
,
0001
0000
0100
0000
,
1000
0000
0100
0000
,
0001
0000
0100
0000
,
1000
0000
0000
0000
,
0100
0000
0000
0000
,
0001
0000
0000
0000
,
0010
0000
0000
0000
,
1000
0000
0000
0000
,
0100
0000
0000
0000
,
0001
0000
0000
0000
,
0010
0000
0000
0000
,
0010
0000
1000
0000
,
0010
0000
1000
0000
,
0001
0000
0100
0000
,
0001
0000
0100
0000
,
0010
0000
0100
0000
,
0010
0000
0100
0000
,
1000
0000
0001
0000
,
1000
0000
0001
0000
,
1000
0000
0000
0000
,
0001
0000
0000
0000
,
0010
0000
0000
0000
,
1000
0000
0000
0000
,
1000
0000
1000
0000
,
1000
0000
1000
0000
,
0010
0000
0100
0000
,
0001
0000
1000
0000
,
0100
0000
0000
0000
,
0100
0000
0000
0000
,
0001
0000
0000
0000
,
1000
0000
0000
0000
,
0010
0000
0010
0000
,
0100
0000
0100
0000
,
1000
0000
1000
0000
,
0001
0000
0001
0000
,
1000
1000
1000
0000
,
0100
0100
0100
0000
,
0001
0001
0001
0000
,
0010
0010
0010
0000
,
1000
0000
0001
0000
,
1000
0000
0001
0000
,
1000
0000
0010
0000
,
0100
0000
0001
0000
,
1001
0000
0100
0000
,
0010
0000
1000
0000
,
0001
0000
0100
0000
,
0010
0000
0100
0000
,
0001
0000
1000
0000
,
0010
0000
0100
0000
,
0010
0000
1000
0000
,
0100
0000
0001
0000
,
0100
0000
0000
0000
;

//---------------dance-single - ----------------
#NOTES:
     dance-single:
     :
     Easy:
     4:
     :
0000
0000
0000
0000
,
0000
0000
0000
0000
,
0000
0000
0000
0000
,
0000
0000
0000
0000
,
0000
0000
0000
0000
,
1001
0000
1000
1000
,
0100
0000
0001
0001
,
0100
0000
0010
0010
,
1000
0000
0010
0010
,
0001
0000
1000
0000
,
0001
1000
0001
0000
,
0010
0000
0100
0000
,
0010
0100
0010
0000
,
1000
0000
1000
0000
,
0001
0001
0001
0000
,
1000
0000
0100
0000
,
1000
1000
1000
0100
,
0001
0000
1000
0000
,
0010
1000
0100
0001
,
0010
0000
0100
0000
,
0001
1000
0100
0000
,
1000
0000
0100
0000
,
0010
0010
0001
0100
,
0001
0000
1000
0000
,
0100
0000
0000
0000
,
0001
0000
0001
0000
,
0001
0000
0001
0000
,
1000
0000
1000
0000
,
1000
0000
1000
0000
,
0001
1000
0000
0000
,
1000
1100
0000
0000
,
0001
0101
0000
0000
,
0010
0100
0000
1000
,
1000
0000
0000
0000
,
0100
0000
0000
0000
,
0001
0000
0000
0000
,
0100
0000
0000
0000
,
1000
0001
0000
1000
,
0001
0100
0000
1000
,
0001
0100
1000
0000
,
1000
0001
0100
1000
,
0001
0000
0000
0000
,
1000
0000
0000
0000
,
0100
0000
0000
0000
,
0010
0000
0000
0000
,
1000
0001
1000
0000
,
0010
1000
0010
0000
,
0001
0000
0001
0000
,
1000
1000
0001
0000
,
0010
0001
0100
0000
,
0010
1000
0100
0000
,
1000
0000
0001
0000
,
1000
0100
1000
0000
,
0001
0100
0001
0000
,
1000
0001
0000
0010
,
0100
0000
0100
0000
,
0010
1000
0001
0100
,
0001
0000
0000
0000
,
0000
0000
0000
0000
;

//---------------dance-single - ----------------
#NOTES:
     dance-single:
     :
     Medium:
     8:
     :
0000
0000
0000
0000
,
0000
0000
0000
0000
,
0000
0000
0000
0000
,
0000
0000
0000
0000
,
0000
0000
0000
0000
,
0010
0000
1100
0000
0001
1000
0100
0000
,
0010
0000
0101
0000
1000
0001
0100
0000
,
0010
0000
1001
0000
0001
1000
0001
0000
,
0010
0000
0010
0000
0100
1000
0001
0000
,
1000
0000
1000
1000
,
0010
0000
0001
0000
1000
0100
1000
0000
,
1000
0000
0001
0100
,
0010
0000
1000
0000
0010
0001
0010
0000
,
0010
0000
1000
0100
,
1000
0000
1000
0000
0001
0010
0100
0000
,
1000
1000
0000
0000
0010
0010
0000
0000
,
0100
0100
0000
0000
0001
1000
0010
0000
,
0010
0000
0000
0001
1000
0000
0100
0000
,
0000
1000
0000
0001
0010
0100
1000
0000
,
1000
0000
0000
0010
0100
0000
0001
0000
,
0000
0010
0000
0010
0100
1000
0001
0000
,
0001
0000
0100
0000
0010
1000
0100
0000
,
1000
0000
0100
0000
0010
0001
0100
0000
,
0001
1000
0100
0000
1000
0001
0100
0000
,
0010
1000
0100
0000
,
1000
0000
0000
0001
0001
0000
0000
0000
,
0001
0000
0000
0100
0100
0000
0000
0000
,
1000
0000
0000
0010
0010
0000
0000
0000
,
0100
0000
0000
1000
1000
0000
1000
0000
,
0010
1000
0100
0000
1000
0000
1100
0000
,
1000
0100
1000
0000
0001
0000
0101
0000
,
0010
0100
0001
0000
1000
0000
1100
0000
,
1000
1000
0001
0100
,
0010
0000
1000
0000
,
0001
0000
1000
1000
,
0010
0000
1000
0000
,
0100
0000
0001
0100
,
1000
0100
1000
0000
0001
0000
0100
0000
,
0100
1000
0100
0000
0001
0000
0010
0000
,
0100
0010
0001
0000
1000
0000
0010
0000
,
0001
0010
0100
0000
1000
0000
1000
0000
,
0001
1000
0001
1000
,
1000
0000
0001
0000
1000
0100
1000
0000
,
0010
0100
0010
0100
,
0100
0000
0010
0000
0010
1000
0010
0000
,
0010
1000
0100
0000
0001
0000
0100
0000
,
0010
1000
0100
0000
0001
0000
0100
0000
,
0010
0001
0100
0000
1000
0000
0100
0000
,
0010
0001
0100
0000
1000
0000
0100
0000
,
1000
0001
0100
0000
0010
0000
1000
0000
,
1000
0001
0100
0000
0010
0000
1000
0000
,
0001
1000
0100
0000
0010
0000
0001
0000
,
0001
1000
0100
0000
0010
0000
0001
0000
,
0010
1001
1000
0100
,
0010
1001
0001
0100
,
0010
1000
0100
0000
0010
1000
0100
0000
,
0010
0001
0100
0000
0010
1000
0001
0100
,
0001
0000
0000
0000
;

//---------------dance-single - ----------------
#NOTES:
     dance-single:
     :
     Hard:
     12:
     :
0000
0000
0000
0000
,
0000
0000
0000
0000
,
0000
0000
0000
0000
,
0000
0000
0000
0000
,
0000
0000
0000
0000
,
0010
1000
0100
0000
0010
1000
0100
0000
,
0001
1000
0100
0000
0010
0000
0101
0000
,
0001
1000
0100
0000
0100
1000
0001
0000
,
0000
0000
0010
0000
0000
0001
0000
0000
1000
0000
0100
0000
1000
0000
0000
0000
,
0010
0000
0000
0000
0000
0000
1000
0000
0001
0000
0000
0100
0000
0000
0100
0000
,
0010
0000
0000
0001
0000
0000
0100
0000
0001
0010
0000
0100
0000
0000
0000
0000
,
1000
0000
0000
0000
0000
0000
0001
0000
0100
0000
0000
1000
0000
0000
1000
0000
,
0100
0000
0000
0010
0000
0000
0100
0000
1000
0001
0000
0100
0000
0000
0000
0000
,
0010
0000
0000
0000
0000
0000
0100
0000
0010
0000
0000
1000
0000
0000
0100
0000
,
0001
0000
0000
0010
0000
0000
0100
0000
0001
1000
0000
0100
0000
0000
0000
0000
,
1000
0001
0000
0010
0001
0100
0000
1000
,
1000
0000
0000
0100
0000
0000
1000
0100
1000
0000
0000
0000
0010
0000
0000
0000
,
1100
0000
0000
0000
0000
0000
1000
0000
0100
0000
0000
0100
0000
0000
0010
0000
,
0000
0001
0000
0100
0000
1000
0100
0000
,
1000
0000
0010
0100
0000
0001
0010
0100
,
0000
0000
1000
0000
0000
0000
0001
0000
0100
0000
0000
0100
0000
0000
0001
0000
,
0010
0100
1000
0000
1000
0010
0100
0000
,
0010
0000
0001
0000
0100
0000
0000
0000
0001
1000
0000
0100
0000
0000
1000
0000
,
0001
0000
0000
0010
0000
0000
1000
0000
0100
0000
0000
0001
0000
0000
0100
0000
,
1000
0000
0000
0000
,
0001
0000
1000
0000
0000
0100
0000
0000
1000
0000
0000
0010
0000
0000
0100
0000
,
0001
0000
0010
0000
0000
0010
0000
0000
1000
0000
0000
0100
0000
0000
1000
0000
,
1000
0000
1000
0000
0000
0100
0000
0000
0010
0000
0000
0001
0000
0000
0010
0000
,
0100
0000
1000
0001
0000
0010
0000
0010
,
0000
0000
1000
0000
0000
0100
0000
0000
0001
0000
0000
1000
0000
0000
0100
0000
,
0000
0000
0100
0000
0000
1000
0000
0000
1000
0000
0000
1000
0000
0000
0100
0000
,
0000
0000
0010
0000
0000
0001
0000
0000
0100
0000
0000
1000
0000
0000
0100
0000
,
0100
0000
1000
0001
0000
1000
0000
0001
,
0100
0000
0000
0100
0000
0000
1000
0000
0100
0000
0000
0100
0000
0000
0010
0000
,
0001
0000
0000
1000
0000
0000
0100
0000
0010
0000
0000
0001
0000
0000
1000
0000
,
0100
0000
0000
0100
0000
0000
0010
0000
0001
0000
0000
0001
0000
0000
1000
0000
,
0100
0000
0000
0010
0000
0000
0001
0000
0001
0000
0000
1000
0000
0000
0100
0000
,
0010
0000
1000
0000
1000
0000
0000
0000
0001
1000
0000
1000
0000
0000
0000
0000
,
0010
0000
1000
0000
0100
0000
0000
0000
0010
1000
0000
1000
0000
0000
0000
0000
,
1000
0000
0010
0000
0100
0000
0000
0000
0001
0100
0000
0001
0000
0000
0000
0000
,
1000
0000
0100
0000
0000
0010
0000
0000
0001
0000
0100
0000
0010
0000
0000
0000
,
0100
0000
0001
0000
0010
0000
0000
0000
0100
0000
0000
0100
0000
0000
0000
0000
,
1000
0000
0010
0000
0100
0000
0000
0000
0001
0000
0000
0001
0000
0000
0000
0000
,
0001
0000
1000
0000
0100
0000
0000
0000
0010
0000
0000
0010
0000
0000
0000
0000
,
0100
0000
0010
0000
0001
0000
0000
0000
1000
0000
0000
1000
0000
0000
0000
0000
,
1001
0000
0100
0000
0010
0000
0000
0000
0001
0100
0000
1000
0000
0000
0001
0000
,
0010
0000
0100
0000
0010
0000
0000
0000
0010
0100
0000
1000
0000
0000
0001
0000
,
0010
0000
1000
0000
0100
0000
0000
0000
1000
0100
0000
0010
0000
0000
0001
0000
,
0100
0000
0001
0000
0010
0000
0000
0000
0100
1000
0000
1000
0000
0000
0100
0000
,
0010
0000
0100
0000
1000
0000
0000
0000
0010
0100
0010
0000
0001
0000
0100
0000
,
0001
0000
0010
0000
1000
0000
0000
0000
1000
0001
1000
0000
0100
0000
0010
0000
,
0100
0000
1000
0000
0001
0000
0000
0000
0001
0100
0001
0000
0010
0000
1000
0000
,
0100
0000
0010
0000
0001
0000
0000
0000
1000
0010
1000
0000
0100
0000
0001
0000
,
0010
0000
0100
0000
1000
0000
0000
0000
0010
0100
0010
0000
0001
0000
1000
0000
,
0100
0010
0100
0000
0000
0010
0001
0100
,
0001
1000
0000
0100
0000
0000
1000
0000
0010
0100
0000
0001
0000
0000
1000
0000
,
0000
0000
0100
0000
0000
0010
0000
0001
1000
0000
0010
0000
1000
0000
0001
0000
,
0100
0000
0000
0000
;

//---------------dance-single - ----------------
#NOTES:
     dance-single:
     :
     Challenge:
     13:
     :
0000
0000
0000
0000
,
0000
0000
0000
0000
,
0000
0000
0000
0000
,
0000
0000
0000
0000
,
0000
0000
0000
0000
,
2000
0000
3010
0002
0000
0013
0200
0000
,
1300
0000
0000
1000
0100
0000
0000
0100
0010
0000
0000
0010
0001
0000
0000
0001
,
0100
0010
1000
0001
0010
0100
1000
0001
,
0100
0000
0010
0000
1000
0000
0001
0100
0002
0000
0000
0000
1003
0010
1000
0000
,
0200
0010
0000
1000
2300
0001
0000
0100
,
3100
0000
0010
0000
0001
0000
0100
0000
0010
0000
1000
0010
0000
1000
0010
0000
,
0200
0000
0000
0000
0301
0000
1000
0000
0001
0000
0000
0010
0001
0000
0100
0000
,
0010
0000
1000
0000
0001
0000
1000
0000
0100
0000
0010
0100
0000
0010
0100
0000
,
2000
0000
0010
0000
0000
0000
0001
0000
3001
0000
0000
0100
0010
0000
1000
0000
,
0100
0000
1000
0000
0010
0000
0100
0000
0001
0000
1000
0001
0000
1000
0001
0000
,
0010
0000
0000
0001
0000
0000
0100
0000
0001
0000
0000
0010
0000
0000
1000
0000
,
0100
0000
0000
1000
0000
0000
0001
0100
0001
0100
0000
0010
1000
0000
0000
0000
,
1001
0010
0100
0001
0100
1000
0100
0010
,
0100
1000
0100
0001
0010
0100
1000
0000
,
1100
0000
0001
0000
0100
0000
0010
0000
1000
0000
0100
0010
0000
0001
1000
0000
,
0010
0000
0001
0000
0010
0000
1000
0000
0100
0000
1000
0001
0000
0100
0010
0000
,
2000
0010
3010
0100
0002
1000
1003
0010
,
0100
0000
1000
0000
0100
0000
0001
0000
0010
0000
0001
1000
0000
0010
0100
0000
,
0001
0000
0000
1000
0000
0000
0100
0000
1000
0000
0000
0001
0000
0000
0100
0000
,
0010
0000
0000
0000
1000
0001
1000
0001
1000
0001
0000
0100
0010
0000
0100
0000
,
0001
0000
0010
0000
0001
0000
0000
0000
0100
0010
0000
1000
0000
0010
0100
0000
,
0001
0010
1000
0010
0001
0100
1000
0100
,
0001
0000
1000
0000
1000
0000
0001
0000
0001
0100
0000
0010
0000
1000
0010
0000
,
0100
0000
0001
0000
0010
0000
0100
0000
1000
0000
0010
0000
1000
0001
1000
0001
,
1000
0000
0010
0000
0100
0001
0000
0100
0010
0000
0100
0001
0000
0100
0010
0000
,
1000
0100
0001
0100
0010
1000
0010
0001
,
0100
0000
0010
0000
1000
0001
0000
0100
0001
0000
1000
0001
0000
0100
0001
0000
,
0010
0000
0100
0000
1000
0000
0001
0000
0100
0010
0000
0010
1000
0000
0001
0000
,
1001
0000
0010
1000
0100
0001
0100
1000
,
0020
0100
0000
0100
0000
0130
0001
0000
,
0020
0000
0001
0000
0000
0000
1000
0000
0000
0000
0001
0000
0000
0000
0130
1000
,
0100
0000
0000
1000
0000
0000
0010
0000
0100
0000
0000
0001
0000
0000
1000
0000
,
0010
0000
0100
0000
0010
0000
1000
0001
1000
0000
0000
0100
0000
0000
0010
0000
,
0001
0000
0100
0000
0010
0000
1000
0100
1000
0000
0000
0001
0000
0000
0100
0000
,
0010
0000
1000
0000
0100
0000
0010
0000
0001
0000
0100
0010
0000
1000
0000
0001
,
1000
0000
0010
0000
0100
0000
1000
0000
0100
0000
0001
0000
0010
0001
0010
0001
,
0010
0000
0100
0000
1000
0001
0000
0001
0100
0000
0100
0010
0000
0010
1000
0000
,
0100
0001
0100
0010
0100
0001
0100
1000
,
0010
0000
0100
0000
0100
0000
0010
0000
0010
1000
0000
0001
0000
1000
0100
0000
,
0001
0100
0010
0100
0001
0100
1000
0010
,
0001
0020
1030
0020
0031
0020
0130
0001
,
1000
0100
1000
0010
0001
0010
1000
0100
,
0010
0000
0001
0000
0100
0010
0000
0010
1000
0000
1000
0001
0000
0001
0100
0000
,
0010
0000
1000
0000
0100
0000
1000
0000
0001
0000
0100
0010
0000
0100
0001
0100
,
0001
0010
0100
0001
0100
0010
1000
0010
,
0001
0100
0010
0001
0010
1000
0100
0001
,
0100
0000
1000
0000
0010
0000
0100
0000
0001
0000
0010
0001
0000
0001
1000
0000
,
0100
0001
0100
0010
1000
0010
0001
0100
,
1000
0000
0100
0000
0001
0010
0000
0001
0010
0000
0100
1000
0000
0100
1000
0000
,
0001
0010
0001
0100
0010
1000
0100
1000
,
0001
0000
0110
0000
0110
0000
0000
0000
1000
0010
0000
1000
0010
0000
0100
0001
,
0100
0000
0010
0000
1000
0001
1000
0001
1000
0000
0100
0010
0000
0010
0001
0000
,
0202
0000
0000
0000
0000
0000
0000
0000
0000
0000
0000
0000
0300
0000
1003
0001
,
2000
0000
0000
0000
,
3010
0000
0000
0000
;

//---------------dance-double - ----------------
#NOTES:
     dance-double:
     :
     Easy:
     4:
     :
00000000
00000000
00000000
00000000
,
00000000
00000000
00000000
00000000
,
00000000
00000000
00000000
00000000
,
00000000
00000000
00000000
00000000
,
00000000
00000000
00000000
00000000
,
10000000
00000000
00000000
00010000
,
00001000
00000000
00000000
00000001
,
00000100
00000000
00000000
00001000
,
00010000
00000000
00000000
00100000
,
01000000
00000000
10000000
00000000
,
10000000
00000000
10000000
01000000
,
00010000
00000000
00001000
00000000
,
00001000
00000000
00001000
00000100
,
00000001
00000000
00000100
00000000
,
00000100
00000000
00001000
00010000
,
00100000
00000000
10000000
00000000
,
10000000
01000000
00100000
00110000
,
00011000
00000000
00000100
00000000
,
00000001
00000010
00000100
00000000
,
00010000
00000000
00001000
00000000
,
00010000
01000000
10000000
00000000
,
00010000
00000000
01000000
00000000
,
00010000
00001000
00010000
00000000
,
00000010
00000000
00000100
00000000
,
00000001
00000000
00000000
00000000
,
00010000
00000000
00001000
00000000
,
00100000
00000000
10000000
00000000
,
01000000
00000000
00010000
00000000
,
00001000
00000000
00000010
00000000
,
00000001
00000101
00000000
00000000
,
00000100
00010100
00000000
00000000
,
00100000
00101000
00000000
00000000
,
10000000
11000000
00000000
00100000
,
00010000
00000000
00000000
00000000
,
00000010
00000000
00000000
00000000
,
00010000
00000000
00000000
00000000
,
10000000
00000000
00000000
00000000
,
00100000
00010000
00000000
00001000
,
00000010
00000001
00000000
00001000
,
00100000
01000000
00000000
00010000
,
00001000
00000010
00000000
00000001
,
00000100
00000000
00000000
00000000
,
00001000
00000000
00000000
00000000
,
00100000
00000000
00000000
00000000
,
10000000
00000000
00000000
00000000
,
00001000
01001000
00000000
00010000
,
00001000
00000010
00000000
00000100
,
00000001
00000000
00001000
00000000
,
00100000
00010000
01000000
00000000
,
00001000
00011000
00000000
00001000
,
00000100
00000010
00000000
00000001
,
00000010
00000000
00001000
00000000
,
00010000
00001000
01000000
00000000
,
00100000
10000000
01000000
00000000
,
00010000
01000000
00000000
00001000
,
00010000
00000000
00000100
00000000
,
00000010
00000001
00000100
00000100
,
00000100
00000000
00000000
00000000
,
00000000
00000000
00000000
00000000
;

//---------------dance-double - ----------------
#NOTES:
     dance-double:
     :
     Medium:
     7:
     :
00000000
00000000
00000000
00000000
,
00000000
00000000
00000000
00000000
,
00000000
00000000
00000000
00000000
,
00000000
00000000
00000000
00000000
,
00000000
00000000
00000000
00000000
,
00000010
00000001
00000100
00001000
,
00010000
00001000
00100000
01000000
,
00010000
01000000
10000000
01000000
,
00010000
00001000
00000010
00000100
,
00010000
00000000
00100000
10000000
,
01000000
00000000
01000000
00000000
00001000
01000000
00010000
00000000
,
00001000
00000000
00010000
00000100
,
00000010
00000000
00000010
00000000
00001000
00010000
00000100
00000000
,
00010000
00000000
00000010
00001000
,
00010000
00000000
00100000
00000000
10000000
00010000
01000000
00000000
,
10000000
01000000
00100000
00001000
,
00010000
00000000
00010000
00000000
00000010
00001000
00000100
00000000
,
00001100
00000000
00001000
00010000
,
00100000
00000000
01000000
00000000
10000000
01000000
00100000
00000000
,
00001000
00000000
00010000
00001000
,
00000010
00000000
00000100
00000000
00000001
00000100
00001000
00000000
,
00010000
00001000
00100000
00100000
,
01000000
00000000
01000000
00000000
10000000
00100000
01000000
00000000
,
00010000
00000000
00001000
00000000
00001000
00010000
00000100
00000000
,
00000010
00001000
00010000
00000000
,
00100000
00000000
00000000
01000000
00010000
00000000
00000000
00000000
,
00001000
00000000
00000000
00010000
00001000
00000000
00000000
00000000
,
00000010
00000000
00000000
00000100
00000001
00000000
00000000
00000000
,
00001000
00000000
00000000
00001000
00010000
00000000
00000000
00000000
,
00110000
10000000
00100000
00010000
,
00010100
00001000
00000010
00000100
,
00000101
00000010
00001000
00010000
,
00010010
00001000
00100000
01000000
,
10000000
00000000
10000000
00000000
,
10000000
00000000
01000000
00000000
,
00010000
00000000
00000010
00000000
,
00000100
00000000
00000100
00000100
,
00000101
00000010
00001000
00010000
,
00100000
00010000
00100000
10000000
,
01000000
00010000
00001000
00000100
,
00001000
00000000
00000010
00000000
00001000
00010000
00001000
00000000
,
00101000
00010000
00100000
01000000
,
00010000
00001000
00000010
00000100
,
00000001
00000010
00000100
00010000
,
00001000
00010000
01000000
10000000
,
01100000
00000000
10000000
00000000
01000000
00001000
00010000
00000000
,
00000010
00000000
00000100
00000000
00000001
00000010
00000100
00000000
,
00010000
00000000
00001000
00000000
00001000
00010000
01000000
00000000
,
10000000
00000000
00100000
00000000
01000000
00100000
01000000
00000000
,
00110000
00100000
00001000
00000000
00001000
00000000
00000100
00000000
,
00000001
00000010
00000100
00000000
00000001
00000000
00000100
00000000
,
00001000
00010000
00001000
00000000
00100000
00000000
01000000
00000000
,
10000000
01000000
00100000
00000000
00001000
00000000
00010000
00000000
,
00010000
00001000
00000100
00000000
00000001
00000000
00000010
00000000
,
00000100
00010000
00001000
00000000
00000000
00100000
00000000
00000000
,
00001000
00010000
00000010
00000100
,
00000001
00000000
00000001
00000000
00000001
00000010
00000100
00000000
,
00010100
00000000
00000000
00000000
,
00000000
00000000
00000000
00000000
;

//---------------dance-double - ----------------
#NOTES:
     dance-double:
     :
     Hard:
     9:
     :
00000000
00000000
00000000
00000000
,
00000000
00000000
00000000
00000000
,
00000000
00000000
00000000
00000000
,
00000000
00000000
00000000
00000000
,
00000000
00000000
00000000
00000000
,
00001000
00000000
00010000
00000000
00100000
10000000
01000000
00000000
,
01000000
00100000
00010000
00000000
00001000
00010000
00001000
00000000
,
00001000
00000000
00000100
00000000
00000001
00000010
00000100
00000000
,
00000000
00000000
00010000
00000000
00000000
00001000
00000000
00000000
00100000
00000000
00010000
00000000
10000000
00000000
00000000
00000000
,
10000000
00000000
00000000
00000000
00000000
00000000
00100000
00000000
01000000
00000000
00000000
00010000
00000000
00000000
00001000
00000000
,
00010000
00000000
00000000
00000100
00000000
00000000
00000010
00000000
00000001
00000000
00000000
00000100
00000000
00000000
00000000
00000000
,
00001000
00000000
00000000
00000000
00000000
00000000
00010000
00000000
00001000
00000000
00000000
00010000
00000000
00000000
00100000
00000000
,
01000000
00000000
00000000
10000000
00000000
00000000
01000000
00000000
00010000
00000000
00000000
00100000
00000000
00000000
00000000
00000000
,
00001000
00000000
00000000
00000000
00000000
00000000
00010000
00000000
00001000
00000000
00000000
00000100
00000000
00000000
00000001
00000000
,
00000010
00000000
00000000
00000100
00000000
00000000
00010000
00000000
00001000
00000000
00000000
00000100
00000000
00000000
00000000
00000000
,
00001000
00010000
00000000
00100000
00010000
00100000
00000000
10000000
,
01000000
00000000
00000000
00100000
00000000
00000000
00010000
00000000
01000000
00000000
00000000
00000000
01001000
00000000
00000000
00000000
,
00011000
00000000
00000000
00000010
00001000
00000100
00000000
00000010
,
00000001
00000100
00000000
00001000
00010000
00000000
00100000
00000000
,
01000000
00000000
00000000
10000000
00100000
01000000
00000000
00010000
,
00100000
01000000
00000000
00010000
00001000
00000000
00010000
00000000
,
00000010
00001000
00000100
00000000
00010000
00001000
00000100
00000000
,
00000001
00000000
00000010
00000000
00000100
00000000
00000000
00000000
00010000
00000000
00000000
00001000
00000000
00000000
00100000
00000000
,
00010000
00000000
00000000
00100000
00000000
00000000
01000000
00000000
01000000
00000000
00000000
10000000
00000000
00000000
01000000
00000000
,
01000000
00000000
00000000
00000000
,
00000010
00000000
00001000
00000000
00000000
00000001
00000000
00000000
00000100
00000000
00000000
00000100
00000000
00000000
00001000
00000000
,
00010000
00000000
00001000
00000000
00000000
00100000
00000000
00000000
00010000
00000000
00000000
01000000
00000000
00000000
00010000
00000000
,
10000000
00000000
01000000
00000000
00000000
01000000
00000000
00000000
00010000
00000000
00000000
00001000
00000000
00000000
00010000
00000000
,
00000100
00000000
00000100
00000010
00000000
00000001
00000000
00001000
,
00000100
00000010
00000000
00001000
00010000
00000000
00100000
00000000
,
01000000
00100000
00000000
10000000
01000000
00000000
00010000
00000000
,
00001000
00010000
00000000
00000100
00000001
00000000
00000010
00000000
,
00001000
00000000
00010000
00001000
00000000
00100000
00000000
00010000
,
01000000
00000000
00000000
01000000
00000000
00000000
10000000
00000000
00100000
00000000
00000000
01000000
00000000
00000000
00001000
00000000
,
00010000
00000010
00000010
00000100
,
00000001
00000000
00000000
00001000
00000000
00000000
00000100
00000000
00000100
00000000
00000000
00010000
00000000
00000000
00001000
00000000
,
00010000
01000000
10000000
10000000
,
01000000
00010000
00001000
00000000
00010000
00000000
00010100
00000000
,
00001000
00000100
00000010
00000000
00000001
00000000
00000101
00000000
,
00000010
00010000
00001000
00000000
00000100
00000000
00011000
00000000
,
00001000
00010000
01000000
00000000
00100000
10000000
01000000
00000000
,
01000000
00010000
00001000
00000000
00010000
00000000
00010000
00000000
,
00000010
00001000
00000100
00000000
00000001
00000000
00000001
00000000
,
00000100
00001000
00010000
00000000
00001000
00000000
00001000
00000000
,
00100000
00010000
01000000
00000000
10000000
00000000
10000000
01000000
,
00100000
00000000
00001000
00000000
00010000
00000000
00000000
00000000
00010000
00001000
00000000
00000000
00010000
00000000
00001000
00000000
,
00000100
00000000
00000001
00000000
00000010
00000000
00000000
00000000
00000100
00001000
00000000
00000000
00001000
00000000
00010000
00000000
,
00001000
00000000
00100000
00000000
01000000
00000000
00000000
00000000
10000000
01000000
00000000
00000000
00100000
00000000
00010000
00000000
,
01000000
00000000
00001000
00000000
00010000
00000000
00000000
00000000
00001000
00010000
00000000
00000000
00010000
00000000
00001000
00000000
,
00000100
00001000
00010000
00000000
00010000
01000000
10000000
00100000
,
10000000
01000000
00010000
00000000
00001000
00010000
00001000
00000100
,
00000001
00000001
00000010
00000000
00001000
00010000
00001000
00000100
,
00001000
00010000
00100000
00000000
01000000
00010000
00100000
01000000
,
10000000
00100000
00001000
00000000
00010000
00000100
00001000
00000010
,
00000100
00001000
00000100
00000000
00000000
00010000
00001000
00010000
,
00100000
00000000
00000000
00100000
00000000
00000000
01000000
00000000
10000000
00000000
00000000
10000000
00000000
00000000
00100000
00000000
,
00000000
00000000
01000000
00000000
00000000
00001000
00000000
00000000
00010000
00000000
00001000
00000000
00000100
00000000
00000010
00000000
,
00001000
00000000
00000000
00000000
,
00000000
00000000
00000000
00000000
;
