#VERSION:0.83;
#TITLE:MEANING OF LIFE;
#SUBTITLE:;
#ARTIST:K.Wit feat. GARY;
#TITLETRANSLIT:;
#SUBTITLETRANSLIT:;
#ARTISTTRANSLIT:;
#GENRE:;
#ORIGIN:;
#TAGS:;
#CREDIT:;
#BANNER:MEANING OF LIFE.png;
#BACKGROUND:MEANING OF LIFE-bg.png;
#PREVIEWVID:;
#JACKET:MEANING OF LIFE-jacket.png;
#CDIMAGE:;
#DISCIMAGE:;
#LYRICSPATH:;
#CDTITLE:;
#MUSIC:MEANING OF LIFE.ogg;
#OFFSET:0.000000;
#SAMPLESTART:10.160000;
#SAMPLELENGTH:20.000000;
#SELECTABLE:YES;
#BPMS:0.000000=112.000000;
#STOPS:;
#DELAYS:;
#WARPS:;
#TIMESIGNATURES:0.000000=4=4;
#TICKCOUNTS:0.000000=4;
#COMBOS:0.000000=1;
#SPEEDS:0.000000=1.000000=0.000000=0;
#SCROLLS:0.000000=1.000000;
#FAKES:;
#LABELS:0.000000=Song Start;
#BGCHANGES:;
#KEYSOUNDS:;
#ATTACKS:
;

//---------------dance-single - ----------------
#NOTEDATA:;
#CHARTNAME:;
#CHARTHASH:2147483647:
#STEPSTYPE:dance-single;
#BANNER:;
#DESCRIPTION:;
#CHARTSTYLE:;
#DIFFICULTY:Beginner;
#METER:2;
#METERF:0.000000;
#RADARVALUES:0.111337,0.135402,0.078923,0.000000,0.000000,79.000000,71.000000,8.000000,0.000000,0.000000,0.000000,0.000000,0.000000,0.000000,0.111337,0.135402,0.078923,0.000000,0.000000,79.000000,71.000000,8.000000,0.000000,0.000000,0.000000,0.000000,0.000000,0.000000;
#CREDIT:;
#NOTES:
0000
0000
0000
0000
,
0000
0000
0000
0000
,
0000
0000
0000
0000
,
0000
0000
0000
0000
,
0000
0000
0000
1000
,
0000
0001
0000
0010
,
0000
1000
0000
0100
,
0000
0001
0000
0010
,
0000
1000
0000
0001
,
0000
0100
0000
1000
,
0000
0010
0000
0001
,
0000
1000
0000
0100
,
0000
0100
0000
1000
,
0000
0100
0000
0100
,
0000
1000
0000
1000
,
0000
0100
0000
0100
,
0000
1001
0000
0001
,
0000
0100
0000
0100
,
0000
0001
0000
0001
,
0000
0100
0000
0100
,
0000
1001
0000
0001
,
0000
0000
0000
0000
,
0001
0000
0001
0000
,
0001
0000
0000
0000
,
1000
0000
1000
0000
,
1000
0000
0000
0000
,
0001
0000
0001
0000
,
0001
0000
0000
0000
,
1000
0000
0100
0000
,
1001
0000
1001
0000
,
0000
0100
0000
1000
,
0000
0010
0000
0001
,
0000
0010
0000
0010
,
0000
0100
0000
1000
,
0000
0100
0000
1000
,
0000
0010
0000
0001
,
0000
0001
0000
0100
,
0000
0010
0000
0000
,
0000
0000
1001
0000
,
0000
0000
0010
0000
,
0000
0000
0100
0000
,
1000
0000
0110
0000
,
0000
0000
0110
0000
,
0000
0000
0010
0000
,
0000
0000
0100
0000
,
1000
0000
0000
0110
;

//---------------dance-single - ----------------
#NOTEDATA:;
#CHARTNAME:;
#CHARTHASH:482948592:
#STEPSTYPE:dance-single;
#BANNER:;
#DESCRIPTION:;
#CHARTSTYLE:;
#DIFFICULTY:Easy;
#METER:6;
#METERF:0.000000;
#RADARVALUES:0.243815,0.298180,0.276229,0.286095,0.039461,173.000000,145.000000,28.000000,29.000000,0.000000,0.000000,0.000000,0.000000,0.000000,0.243815,0.298180,0.276229,0.286095,0.039461,173.000000,145.000000,28.000000,29.000000,0.000000,0.000000,0.000000,0.000000,0.000000;
#CREDIT:;
#NOTES:
0000
0000
0000
0000
,
0000
0000
0000
0000
,
0000
0000
0000
0000
,
0000
0000
0000
0000
,
0000
0000
0000
2000
,
3001
0001
1000
0020
,
1030
1000
0001
0200
,
0301
0001
1000
0010
,
1010
1000
1000
0002
,
0103
0100
0010
1000
,
1010
0010
0100
0001
,
1001
1000
0010
0200
,
0301
0100
0010
1000
,
1010
0100
0001
0100
,
0001
1000
0100
2000
,
3001
0100
0010
0100
,
0010
1010
0000
0002
,
0013
0100
1000
0100
,
1000
0001
0100
0001
,
1001
0100
0010
0100
,
0010
0011
0000
0001
,
2000
0000
3000
0002
0000
0000
0203
0000
0000
0000
0000
0000
0000
0000
0000
0000
,
0301
0010
0001
1001
,
0002
0000
0003
2000
0000
0000
3002
0000
0000
0000
0000
0000
0000
0000
0000
0000
,
1003
0010
1000
1001
,
2000
0000
3000
0002
0000
0000
0203
0000
0000
0000
0000
0000
0000
0000
0000
0000
,
0301
0010
0001
1001
,
0002
0000
0003
2000
0000
0000
3002
0000
0000
0000
0000
0000
0000
0000
0000
0000
,
1003
0010
0100
0001
,
1001
0000
1001
0000
,
0000
0100
0001
1000
,
1010
0010
1000
0001
,
1000
0010
1000
0010
,
0110
0100
0001
1000
,
0001
0100
0010
1000
,
1010
0010
0100
0001
,
1000
0001
0100
0100
,
0010
0000
0000
0000
0010
0000
0000
0000
1001
0000
0000
0000
0000
0000
0000
0110
,
0000
0000
0110
0000
0000
0000
0000
0000
1001
0000
0000
0000
0000
0000
0000
0110
,
0000
0110
0000
0000
0020
0000
0000
0000
,
0000
0000
0230
0302
,
2003
0000
0000
0000
3001
0000
0000
0000
0110
0000
0000
0000
0000
0000
0000
1001
,
0000
0000
1001
0000
0000
0000
0000
0000
0110
0000
0000
0000
0000
0000
0000
1001
,
0000
1001
0000
0000
0020
0000
0000
0000
,
0000
0000
0230
0302
,
2003
3010
0000
0220
,
0000
0000
0330
0000
;

//---------------dance-single - ----------------
#NOTEDATA:;
#CHARTNAME:;
#CHARTHASH:2147483647:
#STEPSTYPE:dance-single;
#BANNER:;
#DESCRIPTION:;
#CHARTSTYLE:;
#DIFFICULTY:Medium;
#METER:9;
#METERF:0.000000;
#RADARVALUES:0.321328,0.361071,0.246633,0.147980,0.019731,228.000000,203.000000,25.000000,15.000000,0.000000,0.000000,0.000000,0.000000,0.000000,0.321328,0.361071,0.246633,0.147980,0.019731,228.000000,203.000000,25.000000,15.000000,0.000000,0.000000,0.000000,0.000000,0.000000;
#CREDIT:;
#NOTES:
0000
0000
0000
0000
,
0000
0000
0000
0000
,
0000
0000
0000
0000
,
1000
0001
0100
0000
0010
1000
0001
0000
,
0100
0010
0100
0010
0100
0010
0100
0000
,
1000
0001
1000
0000
0100
0010
0001
0000
,
1001
0110
2000
3100
,
0001
1000
0001
0000
0010
0100
1000
0000
,
0001
1000
0001
1000
0001
1000
0001
1000
,
0100
0010
0100
0000
1000
0001
0100
0000
,
1000
0001
0010
1001
,
0010
1000
0001
1000
,
0100
0010
0100
0010
0100
0010
0100
0010
,
1000
0000
1000
0000
0001
1000
0100
0000
,
0010
0000
0010
0000
1000
0100
0020
0000
,
0001
0031
1000
0110
,
1100
0110
0011
1001
,
0010
0100
0010
0000
1000
0001
0010
0000
,
0100
0010
0100
1001
,
1010
0100
0002
1003
,
0001
1000
0001
1000
0001
1000
0001
1000
,
0001
0000
0000
0100
0000
0000
0020
0000
0000
0000
0000
0000
0000
0000
0000
0000
,
0000
0000
0000
0030
,
1000
0000
0000
0001
0000
0000
0200
0000
0000
0000
0000
0000
0000
0000
0000
0000
,
0000
0000
0000
0300
,
0010
0000
0000
1000
0000
0000
0002
0000
0000
0000
0000
0000
0000
0000
0000
0000
,
0000
0000
0000
0003
,
1000
0000
0000
0001
0000
0000
0200
0000
0000
0000
0000
0000
0000
0000
0000
0000
,
0010
0010
0010
0310
,
0000
0000
0000
0000
0001
1000
0001
0000
,
0100
0010
1000
0000
1001
0000
1100
0000
,
0020
0000
0031
0000
1000
0001
1000
0000
,
0010
0100
0001
0000
1000
0001
1000
0001
,
1000
0001
1000
0000
0001
1000
0001
0000
,
0100
0010
0001
0000
1010
0000
0101
0000
,
2000
0000
3100
0000
0001
1000
0001
0000
,
0010
0100
1000
0000
0101
0000
0110
0000
,
1100
0000
1001
0000
0010
0100
0010
0000
,
2000
0000
3001
0100
0010
1000
0100
0000
,
0020
0000
0031
1000
0001
0100
0010
0000
,
0200
0000
0301
0010
1001
0000
0101
0000
,
0110
0000
0011
0000
0100
0010
0100
0000
,
0002
0000
0103
0010
1000
0001
0100
0000
,
0020
0000
0130
0001
1000
0100
0010
0000
,
2000
0000
3100
0010
0001
0000
1100
0000
,
0110
0001
0000
1100
;

//---------------dance-single - ----------------
#NOTEDATA:;
#CHARTNAME:;
#CHARTHASH:2147483647:
#STEPSTYPE:dance-single;
#BANNER:;
#DESCRIPTION:;
#CHARTSTYLE:;
#DIFFICULTY:Hard;
#METER:10;
#METERF:0.000000;
#RADARVALUES:0.397432,0.383638,0.384748,0.147980,0.019731,282.000000,243.000000,39.000000,15.000000,0.000000,0.000000,0.000000,0.000000,0.000000,0.397432,0.383638,0.384748,0.147980,0.019731,282.000000,243.000000,39.000000,15.000000,0.000000,0.000000,0.000000,0.000000,0.000000;
#CREDIT:;
#NOTES:
0000
0000
0000
0000
,
0000
0000
0000
0000
,
0000
0000
0000
0000
,
0001
1000
0200
0000
0310
0001
1000
0010
,
0100
0010
0100
0010
0100
0010
0100
0000
,
0001
1000
0001
0010
0100
1000
0001
0000
,
1100
0110
0002
1003
,
0010
1000
0100
0010
0001
0100
0010
1000
,
0001
1000
0001
1000
0001
1000
0001
1000
,
0100
0010
0001
0100
0010
1000
0001
0010
,
0100
1000
0010
0000
1100
0000
0110
0000
,
0001
0100
0010
1000
0100
0010
0001
0100
,
0010
0100
0010
0100
0010
0100
0010
0100
,
0010
0001
0100
0010
1000
0100
0010
0000
,
0001
1000
0010
0000
0100
0001
1000
0000
,
0100
0010
1100
0000
0001
1000
0110
0000
,
0011
1001
1010
0110
,
0001
1000
0100
0010
0001
0100
0010
0000
,
1000
0001
1000
0001
1000
0001
0110
0000
,
1100
0011
0002
1003
,
0001
1000
0001
1000
0001
1000
0001
1000
,
1001
0000
0000
0110
0000
0000
0002
0000
0000
0000
0000
0000
1000
0000
0000
0000
,
0000
1000
0000
1003
,
1001
0000
0000
0011
0000
0000
2000
0000
0000
0000
0000
0000
0100
0000
0000
0000
,
0000
0100
0000
3100
,
0110
0000
0000
1001
0000
0000
0200
0000
0000
0000
0000
0000
0001
0000
0000
0000
,
0000
0001
0000
0301
,
1010
0000
0000
1001
0000
0000
0210
0000
0000
0000
0000
0000
0000
0000
0000
0000
,
0010
0001
0010
0301
,
0000
0000
0000
0000
1000
0001
1000
0000
,
0100
0010
0001
0000
1010
0000
0101
0000
,
0020
0000
1030
0000
0100
0010
0001
0000
,
1000
0001
1000
0100
0010
0100
0010
0100
,
0010
0001
1000
0010
0100
0001
1000
0100
,
1000
0001
0100
0000
1010
0000
0110
0000
,
2000
0000
3100
0000
0001
1000
0001
0100
,
0010
1000
0001
0010
1100
0000
0110
0000
,
0011
0000
1001
0000
0010
1000
0100
0010
,
0002
0000
0103
0010
1000
0001
0100
0010
,
0200
0000
0310
0001
1000
0100
0010
1000
,
0002
0000
0103
0010
1001
0000
0101
0000
,
0110
0000
1010
0000
0100
0010
0100
0001
,
2000
0000
3100
0010
1000
0001
0100
0010
,
0200
0000
0301
1000
0001
0010
0100
0010
,
0002
0000
0103
0010
1001
0000
0101
0000
,
0110
1100
0000
0101
;

//---------------dance-double - ----------------
#NOTEDATA:;
#CHARTNAME:;
#CHARTHASH:1339341811:
#STEPSTYPE:dance-double;
#BANNER:;
#DESCRIPTION:;
#CHARTSTYLE:;
#DIFFICULTY:Easy;
#METER:6;
#METERF:0.000000;
#RADARVALUES:0.253680,0.321117,0.305826,0.207172,0.039461,180.000000,149.000000,31.000000,21.000000,0.000000,0.000000,0.000000,0.000000,0.000000,0.253680,0.321117,0.305826,0.207172,0.039461,180.000000,149.000000,31.000000,21.000000,0.000000,0.000000,0.000000,0.000000,0.000000;
#CREDIT:;
#NOTES:
00000000
00000000
00000000
00000000
,
00000000
00000000
00000000
00000000
,
00000000
00000000
00000000
00000000
,
00000000
00000000
00000000
00000000
,
00000000
00000000
00000000
20000000
,
30010000
00010000
10000000
00200000
,
10300000
10000000
00010000
02000000
,
03001000
00001000
00010000
00000010
,
00001010
00001000
00001000
00000002
,
00000013
00000010
00000100
00010000
,
00011000
00001000
01000000
00010000
,
10010000
10000000
00100000
02000000
,
03001000
00001000
00010000
00010000
,
00000010
00000100
00000001
00000100
,
00000001
00001000
00000100
00010000
,
00011000
01000000
00100000
01000000
,
00100000
10100000
10010000
01000000
,
00001000
00010000
00000100
00001000
,
00000001
00001000
00000100
00001000
,
00001001
00000100
00000010
00001000
,
00000100
00010000
00011000
01000000
,
00020000
00000000
00030000
20000000
00000000
00000000
32000000
00000000
00000000
00000000
00000000
00000000
00000000
00000000
00000000
00000000
,
13000000
00010000
01000000
00001000
,
00020000
00000000
00030000
00000020
00000000
00000000
00000230
00000000
00000000
00000000
00000000
00000000
00000000
00000000
00000000
00000000
,
00000301
00001000
00001000
00000100
,
00020000
00000000
00030000
00002000
00000000
00000000
02003000
00000000
00000000
00000000
00000000
00000000
00000000
00000000
00000000
00000000
,
03001000
00010000
00010000
00000100
,
00000020
00000000
00000030
00000200
00000000
00000000
00002300
00000000
00000000
00000000
00000000
00000000
00000000
00000000
00000000
00000000
,
00003001
00000001
00000100
00000010
,
00001001
00000000
00001001
00000000
,
00000000
00000100
00010000
00001000
,
01000000
01000000
00010000
00000000
,
10000000
00100000
01000000
00001000
,
00011000
00010000
00001000
00010000
,
00000010
00001000
00000100
00001000
,
00001010
00000010
00000100
00000010
,
00010000
00001000
01000000
00020000
,
02030000
00000000
00000000
00000000
03000000
00000000
00000000
00000000
10010000
00000000
00000000
00000000
00000000
00000000
00000000
01100000
,
00000000
00000000
01100000
00000000
00000000
00000000
00000000
00000000
10010000
00000000
00000000
00000000
00000000
00000000
00000000
01100000
,
00000000
01100000
00000000
00000000
11000000
00000000
00000000
00000000
,
00000000
00110000
00110000
00000000
00001000
00000000
00010000
00000000
,
00000100
00000000
00000000
00000000
00000010
00000000
00000000
00000000
00000110
00000000
00000000
00000000
00000000
00000000
00000000
00001001
,
00000000
00000000
00001001
00000000
00000000
00000000
00000000
00000000
00000110
00000000
00000000
00000000
00000000
00000000
00000000
00001001
,
00000000
00001001
00000000
00000000
00000011
00000000
00000000
00000000
,
00000000
00001100
00001100
00000000
00010000
00000000
00001000
00000000
,
01000000
00100000
00000000
02200000
,
00000000
00000000
03300000
00000000
;

//---------------dance-double - ----------------
#NOTEDATA:;
#CHARTNAME:;
#CHARTHASH:2147483647:
#STEPSTYPE:dance-double;
#BANNER:;
#DESCRIPTION:;
#CHARTSTYLE:;
#DIFFICULTY:Medium;
#METER:8;
#METERF:0.000000;
#RADARVALUES:0.366427,0.389928,0.463671,0.226903,0.044394,260.000000,213.000000,47.000000,23.000000,0.000000,0.000000,0.000000,0.000000,0.000000,0.366427,0.389928,0.463671,0.226903,0.044394,260.000000,213.000000,47.000000,23.000000,0.000000,0.000000,0.000000,0.000000,0.000000;
#CREDIT:;
#NOTES:
00000000
00000000
00000000
00000000
,
00000000
00000000
00000000
00000000
,
00000000
00000000
00000000
00000000
,
00000000
00000000
00000000
00000000
,
00000000
00000000
00000000
00000000
00000000
00000000
10000000
00100000
,
10000000
00000000
10010000
00000000
10000000
00010000
00100000
00000000
,
00001000
00000000
00011000
00000000
00000100
00000000
00001100
00000010
,
00001000
00000000
00001010
00000000
00000100
00000010
00001000
00000000
,
00001002
00000000
00000023
00000000
00000230
00000000
00001300
00000100
,
00010000
00000000
00011000
00000000
01000000
00010000
00100000
00000000
,
00110000
00000000
10010000
00000000
10010000
00000000
01000000
00100000
,
10000000
00000000
10100000
00000000
01000000
00001000
00010000
00000000
,
00011000
00000000
00010000
00000000
00000100
00000000
00001100
00001000
,
00000010
00000000
00001000
00000100
00000000
00000000
00000000
00000000
00001000
00000000
00000000
00000000
00001100
00000000
00000000
00000000
,
00001000
00000001
00000100
00000000
00000010
00000000
00001000
00000100
,
00010000
00010000
00001000
00000000
00100000
00000000
01100000
00000000
,
01000000
11000000
10010000
00010000
,
00110000
00010000
01000000
00000000
00100000
01000000
00001000
00000000
,
00011000
00000000
00011000
00000000
00010000
00000100
00001000
00000000
,
00001001
00000100
00000001
00000000
00000011
00000001
00000100
00000000
,
00000110
00000000
00001010
00000000
00001100
00010000
00001000
00000000
,
02000000
00000000
03000000
00020000
00000000
00000000
02030000
00000000
00000000
00000000
03010000
00000000
01010000
00000000
00000000
00000000
,
00010000
10000000
01000000
00000000
11000000
00010000
01000000
00000000
,
00002000
00000000
00003000
00020000
00000000
00000000
00030200
00000000
00000000
00000000
00001300
00000000
00001100
00000000
00000000
00000000
,
00001000
00000001
00000100
00000000
00000101
00001000
00000100
00000000
,
00020000
00000000
00030000
00002000
00000000
00000000
02003000
00000000
00000000
00000000
03010000
00000000
01010000
00000000
00000000
00000000
,
00010000
10000000
01000000
00000000
11000000
00010000
01000000
00000000
,
00002000
00000000
00003000
00020000
00000000
00000000
00030200
00000000
00000000
00000000
00001300
00000000
00001100
00000000
00000000
00000000
,
00001000
00000001
00000100
00000000
00000101
00001000
00000100
00000000
,
00000100
00000000
00010000
00001000
01000000
00000000
01010000
00000000
,
00010000
01000000
00010000
10000000
00100000
01000000
00010000
01000000
,
00001000
00000000
00011000
00000000
00000010
00001000
00000100
00000000
,
00001000
00000010
00001000
00000000
00000001
00000000
00001000
00000100
,
00010000
00000000
00001000
00010000
00001000
00000000
00011000
00000000
,
00100000
01000000
10000000
00010000
10000000
00010000
01000000
00010000
,
01000000
00000000
00001000
00000000
00010000
00001000
00010000
00000000
,
00000100
00001000
00000100
00000000
00001000
00000000
00001010
00000000
,
00000110
00000000
00000000
00000000
00000101
00000000
00001000
00000000
00000002
00000000
00000000
00000000
00000000
00000000
00000000
00000100
,
00000000
00000000
00000103
00000000
00000000
00000000
00000000
00000000
00021000
00000000
00000000
00000000
00000000
00000000
00000000
00031000
,
00000000
00011000
00000000
00000000
00120000
00000000
00000000
00000000
,
00000000
00130000
00110000
00000000
10000000
10000000
01000000
01000000
,
00100000
00000000
00100000
00000000
00001000
00000000
00001000
00000000
00020000
00000000
00000000
00000000
00000000
00000000
00000000
00000100
,
00000000
00000000
00030100
00000000
00000000
00000000
00000000
00000000
00002010
00000000
00000000
00000000
00000000
00000000
00000000
00000001
,
00003000
00001001
00000000
00000000
00000201
00000000
00000000
00000000
,
00000000
00000310
00000110
00000000
00001000
00001000
00000100
00000100
,
00010000
00010000
00001000
01000000
00000000
00000000
02200000
00000000
,
00000000
00000000
03300000
00000000
;

//---------------dance-double - ----------------
#NOTEDATA:;
#CHARTNAME:;
#CHARTHASH:2147483647:
#STEPSTYPE:dance-double;
#BANNER:;
#DESCRIPTION:;
#CHARTSTYLE:;
#DIFFICULTY:Hard;
#METER:10;
#METERF:0.000000;
#RADARVALUES:0.455215,0.458738,0.315691,0.177576,0.236768,323.000000,291.000000,32.000000,18.000000,0.000000,0.000000,0.000000,0.000000,0.000000,0.455215,0.458738,0.315691,0.177576,0.236768,323.000000,291.000000,32.000000,18.000000,0.000000,0.000000,0.000000,0.000000,0.000000;
#CREDIT:;
#NOTES:
00000000
00000000
00000000
00000000
,
00000000
00000000
00000000
00000000
,
00000000
00000000
00000000
00000000
,
00000000
00000000
00000000
00000000
,
00000000
00000000
00000000
00000000
00000000
00000000
10000000
00100000
,
10000000
00010000
10010000
00000000
10000000
00010000
00100000
00000000
,
00001000
00010000
00011000
00000100
00000100
00000000
00001100
00000010
,
00001000
00000010
00001001
00000001
00000100
00000010
00001000
00001000
,
00000100
00000100
00010000
00010000
00001000
00001000
01000000
00010000
,
10000000
00010000
10010000
00000000
10000000
00010000
00100000
00000000
,
00110000
00000000
10000000
00000000
10010000
00000000
00010000
00000000
10000000
00000000
00000000
00010000
01000000
00000000
00001000
00000000
,
00010000
00000100
00001000
00000001
00000100
00000010
00001000
00001000
,
00000001
00000000
00000001
00000000
00000010
00000000
00000010
00000000
00000100
00000000
00000100
00000000
00001000
00000000
00000000
00001000
,
00000100
00000000
00010000
00001000
00000000
00000000
01000000
00010000
01000000
00000000
00000000
00000000
01100000
00000000
00000000
00000000
,
10100000
00000000
00010000
01000000
00000000
00000000
00010000
10000000
00100000
00000000
00000000
00000000
10100000
00000000
00010000
01000000
,
00000000
00000000
00010000
10000000
01000000
00000000
00000000
00000000
01100000
00000000
00000000
00000000
00001000
00000000
00010000
00000100
,
00000000
00000000
00001000
00000001
00000010
00000000
00000000
00000000
00000001
00000000
00001000
00000001
00000100
00000000
00000000
00000100
,
00000010
00000000
00001000
00000100
00000000
00000000
00001000
00000001
00000100
00000000
00000000
00000000
00000010
00000000
00000000
00000000
,
00010000
00000000
00001000
01000000
00000000
00000000
00010000
10000000
00100000
00000000
00000000
00000000
10000000
00000000
00010000
01000000
,
00000000
00000000
00010000
10000000
01000000
00000000
00000000
00000000
01100000
00000000
00000000
00000000
00110000
00000000
10000000
01000000
,
00000000
00000000
10000000
00010000
00100000
00000000
00000000
00000000
00001000
00000000
00010000
00000100
00001000
00000000
00000000
00001000
,
00000002
00000000
00000003
00002000
00000000
00000000
00003200
00000000
00000000
00000000
00001300
00000000
00001000
00000000
00000000
00000000
,
00001001
00000000
00001000
00000000
00000001
00000000
00000000
00000000
00000100
00000000
00000001
00001000
00000100
00000000
00000000
00000000
,
00020000
00000000
00030000
00002000
00000000
00000000
02003000
00000000
00000000
00000000
03010000
00000000
01010000
00000000
00000000
00000000
,
01010000
00000000
10000000
00000000
01010000
00000000
00000000
00000000
00010000
00000000
00000000
10000000
00100000
00000000
00000000
00000000
,
20100000
00000000
30000000
00020000
00000000
00000000
02030000
00000000
00000000
00000000
03010000
00000000
01010000
00000000
00000000
00000000
,
10010000
00000000
00010000
00000000
01000000
00000000
00000000
00000000
01000000
00000000
00000000
00010000
01000000
00000000
00000000
00000000
,
00002000
00000000
00003000
00020000
00000000
00000000
00030200
00000000
00000000
00000000
00001300
00000000
00001100
00000000
00000000
00000000
,
00001001
00000000
00000000
00000001
00000002
00000000
00000000
00000010
00000023
00000000
00000000
00000100
00000230
00000000
00000000
00000000
,
00010300
00000000
00010000
00001000
01000000
00010000
01010000
00000000
,
10000000
00010000
00100000
00000000
00110000
10000000
10010000
00010000
,
01000000
00000000
01000000
00001000
00010000
00001000
00011000
00010000
,
00000100
00001000
00000001
00000001
00001000
00001000
00000010
00000010
,
00000100
00000100
00000001
00001000
00000001
00001000
00001001
00000000
,
00000001
00001000
00000100
00000000
00010000
00001000
00011000
00010000
,
00001000
00000000
01000000
01000000
00010000
10000000
00010000
00010000
,
01000000
00100000
10000000
10000000
00010000
00010000
00100000
00100000
,
02000000
00000000
10000000
00000000
03000000
00000000
10000000
00000000
00100000
00000000
10000000
01000000
00000000
00000000
10000000
00010000
,
00000000
00000000
01000000
00000000
00001000
00000000
00000000
00000000
00010000
00000000
00000100
00001000
00000000
00000000
00000001
00000100
,
00000000
00000000
00000010
00000000
00001010
00000000
00000000
00000000
00000010
00000000
00001000
00000100
00000000
00000000
00001000
00000001
,
00000100
00000000
00000000
00000000
00000110
00000000
00000000
00000000
00000011
00000000
00000001
00001000
00000000
00000000
00000100
00010000
,
00001000
00000000
00000000
00000000
01000000
00000000
00010000
00000000
00100000
00000000
00010000
01000000
00000000
00000000
00010000
10000000
,
00000000
00000000
01000000
00000000
00100000
00000000
00000000
00000000
00001000
00000000
00010000
00001000
00000000
00000000
00010000
00001000
,
00000000
00000000
00010000
00000000
00000100
00000000
00000000
00000000
00001000
00000000
00000001
00000100
00000000
00000000
00000001
00001000
,
00000100
00000000
00000100
00000000
00000010
00000000
00000010
00000000
00000001
00000000
00001000
00000100
00000000
00000000
00001000
00000001
,
00000010
00000010
00000001
00000001
00000000
00000000
00000220
00000000
,
00000000
00000000
00000330
00000000
;

//---------------dance-single - ----------------
#NOTEDATA:;
#CHARTNAME:;
#CHARTHASH:0:
#STEPSTYPE:dance-single;
#BANNER:;
#DESCRIPTION:;
#CHARTSTYLE:;
#DIFFICULTY:Challenge;
#METER:14;
#METERF:0.000000;
#RADARVALUES:0.699030,0.688107,0.315691,0.345287,1.307157,496.000000,464.000000,32.000000,35.000000,0.000000,0.000000,0.000000,0.000000,0.000000,0.699030,0.688107,0.315691,0.345287,1.307157,496.000000,464.000000,32.000000,35.000000,0.000000,0.000000,0.000000,0.000000,0.000000;
#CREDIT:;
#NOTES:
// measure 0
0000
0000
0000
0000
,  // measure 1
0000
0000
0000
0000
,  // measure 2
0000
0000
0000
0000
0000
0000
0000
0000
0000
0000
0000
0000
0000
0001
0010
0100
,  // measure 3
1000
0010
1000
0010
0000
0100
0001
0020
0000
0000
0031
0100
0001
1000
0010
0100
,  // measure 4
0001
0010
0100
1000
0001
0010
0100
1000
0001
0010
0100
1000
0010
0100
0000
0110
,  // measure 5
0000
0010
0000
1000
0000
0001
0000
0010
0000
0100
0000
1000
0000
0001
0000
0011
,  // measure 6
0000
0011
0000
1000
0000
0100
0020
0000
0032
1000
0000
1003
0010
0100
0000
0110
,  // measure 7
0000
0001
0000
0010
0000
0001
0000
0100
0000
0010
0000
1000
0000
0001
0000
1000
,  // measure 8
0010
0000
0100
0000
0001
0010
0000
0100
1000
0010
1000
0010
1000
0001
0000
1001
,  // measure 9
0000
0010
0000
1000
0000
0001
0000
0101
0000
0101
0000
0000
0010
0100
0000
2100
,  // measure 10
0000
0000
3001
1000
0000
1000
0020
0000
0230
0001
0000
0301
1000
0100
0000
0110
,  // measure 11
0000
0001
0000
0010
0000
0100
0000
1000
0000
0010
0000
0100
0000
0001
0000
1000
,  // measure 12
0010
0000
0100
0000
0001
0000
1000
0100
1000
0010
1000
0010
0100
0001
0100
0001
,  // measure 13
0010
0100
0010
0100
0000
0000
1000
0001
0200
0000
0310
0100
0010
1000
0001
1000
,  // measure 14
0000
1000
0010
1000
0000
0001
0010
0100
1000
0010
0100
0010
0100
0001
1000
0010
,  // measure 15
2000
0000
3001
0100
0000
0000
0010
0100
0001
0000
0001
0010
0100
0010
0100
1000
,  // measure 16
0020
0000
1030
0200
0000
0000
1300
0010
0100
0001
1000
0001
0100
0001
1000
0020
,  // measure 17
0000
1030
0100
0010
1000
0010
0001
0100
0010
0000
1000
0001
0000
0001
1000
0100
,  // measure 18
0010
0001
0010
0001
0010
0001
0010
0100
1000
0001
0000
0101
0000
0000
0010
0100
,  // measure 19
1000
0000
1000
0100
0010
0000
0010
0001
0100
0000
0001
1000
0000
0000
0001
0010
,  // measure 20
1000
0010
0001
1000
0100
0001
0100
1000
0010
0000
1000
0001
0000
1000
0100
0000
,  // measure 21
1100
0000
0000
0110
0000
0000
0012
0000
1000
0000
0000
0000
0013
0001
0000
0200
,  // measure 22
0000
0000
0310
1000
0000
0001
0000
0020
0000
0000
0001
0000
0031
1000
0000
0000
,  // measure 23
1010
0000
0000
0000
0000
0000
0000
0000
0000
1001
0000
0000
0000
0000
0000
0000
0000
0000
0201
0000
0000
0000
0000
0000
0010
0000
0000
0000
0000
0000
0000
0000
0000
0000
0000
0000
0301
0000
0000
0000
0100
0000
0000
0000
0010
0000
0000
0000
,  // measure 24
2000
0000
0000
3010
0200
0000
0000
0301
0020
0000
1000
0000
0130
0000
0100
0000
,  // measure 25
0110
0000
0000
0011
0000
0000
2010
0000
0001
0000
0001
0000
3100
1000
0000
0001
,  // measure 26
0000
1000
0000
0010
0000
0100
0000
0002
0000
0013
0100
0000
1000
0001
0000
0000
,  // measure 27
0101
0000
0000
1001
0000
0000
2100
0000
0001
0000
0100
0000
3100
1000
0010
0000
,  // measure 28
1000
0100
0010
0001
1000
0100
0010
0001
1000
0100
0010
0001
1000
0100
0010
0001
,  // measure 29
0000
0000
0000
0000
0100
0010
0000
0110
0000
1000
0000
0001
0000
1000
0000
0100
,  // measure 30
0000
0010
0000
0001
0000
0100
0000
1010
0000
1010
0000
1000
0000
0001
0200
0000
,  // measure 31
0320
1000
0000
1030
0001
0100
0000
1001
0000
1000
0000
0001
0000
0010
0000
0100
,  // measure 32
0000
0010
0000
0100
0000
1000
0000
0001
0100
0010
0000
1000
0000
0001
1000
0000
,  // measure 33
0010
0100
0010
0100
0010
1000
0000
1001
0000
0001
0000
0100
0000
0001
0000
0010
,  // measure 34
0000
0100
0000
0000
1000
0001
0000
0011
0000
0011
0000
0001
0000
0100
0020
0000
,  // measure 35
2030
0100
0000
3100
0010
0001
0000
0101
0000
1000
0000
0001
0000
0010
0000
0100
,  // measure 36
0000
0010
0000
0001
0000
0100
0000
1000
0001
0100
0000
0010
1000
0001
0000
2000
,  // measure 37
0100
0000
3010
0000
1000
0100
0010
0001
0100
0010
0100
0010
0000
1000
0010
0200
,  // measure 38
0000
0000
0301
0100
0010
0001
0010
1000
0100
0010
0100
0010
0000
0001
0100
2000
,  // measure 39
0000
0000
3010
1000
0100
1000
0001
1000
0010
0100
0010
0100
0000
0001
0010
0002
,  // measure 40
0000
0000
1003
0001
0010
0001
0100
0010
1000
0100
1000
0100
0010
0001
0010
0001
,  // measure 41
1000
0010
1000
0010
0100
0001
0100
0001
1000
0001
1000
0001
0000
1000
0100
0020
,  // measure 42
0000
0000
0130
0001
0100
0010
0100
1000
0010
1000
0010
1000
0000
0001
1000
0002
,  // measure 43
0000
0000
0103
0001
0010
0001
1000
0100
1000
0010
0100
0001
0000
0010
0100
0020
,  // measure 44
0000
0000
0031
0100
0001
1000
0100
0010
0002
0000
0000
0000
0013
0000
0010
0001
,  // measure 45
0100
1000
0100
0001
1000
0000
1100
0000
0001
0000
0000
0000
0022
0000
0000
0000
,  // measure 46
0000
0000
0033
0000
;
