#VERSION:0.83;
#TITLE:MANMACHINE PLAYS JAZZ;
#SUBTITLE:~MIO2~;
#ARTIST:Mikio Endo;
#TITLETRANSLIT:;
#SUBTITLETRANSLIT:;
#ARTISTTRANSLIT:;
#GENRE:;
#ORIGIN:;
#TAGS:;
#CREDIT:;
#BANNER:MANMACHINE PLAYS JAZZ ~MIO2~-bn.png;
#BACKGROUND:MANMACHINE PLAYS JAZZ ~MIO2~-bg.png;
#PREVIEWVID:;
#JACKET:MANMACHINE PLAYS JAZZ ~MIO2~-jacket.png;
#CDIMAGE:;
#DISCIMAGE:;
#LYRICSPATH:;
#CDTITLE:;
#MUSIC:MANMACHINE PLAYS JAZZ ~MIO2~.ogg;
#OFFSET:0.187500;
#SAMPLESTART:35.602001;
#SAMPLELENGTH:20.000000;
#SELECTABLE:YES;
#DISPLAYBPM:114.000000;
#BPMS:0.000000=114.000000;
#STOPS:;
#DELAYS:;
#WARPS:;
#TIMESIGNATURES:0.000000=4=4;
#TICKCOUNTS:0.000000=4;
#COMBOS:0.000000=1;
#SPEEDS:0.000000=1.000000=0.000000=0;
#SCROLLS:0.000000=1.000000;
#FAKES:;
#LABELS:0.000000=Song Start;
#BGCHANGES:;
#KEYSOUNDS:;
#ATTACKS:
;

//---------------dance-single - ----------------
#NOTEDATA:;
#CHARTNAME:;
#CHARTHASH:0:
#STEPSTYPE:dance-single;
#BANNER:;
#DESCRIPTION:;
#CHARTSTYLE:;
#DIFFICULTY:Challenge;
#METER:14;
#METERF:0.000000;
#RADARVALUES:0.699725,0.761591,0.293233,0.108605,1.031745,451.000000,424.000000,27.000000,10.000000,0.000000,0.000000,0.000000,0.000000,0.000000,0.699725,0.761591,0.293233,0.108605,1.031745,451.000000,424.000000,27.000000,10.000000,0.000000,0.000000,0.000000,0.000000,0.000000;
#CREDIT:;
#DISPLAYBPM:114.000000;
#NOTES:
0000
0000
0000
0000
,
0000
0000
0000
0000
,
0000
0000
0000
0000
,
0000
0000
0000
0000
,
0001
0000
1000
0000
0000
0000
0110
0000
0000
0000
0000
1001
0000
0000
1000
0100
0000
0000
0100
0000
0000
0100
0000
0010
,
0001
0000
1000
0100
0000
1000
0000
0000
0001
0010
0000
0000
0001
0000
0100
0010
0000
0100
0000
0000
0010
1000
0000
0000
,
0100
0000
0010
0100
0000
0010
0000
0000
0001
1000
0000
0001
1000
0000
0000
0010
0000
1000
0000
0000
0001
0100
0000
0000
,
0010
0000
1000
0001
0000
1000
0000
0000
0100
0010
0000
0000
0001
0000
0100
0001
0000
1000
0000
0000
0010
0100
0000
0000
,
0001
0000
0010
0001
0000
0010
0000
0000
0100
1000
0000
0100
1000
0000
0000
0001
0000
1000
0000
0000
0010
0100
0000
0000
,
0001
0000
0010
0000
0000
0010
0100
0000
0000
0100
0000
1000
0000
0000
1000
0001
0000
0000
0100
0000
0000
1010
0000
0000
,
0001
0000
1000
0000
0000
1000
0100
0000
0000
0100
0000
0010
0000
0000
0010
0001
0000
0000
1000
0000
0000
0011
0000
0000
,
0100
0000
0001
0000
0000
0001
0010
0000
0000
0010
0000
0100
0000
0000
0100
1000
0000
0000
0010
0000
0000
0101
0000
0000
,
1000
0000
1000
0001
0000
0001
1000
0000
1000
0001
0000
0001
0100
0000
0100
0010
0000
0010
0100
0000
0100
0010
0000
0010
,
1000
0000
0001
0000
0000
0000
1100
0000
0000
0100
0000
0010
0000
0000
0000
0000
0000
0000
0011
0000
0000
1000
0000
0001
,
0010
0000
0001
1000
0000
0100
0000
0000
0100
0010
0000
0001
1000
0000
0000
1000
0000
0100
0010
0000
0000
0001
0000
0000
,
0100
0000
0010
0000
0000
0000
1010
0000
0000
0001
0000
1000
0000
0000
0000
0000
0000
0000
0101
0000
0000
0001
0000
0010
,
0100
0000
0010
0100
0000
1000
0000
0000
1000
0001
0000
0100
0001
0000
0000
0010
0000
0001
1000
0000
0000
0010
0000
0000
,
0110
0000
0000
0000
0000
0001
0100
0000
0000
0100
0000
0000
0100
0000
0010
1000
0000
0000
1000
0000
0000
0000
0000
0001
,
1000
0000
0000
0000
0000
0001
0010
0000
0100
0000
0000
2000
0000
0000
3010
1000
0000
0001
0100
0000
0000
0101
0000
0000
,
1100
0000
0000
0000
0000
1000
0010
0000
0000
0010
0000
0000
0010
0000
0100
0001
0000
1000
0000
0000
1000
0010
0000
0000
,
1010
0000
0000
0000
0000
0100
0001
0000
0010
0000
0000
0002
0000
0000
1003
0010
0000
0000
1001
0000
0000
0100
0000
0001
,
0000
0000
0000
0000
0000
0000
1100
0000
0000
0001
0000
1000
0000
0000
0000
0000
0000
0000
0101
0000
0000
0010
0000
0200
,
0000
0000
0301
0100
0000
0000
0010
0000
1000
0002
0000
0000
0100
0000
0000
0013
0000
0000
0001
0000
1000
0001
0000
0100
,
0000
0000
0000
0000
0000
0000
0010
0000
1000
0001
0000
0100
0000
0000
0000
0000
0000
0000
1000
0000
0100
0010
0000
0002
,
0000
0000
1003
0001
0000
0000
0100
0000
0010
1000
0000
0000
0101
0000
1000
0100
0000
1000
0100
0000
1000
0100
0000
1000
,
0001
0000
0000
0000
0000
0010
0100
0000
0000
1000
0000
0000
0001
0000
0100
0010
0000
0000
1000
0000
0100
0010
0000
0100
,
0020
0000
0000
0000
0000
0031
1000
0000
0100
0000
0000
2010
0000
0000
3010
2000
0000
0000
3001
0000
0000
1000
0000
0100
,
1000
0000
0000
0000
0000
0001
1000
0000
0000
0100
0000
0000
0010
0000
0001
1000
0000
0010
0000
0000
1000
0100
0000
0000
,
1000
0000
1000
0001
0000
0001
1000
0000
1000
0001
0000
0001
0100
0000
0100
0010
0000
0010
0100
0000
0100
0010
0000
0010
,
1000
0000
0100
1000
0000
0010
0100
0000
0010
0100
0000
0001
0010
0000
0100
1000
0000
0001
0100
0000
0100
0010
0000
0000
,
1000
0000
0001
1000
0000
0100
0010
0000
0100
1000
0000
0010
0100
0000
0001
0100
0000
0001
0010
0000
0010
0001
0000
0000
,
0100
0000
0010
1000
0000
0100
1000
0000
0001
0010
0000
0001
0100
0000
0010
1000
0000
0001
1000
0000
1000
0100
0000
0000
,
0010
0000
0001
1000
0000
0001
0010
0000
0010
0100
0000
1000
0001
0000
0001
1000
0000
1000
0100
0000
0100
0010
0000
0000
,
0001
0000
0010
0001
0000
1000
0100
0000
0010
0001
0000
0100
0010
0000
0010
1000
0000
1000
0100
0000
0100
0010
0000
0000
,
0001
0000
1000
0100
0000
1000
0010
0000
0010
0100
0000
0100
0001
0000
1000
0001
0000
0001
0010
0000
0001
0100
0000
0000
,
0010
0000
1000
0100
0000
1000
0001
0000
0010
0001
0000
0100
0010
0000
1000
0001
0000
0010
0001
0000
1000
0100
0000
0000
,
1000
0000
1000
0001
0000
0001
1000
0000
1000
0001
0000
0001
0100
0000
0100
0010
0000
0010
0100
0000
0100
0010
0000
0010
,
1000
0000
1100
0000
0000
0000
0101
0000
0000
0010
0000
0001
0000
0000
0001
1000
0000
0000
0100
0000
0100
0010
0000
0100
,
1001
0000
0000
0010
0000
0000
1000
0000
0000
0010
0000
1000
0000
0000
0010
1000
0000
0010
1000
0000
0000
0001
0000
0000
,
0010
0000
0011
0000
0000
0000
1010
0000
0000
0001
0000
1000
0000
0000
1000
0010
0000
0000
0100
0000
0100
0001
0000
0100
,
0000
0000
0110
0000
0110
0000
0110
0000
0000
2020
0000
0000
0000
0000
0000
0000
0000
0000
0000
0000
0000
0000
0000
0000
,
0000
0000
0000
0000
,
0000
0000
3030
0000
;

//---------------dance-single - ----------------
#NOTEDATA:;
#CHARTNAME:;
#CHARTHASH:0:
#STEPSTYPE:dance-single;
#BANNER:;
#DESCRIPTION:;
#CHARTSTYLE:;
#DIFFICULTY:Hard;
#METER:12;
#METERF:0.000000;
#RADARVALUES:0.549230,0.553884,0.390977,0.097744,0.673349,354.000000,318.000000,36.000000,9.000000,0.000000,0.000000,0.000000,0.000000,0.000000,0.549230,0.553884,0.390977,0.097744,0.673349,354.000000,318.000000,36.000000,9.000000,0.000000,0.000000,0.000000,0.000000,0.000000;
#CREDIT:;
#DISPLAYBPM:114.000000;
#NOTES:
0000
0000
0000
0000
,
0000
0000
0000
0000
,
0000
0000
0000
0000
,
0000
0000
0000
0000
,
0001
0000
1000
0000
0000
0000
0110
0000
0000
0000
0000
1001
0000
0000
1000
0100
0000
0000
0100
0000
0000
0100
0000
0000
,
0001
0000
0000
0010
0000
0100
0000
0000
0100
1000
0000
0000
0010
0000
0000
0100
0000
0001
0000
0000
0001
1000
0000
0000
,
0100
0000
0000
0010
0000
0001
0000
0000
0001
1000
0000
0000
0010
0000
0000
1000
0000
0100
0000
0000
0100
0010
0000
0000
,
0001
0000
0000
1000
0000
0100
0000
0000
0100
0010
0000
0000
0100
0000
0000
1000
0000
0001
0000
0000
0001
0010
0000
0000
,
0001
0000
0000
1000
0000
0010
0000
0000
0010
0100
0000
0000
0010
0000
0000
1000
0000
0100
0000
0000
0100
0010
0000
0000
,
0001
0000
1000
0000
0000
0001
1000
0000
0000
0001
0000
1000
0000
0000
0001
1000
0000
0000
0000
0000
0000
0101
0000
0000
,
0010
0000
0100
0000
0000
0010
0100
0000
0000
0010
0000
0100
0000
0000
0010
0100
0000
0000
0000
0000
0000
1010
0000
0000
,
1000
0000
0100
0000
0000
1000
0100
0000
0000
1000
0000
0100
0000
0000
1000
0100
0000
0000
0000
0000
0000
0011
0000
0000
,
0001
0000
0100
0000
0000
0001
0100
0000
0000
0001
0000
0100
0000
0000
0001
0100
0000
0000
0110
0000
0000
1001
0000
0000
,
0100
0000
0000
0000
0000
0000
1010
0000
0000
0001
0000
1000
0000
0000
0000
0000
0000
0000
0011
0000
0000
0010
0000
0100
,
0000
0000
0100
1000
0000
0000
0000
0000
0001
0100
0000
0000
0010
0000
0000
1000
0000
0000
1100
0000
0000
0100
0000
0010
,
0000
0000
0000
0000
0000
0000
0011
0000
0000
0001
0000
1000
0000
0000
0000
0000
0000
0000
0101
0000
0000
0100
0000
0010
,
0000
0000
0010
1000
0000
0000
0000
0000
1000
0001
0000
0000
0010
0000
0000
0001
0000
1000
0200
0000
0000
0000
0000
0000
,
0310
0000
0000
0000
0000
0010
0001
0000
0000
0001
0000
0000
0001
0000
2000
0000
0000
0000
3100
0000
0000
0000
0000
0000
,
1001
0000
0000
0000
0000
0001
1000
0000
0001
0000
0000
0100
0000
0000
0010
1000
0000
0000
0100
0000
0000
0100
0000
0000
,
0110
0000
0000
0000
0000
0010
0001
0000
0000
0001
0000
0000
1000
0000
0100
1000
0000
0100
0000
0000
0100
0010
0000
0000
,
0001
0000
0000
0000
0000
0001
1000
0000
0010
0000
0000
1000
0000
0000
0100
0010
0000
0000
0011
0000
0000
1000
0000
0100
,
0000
0000
0000
0000
0000
0000
1001
0000
0000
0001
0000
0100
0000
0000
0000
0000
0000
0000
1010
0000
0000
0010
0000
1000
,
0000
0000
1000
0002
0000
0000
0103
0000
0000
2020
0000
0000
0000
0000
0000
0000
3030
0000
1100
0000
0000
0100
0000
0010
,
0000
0000
0000
0000
0000
0000
0110
0000
0000
0010
0000
0001
0000
0000
0000
0000
0000
0000
0101
0000
0000
1000
0000
0001
,
0000
0000
0001
0100
0000
0000
0010
0000
1000
0010
0000
0000
2100
0000
0000
0000
0000
0001
0000
0000
0000
3100
0000
0000
,
1001
0000
0000
0000
0000
1000
0010
0000
0000
0010
0000
0000
0010
0000
0200
0000
0000
0000
0301
0000
0000
0000
0000
0000
,
0101
0000
0000
0000
0000
0100
0010
0000
0100
0000
0000
0001
0000
0000
1000
0010
0000
0000
1000
0000
0000
1000
0000
0000
,
1100
0000
0000
0000
0000
0001
0100
0000
0000
0100
0000
0000
0010
0000
1000
0010
0000
1000
0000
0000
0001
0100
0000
0000
,
0110
0000
0000
0000
0000
0010
1000
0000
0010
0000
0000
0100
0000
0000
0001
1000
0000
0000
0100
0000
0000
0001
0000
0000
,
0010
0000
0001
0000
0000
0001
0100
0000
0000
0100
0000
0010
0000
0000
0010
1000
0000
0000
0000
0000
0000
1100
0000
0000
,
1000
0000
0001
0000
0000
0001
0100
0000
0000
0100
0000
0010
0000
0000
0010
1000
0000
0000
0000
0000
0000
0101
0000
0000
,
0010
0000
0100
0000
0000
0100
1000
0000
0000
1000
0000
0001
0000
0000
0001
0100
0000
0000
0000
0000
0000
1010
0000
0000
,
0001
0000
0010
0000
0000
0010
0100
0000
0000
0100
0000
1000
0000
0000
1000
0001
0000
0000
0000
0000
0000
0110
0000
0000
,
0010
0000
1000
0000
0000
1000
0100
0000
0000
0100
0000
0010
0000
0000
0010
0001
0000
0000
1000
0000
0000
0010
0000
0000
,
0100
0000
0001
0000
0000
0001
0010
0000
0000
0010
0000
0100
0000
0000
0100
1000
0000
0000
0001
0000
0000
0100
0000
0000
,
1000
0000
0001
0000
0000
0001
0010
0000
0000
0010
0000
0100
0000
0000
0100
1000
0000
0000
0010
0000
0000
0100
0000
0000
,
0001
0000
1000
0000
0000
1000
0100
0000
0000
0100
0000
0010
0000
0000
0010
0001
0000
0000
0100
0000
0000
0010
0000
0000
,
1000
0000
0001
0000
0000
0000
0011
0000
0000
0000
0000
1100
0000
0000
0001
0100
0000
0000
0100
0000
0000
0100
0000
0000
,
1001
0010
1000
0001
1000
0010
1000
0001
,
0100
0000
0010
0000
0000
0000
1010
0000
0000
0000
0000
0101
0000
0000
0010
0001
0000
0000
0001
0000
0000
0001
0000
0000
,
1000
0000
0010
0000
0100
0000
0001
0000
0000
2020
0000
0000
0000
0000
0000
0000
0000
0000
0000
0000
0000
0000
0000
0000
,
0000
0000
0000
0000
,
0000
0000
3030
0000
;

//---------------dance-single - ----------------
#NOTEDATA:;
#CHARTNAME:;
#CHARTHASH:0:
#STEPSTYPE:dance-single;
#BANNER:;
#DESCRIPTION:;
#CHARTSTYLE:;
#DIFFICULTY:Medium;
#METER:9;
#METERF:0.000000;
#RADARVALUES:0.404941,0.461570,0.282372,0.097744,0.238930,261.000000,235.000000,26.000000,9.000000,0.000000,0.000000,0.000000,0.000000,0.000000,0.404941,0.461570,0.282372,0.097744,0.238930,261.000000,235.000000,26.000000,9.000000,0.000000,0.000000,0.000000,0.000000,0.000000;
#CREDIT:;
#DISPLAYBPM:114.000000;
#NOTES:
0000
0000
0000
0000
,
0000
0000
0000
0000
,
0000
0000
0000
0000
,
0000
0000
0000
0000
,
0001
0000
1000
0000
0000
0000
0110
0000
0000
0000
0000
0000
1000
0000
0000
0010
0000
0000
0100
0000
0000
0001
0000
0000
,
0010
0000
0000
0000
0000
0001
0000
0000
0000
1000
0000
0000
0010
0000
0000
0000
0000
0100
0000
0000
0000
0001
0000
0000
,
1000
0000
0000
0000
0000
0100
0000
0000
0000
0010
0000
0000
0001
0000
0000
0100
0000
0000
0001
0000
0000
1000
0000
0000
,
0100
0000
0000
0000
0000
1000
0000
0000
0000
0001
0000
0000
0010
0000
0000
0000
0000
0100
0000
0000
0000
1000
0000
0000
,
0010
0000
0000
0000
0000
1000
0000
0000
0000
0001
0000
0000
0100
0000
0000
0010
0000
0000
1000
0000
0000
0100
0000
0000
,
0000
0000
0010
0000
0000
0000
0001
0000
0000
0000
0000
0100
0000
0000
0000
1000
0000
0000
0000
0000
0000
1100
0000
0000
,
0000
0000
1000
0000
0000
0000
0010
0000
0000
0000
0000
0100
0000
0000
0000
0001
0000
0000
0000
0000
0000
0011
0000
0000
,
0000
0000
0100
0000
0000
0000
0010
0000
0000
0000
0000
1000
0000
0000
0000
0001
0000
0000
0000
0000
0000
0101
0000
0000
,
0000
0000
0001
0000
0000
0000
0100
0000
0000
0000
0000
1000
0000
0000
0000
0010
0000
0000
1000
0000
0000
0100
0000
0000
,
0010
0000
0001
0100
1000
0000
1000
0010
,
1000
0100
0010
0000
0001
0000
0001
0100
,
0010
0000
1000
0001
1000
0000
0100
0010
,
0001
0100
0010
0000
1000
0001
0200
0000
,
0310
0000
1010
1010
1010
0001
0100
0000
,
0002
0000
0013
0001
0100
0010
1000
1000
,
1000
0000
0101
0101
0001
0010
0100
1000
,
0020
0000
0130
0010
1000
0001
1000
0100
,
0010
0000
0001
0100
0010
0000
1000
0001
,
1000
0100
0010
0000
0001
0000
1000
0010
,
1000
0000
0100
0010
0001
0000
0010
0001
,
1000
0001
0100
0000
2002
0000
0003
0000
,
3100
0000
0011
0011
0011
1000
0001
0000
,
0020
0000
0031
0100
0010
1000
0100
0100
,
0100
0000
1100
1100
0010
1000
0001
0100
,
0020
0000
1030
0001
1000
0100
0010
0000
,
0001
0000
1000
0000
0000
0001
1000
0000
0000
0000
0000
0010
0000
0000
0000
0100
0000
0000
0000
0000
0000
0110
0000
0000
,
0001
0000
0010
0000
0000
0001
0010
0000
0000
0000
0000
0100
0000
0000
0000
1000
0000
0000
0000
0000
0000
1001
0000
0000
,
1000
0000
0100
0000
0000
1000
0100
0000
0000
0000
0000
0010
0000
0000
0000
0001
0000
0000
0000
0000
0000
0101
0000
0000
,
0100
0000
0010
0000
0000
0100
0010
0000
0000
1000
0000
0001
0000
0000
1000
0001
0000
0000
0100
0000
0000
0010
0000
0000
,
1000
0000
0100
0000
0000
0010
0001
0000
0000
0000
0000
0100
0000
0000
0000
0010
0000
0000
0000
0000
0000
1010
0000
0000
,
0001
0000
1000
0000
0000
0010
0100
0000
0000
0000
0000
0010
0000
0000
0000
1000
0000
0000
0000
0000
0000
1100
0000
0000
,
0100
0000
0010
0000
0000
0001
0100
0000
0000
0000
0000
0010
0000
0000
0000
1000
0000
0000
0000
0000
0000
0110
0000
0000
,
0001
0000
0010
0000
0000
0001
1000
0000
0000
0000
0000
0100
0000
0000
0000
0010
0000
0000
0000
0000
0000
0011
0000
0000
,
1000
0000
0001
0000
0000
0000
0110
0000
0000
0000
0000
0000
0001
0000
0000
0010
0000
0000
0100
0000
0000
1000
0000
0000
,
1001
0010
0000
1000
0000
0010
0000
1000
,
0001
0000
0100
0000
0000
0000
0110
0000
0000
0000
0000
0000
1000
0000
0000
0001
0000
0000
0010
0000
0000
0100
0000
0000
,
0000
0000
1000
0000
0001
0000
1000
0000
0000
2020
0000
0000
0000
0000
0000
0000
0000
0000
0000
0000
0000
0000
0000
0000
,
0000
0000
0000
0000
,
0000
0000
3030
0000
;

//---------------dance-single - ----------------
#NOTEDATA:;
#CHARTNAME:;
#CHARTHASH:0:
#STEPSTYPE:dance-single;
#BANNER:;
#DESCRIPTION:;
#CHARTSTYLE:;
#DIFFICULTY:Easy;
#METER:7;
#METERF:0.000000;
#RADARVALUES:0.287027,0.323099,0.456140,0.043442,0.000000,185.000000,143.000000,42.000000,4.000000,0.000000,0.000000,0.000000,0.000000,0.000000,0.287027,0.323099,0.456140,0.043442,0.000000,185.000000,143.000000,42.000000,4.000000,0.000000,0.000000,0.000000,0.000000,0.000000;
#CREDIT:;
#DISPLAYBPM:114.000000;
#NOTES:
0000
0000
0000
0000
,
0000
0000
0000
0000
,
0000
0000
0000
0000
,
0000
0000
0000
0000
,
0001
0110
1001
1000
,
0010
1000
0100
0010
,
0001
0100
0001
0010
,
0100
1000
0010
0100
,
0001
0010
0100
1000
,
0010
1010
0001
0100
,
0001
0011
0100
0010
,
1000
1100
0001
1000
,
0010
0101
0100
0010
,
1000
1100
0001
0101
,
0100
0110
0010
1010
,
0001
0011
0100
0110
,
0010
1010
0001
1000
,
1001
0010
1000
0001
,
0110
0100
0001
0010
,
1100
0001
1000
0100
,
0011
0100
0010
1000
,
0011
0100
1010
0001
,
1100
0010
1000
0001
,
0110
0100
0101
0010
,
1001
0100
0220
0330
,
1001
0010
1000
0100
,
1010
0001
1000
0100
,
0011
0100
0010
1000
,
0101
0010
1000
0001
,
0010
1100
0001
0100
,
1000
0011
0100
0010
,
1000
1010
0010
0100
,
0001
0101
1000
0100
,
0010
0011
0100
1000
,
0010
1010
0001
0100
,
1000
1100
0100
0010
,
0001
0101
1000
0010
,
0100
0110
1001
0010
,
1001
0000
0000
0000
,
1000
1001
0110
0100
,
0001
0000
1000
2020
0000
0000
0000
0000
,
0000
0000
0000
0000
,
0000
0000
3030
0000
;

//---------------dance-single - ----------------
#NOTEDATA:;
#CHARTNAME:;
#CHARTHASH:0:
#STEPSTYPE:dance-single;
#BANNER:;
#DESCRIPTION:;
#CHARTSTYLE:;
#DIFFICULTY:Beginner;
#METER:2;
#METERF:0.000000;
#RADARVALUES:0.125671,0.161550,0.076023,0.021721,0.000000,81.000000,74.000000,7.000000,2.000000,0.000000,0.000000,0.000000,0.000000,0.000000,0.125671,0.161550,0.076023,0.021721,0.000000,81.000000,74.000000,7.000000,2.000000,0.000000,0.000000,0.000000,0.000000,0.000000;
#CREDIT:;
#DISPLAYBPM:114.000000;
#NOTES:
// measure 0
0000
0000
0000
0000
,  // measure 1
0000
0000
0000
0000
,  // measure 2
0000
0000
0000
0000
,  // measure 3
0000
0000
0000
0000
,  // measure 4
0001
0000
1000
0000
,  // measure 5
0010
0000
0010
0000
,  // measure 6
0100
0000
0100
0000
,  // measure 7
1000
0000
0001
0000
,  // measure 8
1000
0000
0001
0000
,  // measure 9
0010
0010
0000
0000
,  // measure 10
0100
0100
0000
0000
,  // measure 11
0001
0001
0000
0000
,  // measure 12
1000
1000
0000
0000
,  // measure 13
0010
0000
0100
0000
,  // measure 14
0110
0000
0000
0000
,  // measure 15
0001
0000
1000
0000
,  // measure 16
1001
0000
0000
0000
,  // measure 17
0010
0000
1000
0000
,  // measure 18
0010
0000
0100
0000
,  // measure 19
0001
0000
0010
0000
,  // measure 20
0001
0000
1000
0000
,  // measure 21
0100
0000
0010
0000
,  // measure 22
1001
0000
0000
0000
,  // measure 23
0001
0000
1000
0000
,  // measure 24
0110
0000
1001
0000
,  // measure 25
1000
0000
0001
0000
,  // measure 26
0010
0000
0001
0000
,  // measure 27
0100
0000
0010
0000
,  // measure 28
1000
0000
0100
0000
,  // measure 29
1000
1000
0000
0000
,  // measure 30
0001
0001
0000
0000
,  // measure 31
0010
0010
0000
0000
,  // measure 32
0100
0100
0000
0000
,  // measure 33
0001
0001
0001
0000
,  // measure 34
0100
0100
0100
0000
,  // measure 35
0010
0010
0010
0000
,  // measure 36
1000
1000
1000
0000
,  // measure 37
0010
0000
0100
0000
,  // measure 38
1001
0000
0000
0000
,  // measure 39
0100
0000
0010
0000
,  // measure 40
1000
0000
0000
2020
0000
0000
0000
0000
,  // measure 41
0000
0000
0000
0000
,  // measure 42
0000
0000
3030
0000
;
