#TITLE:Low;
#ARTIST:Flo Rida ft. T-Pain;
#BANNER:Low-bn.png;
#BACKGROUND:Low-bg.png;
#JACKET:Low-jacket.png;
#MUSIC:Low.ogg;
#OFFSET:0.703;
#SAMPLESTART:15.369;
#SAMPLELENGTH:20;
#DISPLAYBPM:128;
#BPMS:0=128;
#BGCHANGES:;

//---------------dance-single - ----------------
#NOTES:
     dance-single:
     :
     Beginner:
     4:
     :
0000
0000
0000
0000
,
0000
0000
0000
0000
,
0000
0000
0000
0000
,
0000
0000
0000
0000
,
0000
0000
0000
0000
,
1000
0000
0001
0000
,
1000
0000
0001
0001
,
0001
0000
0100
0000
,
0010
0000
1000
0000
,
0100
0100
0100
0000
,
1000
1000
1000
0000
,
1001
0000
0010
0000
,
0100
0100
0100
0000
,
0000
0001
0001
0000
,
0000
1000
1000
0000
,
0010
0000
0010
0000
,
0010
0000
0010
0000
,
0100
0100
0100
0000
,
0001
0001
0001
0000
,
0110
0000
0001
0000
,
1000
1000
1000
0000
,
0000
0010
0010
0000
,
0000
0100
0100
0000
,
0001
0000
1000
0000
,
0001
0000
1000
0000
,
0010
0000
1000
0000
,
0100
0000
1000
0000
,
0001
0000
0010
0000
,
0001
0000
0100
0000
,
0010
0000
0010
0000
,
1000
0000
1000
0000
,
0001
0001
0001
0000
,
0100
0100
0100
0000
,
0010
0000
1000
0000
,
0010
0000
0100
0000
,
0001
0000
1000
0000
,
0001
0000
0100
0000
,
0010
0010
0000
0000
,
0100
0100
0000
0000
,
0001
0001
0000
0000
,
1000
1000
1000
0000
,
0100
0100
0100
0000
,
0010
0010
0010
0000
,
1001
0000
0010
0000
,
1000
1000
1000
0000
,
0000
0100
0100
0000
,
0000
0010
0010
0000
,
0001
0000
0100
0000
,
0010
0000
1000
0000
,
0100
0000
1000
0000
,
0001
0001
0001
0000
,
0110
0000
0100
0000
,
0001
0001
0001
0000
,
0000
1000
1000
0000
,
0000
0001
0001
0000
,
0010
0010
0010
0010
,
0010
0010
0010
0010
,
0010
0000
0000
0000
;

//---------------dance-single - ----------------
#NOTES:
     dance-single:
     :
     Easy:
     7:
     :
0000
0000
0000
0000
,
0000
0000
0000
0000
,
0000
0000
0000
0000
,
0000
0000
0000
0000
,
0000
0000
0000
0000
,
1000
0100
1000
0100
,
0001
0100
0001
0100
,
1000
0010
1000
0010
,
0001
0010
0001
0010
,
0001
0100
1000
1010
,
0100
1000
0001
0011
,
0202
0300
1000
0103
,
1000
0010
0200
0300
,
1001
1000
0100
0001
,
0100
1000
0010
0100
,
0002
2003
3002
2003
,
3020
0230
0320
0230
,
0301
0010
1100
0010
,
1000
0100
1001
0100
,
1010
0001
0010
0100
,
1000
0001
1000
1001
,
0000
1000
0010
1000
,
0100
0010
0001
0100
,
0020
0230
0320
0230
,
0302
2003
3002
2003
,
3010
1000
0100
0001
,
1001
0010
0001
0100
,
0110
0010
1000
0100
,
1100
0001
0010
0100
,
0011
0100
0010
1000
,
0100
1000
0001
0100
,
0010
0010
1000
0100
,
0110
0001
0100
1001
,
0110
1000
1010
0001
,
0011
0001
0101
1000
,
1010
0100
0110
1000
,
1100
0010
0011
0100
,
2000
3002
0013
0100
,
2000
3020
0130
0001
,
0020
0032
0103
1000
,
0020
1030
0002
0203
,
0310
1000
0100
1010
,
0001
0100
0010
0101
,
2200
0300
0001
3100
,
0001
1000
0020
0030
,
1001
0010
1000
0100
,
0001
0010
0100
1000
,
0200
0320
0230
0320
,
0032
2003
3002
2003
,
3010
1000
0101
0010
,
0100
0010
1001
0100
,
0110
1000
0010
0001
,
0100
0010
1000
1001
,
0000
1000
0001
0010
,
0001
0100
1000
0010
,
2000
3002
2003
3002
,
0203
0320
0230
0320
,
2030
0000
0000
3000
;

//---------------dance-single - ----------------
#NOTES:
     dance-single:
     :
     Medium:
     10:
     :
0000
0000
0000
0000
,
0000
0000
0000
0000
,
0000
0000
0000
0000
,
0000
0000
0000
0000
,
0000
0000
0000
0000
,
1000
0100
0000
1000
0100
0000
1000
0010
,
0001
0100
0000
0001
0100
0000
0001
0010
,
1000
0100
0000
1000
0100
0000
1000
0010
,
0001
0100
0000
0001
0100
0010
1000
0001
,
1000
0100
0001
0100
1000
0000
1010
0000
,
0101
0000
0001
0100
0020
0000
1030
0001
,
0200
0000
0300
0010
2000
0000
3001
1000
,
0100
0010
0001
0000
0102
0000
1003
0000
,
0000
1000
0100
1000
0100
0001
0100
0001
,
0100
1000
0010
0100
0001
0000
0001
1000
,
0020
1000
0100
1000
,
0001
0000
1000
0000
0001
0000
0130
0010
,
0100
1000
0001
0000
0110
0000
0001
0100
,
0010
0001
0010
1000
0200
0000
1300
0001
,
0100
0010
0100
0010
0100
0001
1000
0001
,
0010
0100
1000
0100
0010
0000
1001
0000
,
0000
1000
0100
1000
0100
0001
0100
0001
,
0100
1000
0010
0100
0001
0000
1000
0001
,
0020
0100
0001
1000
,
0100
0000
1000
0000
0100
0000
0031
2000
,
0000
0000
3010
1000
0100
0010
0001
0100
,
0001
0000
1000
0010
1000
0100
0010
0001
,
0100
0000
0001
0010
0001
1000
0001
0010
,
0100
0000
0010
0001
0100
0010
1000
0001
,
0100
0000
0110
0001
1000
0000
1001
0100
,
0010
0000
1010
0001
0100
0010
1000
0001
,
1000
0100
1000
0100
0010
0001
0100
0001
,
0010
0000
0001
0100
1000
0000
0010
1000
,
0100
0000
1000
0001
0000
1000
0010
0000
0100
0001
0000
0010
,
0100
0000
0010
0001
0000
0100
0010
0000
0100
0001
0000
1000
,
0100
0000
0010
0001
0000
1000
0001
0000
1000
0100
0000
1000
,
0010
0000
0100
0010
0000
0100
0001
0000
0010
0100
0000
1000
,
0020
0000
0000
0230
0000
0000
0301
0000
1000
0001
0000
0100
,
0002
0000
0000
2003
0000
0000
3100
0000
0010
0100
0000
1000
,
0002
0000
0000
0203
0000
0000
0301
0000
0010
0100
0000
1000
,
0020
0000
1030
0001
0200
0000
0320
0000
,
1030
0100
0001
0100
1000
0000
1100
0000
,
0011
0000
0100
0010
2000
0000
3100
0010
,
0002
0000
0003
1000
0020
0000
1030
0100
,
0001
0100
0010
0000
0110
0000
1001
0000
,
0000
1000
0100
1000
0100
0001
0100
0001
,
0100
1000
0010
0100
0001
0000
1000
0001
,
0020
1000
0001
1000
,
0100
0000
0001
0000
0100
0000
1030
0010
,
0001
0100
0010
0000
0110
0000
1000
0001
,
0010
1000
0010
0001
0200
0000
0310
1000
,
0001
0100
0010
0100
0010
1000
0001
1000
,
0001
0010
0100
0010
0001
0000
0101
0000
,
0000
1000
0100
1000
0100
0001
0100
0001
,
0100
1000
0010
0100
0001
0000
0010
0001
,
0200
0010
1000
0010
,
0001
0000
1000
0000
0001
0000
0310
1000
,
0200
0000
0000
0300
;

//---------------dance-single - ----------------
#NOTES:
     dance-single:
     :
     Hard:
     13:
     :
0000
0000
0000
0000
,
0000
0000
0000
0000
,
0000
0000
0000
0000
,
0000
0000
0000
0000
,
0000
0000
0000
0000
,
1000
0100
0100
1000
0100
0100
1000
0010
,
0001
0100
0100
0001
0100
0100
0001
0010
,
1000
0100
0100
1000
0100
0100
1000
0010
,
0001
0000
0100
0000
0100
0000
0001
0000
0100
0000
0001
1000
0001
0000
0100
0000
,
0010
1000
0100
0010
0001
0100
0011
0000
,
1100
0000
0001
0100
0020
1000
1030
0100
,
2010
0000
3001
0100
0100
0010
1000
0001
,
0010
1000
0010
0100
0010
0001
0101
0000
,
1001
1000
0100
1000
0100
0001
0100
0001
,
0100
0000
1000
0000
0010
0000
0100
0000
0001
0000
0000
0000
1000
0100
1000
0000
,
0020
1000
2030
0100
3200
0001
0302
0010
,
0023
0001
0032
0100
0203
1000
2300
0010
,
3010
0100
0001
0000
0110
1000
0001
0100
,
0010
0001
0010
1000
0020
0100
0130
0001
,
0102
1000
1003
0100
0100
0001
0100
0010
,
1000
0010
0100
0010
0001
0000
1100
0000
,
1001
1000
0100
1000
0100
0001
0100
0001
,
0100
0000
1000
0000
0010
0000
0100
0000
0001
0000
0000
0000
0001
0010
0001
0000
,
0200
0001
0302
0010
0023
1000
2030
0100
,
3200
1000
2300
0010
3020
0001
0032
0100
,
0203
0000
0000
0000
0310
1000
0010
1000
0010
0000
0100
0000
0001
0000
1000
0000
,
0100
0000
1000
0000
1000
0000
0001
0100
0001
0000
0010
0000
0001
1000
0001
1000
,
0000
0000
0100
1000
0100
0000
0010
0000
0001
0000
0100
0000
0010
0000
1000
0001
,
0000
0000
0110
0000
1001
0000
0010
0100
0010
0000
1000
0001
1000
0000
0001
0100
,
0000
0000
1010
0000
0100
0000
1000
0001
0000
0000
0011
0000
1100
0000
0010
0100
,
0000
0000
0101
0000
1010
0000
1000
0001
0000
0001
0100
0000
0010
0000
1000
0000
,
0100
0000
1000
0000
1000
0000
0001
0000
0001
0000
1000
0100
1000
0000
0001
0100
,
0001
0000
0010
0000
0001
1000
0001
1000
0002
0000
0000
0000
0103
0000
0010
1000
,
0001
0000
0010
0001
0100
0010
1000
0000
0100
1000
0010
0100
,
0001
0000
1000
0001
0010
0100
1000
0000
0010
1000
0100
0010
,
0001
1000
0001
0100
0000
0000
0010
1000
0010
0100
0000
0000
,
0001
0010
0100
1000
0100
0010
0001
0010
0100
1000
0100
0010
,
0002
0000
0000
2003
0000
0000
3010
1000
0100
0010
0001
0100
,
0020
0000
0000
2030
0000
0000
3001
0100
0001
0100
0001
0100
,
0020
0000
0000
2030
0000
0000
3001
0010
0001
1000
0010
1000
,
0200
0000
0310
0001
2000
0100
3200
0000
,
0310
1000
0010
0100
0010
0001
0011
0000
,
1100
0000
0001
0100
0020
1000
1030
0100
,
2010
0000
3001
0100
0100
0010
1000
0001
,
0100
0010
0001
0010
2000
0001
3001
0000
,
1001
1000
0100
1000
0100
0001
0100
0001
,
0100
0000
1000
0000
0010
0000
0100
0000
0001
0000
0000
0000
1000
0010
1000
0000
,
0002
0100
0203
1000
2300
0010
3020
0001
,
0032
0010
0023
1000
2030
0100
3200
0001
,
0301
0010
0100
0000
0110
0001
1000
0010
,
1000
0100
0001
0100
1000
0010
0100
0001
,
0101
1000
1000
0001
0100
0010
0001
0010
,
1000
0100
0010
0100
1000
0000
1100
0000
,
1001
1000
0100
1000
0100
0001
0100
0001
,
0100
0000
1000
0000
0010
0000
0100
0000
0001
0000
0000
0000
0001
0100
0001
0000
,
2000
0100
3200
0001
0302
0010
0023
1000
,
2030
0010
3020
0001
0032
0100
0203
1000
,
1300
0000
0000
0000
;

//---------------dance-single - ----------------
#NOTES:
     dance-single:
     :
     Challenge:
     15:
     :
0000
0000
0000
0000
,
0000
0000
0000
0000
,
0000
0000
0000
0000
,
0000
0000
0000
0000
,
0000
0000
0000
0000
,
1000
0000
1000
0000
1000
0000
0001
0100
0001
0000
0001
0000
1000
0000
0100
0000
,
0001
0001
0001
1000
1000
1000
0001
0100
,
0010
0010
0010
1000
1000
1000
0001
1000
,
0100
0000
0100
0000
0100
0000
0010
0000
0010
0000
0001
0100
0001
0000
1000
0000
,
0010
1000
0100
0010
0001
0100
1010
0000
,
0101
0010
1000
0100
0001
0010
0001
1000
,
0120
0001
0031
0100
0010
1000
0010
0100
,
1000
0100
0001
0100
0020
1000
1030
0001
,
1001
1000
0100
1000
0100
0001
0100
0001
,
0100
0000
1000
0000
0100
0000
0001
0000
0100
0000
1000
0000
0010
0100
0001
0000
,
0011
0010
0110
0100
1100
1000
1001
0001
,
0101
0001
0011
0010
0110
0100
1100
1000
,
1010
0010
0100
1000
0100
0001
0010
0100
,
0001
0100
0010
0100
0001
0100
1000
0010
,
0110
1000
0100
0001
0010
1000
0100
0001
,
0010
1000
0100
1000
0010
0100
0101
0000
,
1001
1000
0100
1000
0100
0001
0100
0001
,
0100
0000
1000
0000
0100
0000
0001
0000
0100
0000
1000
0000
0001
0100
0010
0000
,
1010
1000
1001
0001
0101
0100
0110
0010
,
1010
1000
1100
0100
0110
0010
0011
0001
,
1001
0000
0000
0000
0010
1000
0010
0100
0001
0010
0001
0100
0010
0000
1000
0001
,
1000
0000
1100
0000
0011
0000
0100
0010
1000
0000
0001
0010
0001
0100
0001
1000
,
0010
0000
0100
0001
1000
0000
1010
0000
0101
0000
0010
0001
0100
0000
0010
1000
,
0001
0000
0110
0000
1001
0000
0100
0010
1000
0000
0100
1000
0001
0000
0010
0001
,
0100
0000
0110
0000
0010
0000
1000
0001
0000
0001
0010
0000
0011
0000
0001
1000
,
0000
1000
0100
0000
1100
0000
0010
0100
0000
0001
1000
0000
1010
0000
1100
0000
,
0001
0000
0001
0000
1001
0000
1010
0000
1100
0000
1000
0100
0010
0000
0100
0010
,
0001
0000
0000
0000
0000
0000
0110
0000
0000
0000
0000
0000
0010
0000
0000
0001
0000
0000
0100
0000
0000
0010
0000
0000
1000
0000
0001
0000
1000
0000
0001
0000
0000
0000
0000
0000
0100
0000
0000
0000
0010
0000
0000
0000
0100
0000
0000
0000
,
0001
0010
0100
0010
0001
0100
0010
1000
0001
1000
0100
0010
,
0100
1000
0010
1000
0001
0010
0001
0100
0010
1000
0100
1000
,
0001
0010
0001
0010
0100
0010
0001
1000
0100
1000
0010
1000
,
0100
0010
0100
1000
0010
0100
0001
0010
0001
0100
0010
1000
,
0002
0100
0000
0013
0000
0000
0100
1000
0001
0010
0001
0100
,
0020
1000
0000
0130
0000
0000
1000
0001
0010
0001
0100
0001
,
2000
0100
0000
3001
0000
0000
0010
0001
0010
0100
1000
0010
,
2000
0000
0001
0000
0000
0000
3010
0000
0000
0100
0000
0000
0002
0000
0010
0000
0000
0000
2003
0000
0000
0000
0000
0000
,
3100
0010
0001
0100
0010
1000
0101
0000
,
1010
0001
1000
0100
0001
0100
0010
0100
,
2100
0010
3010
0100
0001
1000
0001
0100
,
1000
0100
0010
0100
0002
1000
1003
0000
,
1001
1000
0100
1000
0100
0001
0100
0001
,
0100
0000
1000
0000
0100
0000
0001
0000
0100
0000
0010
0000
0001
1000
0100
0000
,
1100
0100
0101
0001
1001
1000
1010
0010
,
0110
0100
0101
0001
0011
0010
1010
1000
,
0100
1000
1100
0000
0011
0100
0001
1000
,
0010
0001
0010
1000
0100
0001
0100
0010
,
0110
0001
0010
1000
0100
0001
0010
1000
,
0100
0001
1000
0010
0100
0010
0110
0000
,
1001
1000
0100
1000
0100
0001
0100
0001
,
0100
0000
1000
0000
0100
0000
0001
0000
0100
0000
0010
0000
0100
1000
0001
0000
,
0011
0001
0101
0100
1100
1000
1010
0010
,
0011
0010
0110
0100
1100
1000
1001
0001
,
0101
0000
0000
0000
;
