#TITLE:Love You More;
#SUBTITLE:;
#ARTIST:BEMANI Sound Team "Sota F.";
#TITLETRANSLIT:Love You More;
#SUBTITLETRANSLIT:;
#ARTISTTRANSLIT:;
#GENRE:;
#CREDIT:;
#BANNER:Love You More.png;
#BACKGROUND:Love You More-bg.png;
#LYRICSPATH:;
#CDTITLE:;
#MUSIC:Love You More.ogg;
#OFFSET:0.000000;
#SAMPLESTART:34.285999;
#SAMPLELENGTH:20.000000;
#SELECTABLE:YES;
#BPMS:0.000000=175.000000
;
#STOPS:186.500000=0.343000,
286.500000=1.371000
;
#BGCHANGES:;
#KEYSOUNDS:;
#ATTACKS:;

//---------------dance-single - ----------------
#NOTES:
     dance-single:
     :
     Beginner:
     3:
     0.171996,0.269622,0.084787,0.000000,0.000000,142.000000,132.000000,10.000000,0.000000,0.000000,0.000000,0.171996,0.269622,0.084787,0.000000,0.000000,142.000000,132.000000,10.000000,0.000000,0.000000,0.000000:
0000
0000
0000
0000
,
0000
0000
0000
0000
,
0000
0000
0000
0000
,
0000
0000
0000
0000
,
0000
0000
0000
0000
,
1000
0000
0000
0000
,
0001
0000
0000
0000
,
1000
0000
0000
0000
,
0001
0000
0000
0000
,
0010
0000
0000
0000
,
0010
0000
0000
0000
,
0100
0000
0000
0000
,
0100
0000
0000
0000
,
0010
0000
0000
0000
,
0010
0000
0000
0000
,
0100
0000
0000
0000
,
1001
0000
0000
0000
,
0100
0000
0100
0000
,
0010
0000
0010
0000
,
0100
0000
0100
0000
,
0010
0000
0010
0000
,
1000
0000
1000
0000
,
0100
0000
0100
0000
,
0010
0000
0010
0000
,
0001
0000
0001
0000
,
0010
0010
0010
0000
,
0010
0010
0010
0000
,
1001
0000
0000
0000
,
1001
0000
0000
0000
,
0100
0100
0100
0000
,
0100
0100
0100
0000
,
1001
0000
0000
0000
,
1001
0000
0000
0000
,
0001
0000
1000
0000
,
0010
0000
0000
0000
,
0100
0000
0001
0000
,
1000
0000
0000
0000
,
0010
0010
0010
0000
,
0010
0010
0010
0000
,
1001
0000
0000
0000
,
1001
0000
0000
0000
,
1000
0000
1000
0000
,
0100
0000
0100
0000
,
0001
0000
0001
0000
,
0010
0000
0010
0000
,
0001
0000
0001
0000
,
0010
0000
0010
0000
,
0000
0000
0000
0010
,
0000
0000
0000
0010
,
0000
1000
0000
0010
,
0000
1000
0000
0100
,
0000
1000
0000
0100
,
0000
1000
0000
0001
,
0000
0010
0000
0001
,
0000
0010
0000
0100
,
0100
0100
0000
0100
,
0100
0100
0000
1001
,
0000
0000
0000
0010
,
0000
0000
0000
0100
,
0000
1000
0000
0100
,
0000
0001
0000
0010
,
0010
0010
0000
0010
,
0010
0010
0000
1001
,
0000
0000
0000
1001
,
0000
0000
0000
1000
,
0000
0100
0000
0010
,
0000
0001
0000
1000
,
0000
0100
0000
0010
,
0000
0001
0000
0001
,
0000
0100
0000
0010
,
0000
1000
0000
0001
,
0000
0100
0000
0000
,
0000
0000
0000
0010
,
0000
0010
0000
0100
,
0000
0000
0000
1000
,
0000
1000
0000
0001
,
0000
0001
0000
0010
,
0000
0010
0000
0100
,
0000
0100
0000
1000
,
1000
1000
1000
0000
,
0000
0000
0000
0000
;

//---------------dance-single - ----------------
#NOTES:
     dance-single:
     :
     Easy:
     9:
     0.383963,0.405069,0.076308,0.042393,0.000000,317.000000,308.000000,9.000000,5.000000,0.000000,0.000000,0.383963,0.405069,0.076308,0.042393,0.000000,317.000000,308.000000,9.000000,5.000000,0.000000,0.000000:
0000
0000
0000
0000
,
0000
0000
0000
0000
,
0000
0000
0000
0000
,
0000
0000
0000
0000
,
0000
0000
0000
0000
,
0001
0100
1000
0010
,
1000
0100
0001
0010
,
1000
0001
0100
0010
,
1001
0000
0000
0110
0000
0000
1001
0000
,
1000
0000
1000
0000
1000
0000
0001
0100
,
0001
0000
0001
0000
0001
0000
1000
0100
,
1000
0000
1000
0000
1000
0000
0001
0010
,
0001
0000
0001
0000
0001
0000
1000
0010
,
1000
0000
0100
0000
0010
0000
0001
0100
,
0001
0000
0100
0000
0010
0000
1000
0100
,
1000
0000
0001
0000
,
0002
0000
2003
0000
,
3010
1000
0100
0000
,
0010
0001
0100
0000
,
1000
0100
0001
0100
,
1000
0100
0001
0100
,
1000
0001
0100
0000
,
0001
1000
0100
0000
,
0010
0000
1000
0000
0010
0000
0001
0010
,
0000
1000
0000
0010
0000
0010
0010
0000
,
0001
0000
1000
0000
0010
0100
0100
0000
,
1000
0000
0001
0000
0010
0100
0100
0000
,
0001
0000
1000
0000
,
0010
0000
0100
0000
,
0001
0000
1000
0000
0010
0100
0100
0000
,
1000
0000
0001
0000
0010
0100
0100
0000
,
1000
0000
0001
0000
,
0100
0000
0010
0000
,
0001
0000
1000
0100
1000
0000
0000
0000
,
1000
0000
0001
0100
0001
0000
0000
0000
,
0010
0000
1000
0010
1000
0000
0000
0000
,
0010
0000
0001
0010
0001
0000
0000
0000
,
1000
0000
0001
0000
0100
0010
0010
0000
,
0001
0000
1000
0000
0100
0010
0010
0000
,
0100
0000
0000
0000
0010
0000
0000
1001
,
0000
1100
0000
0101
0000
0000
0000
0000
,
1000
0001
1000
0010
,
1000
0100
1000
0010
,
0001
1000
0001
0100
,
0001
0100
0000
0010
0000
0100
0000
0000
,
0200
0301
1000
0010
,
0100
0001
0000
1000
0000
0001
1000
0000
,
0100
0000
0010
0000
0001
0000
1000
0010
,
0000
0100
0000
0000
0000
0000
0001
0000
,
0100
0000
0010
1000
0001
0000
1000
0000
,
0010
0000
1000
0001
0010
0000
0001
0000
,
0100
0000
0010
1000
0001
0000
1000
0000
,
0010
0000
0100
0001
0010
0000
1000
0000
,
1000
0001
0001
0100
,
0100
0010
0010
1000
,
0001
0000
0100
0010
0010
0000
0001
0000
,
1000
0000
0100
0010
0010
0000
0001
0000
,
1000
0000
0001
0010
0001
0000
0010
0000
,
0100
0000
1000
0100
1000
0000
0001
0000
,
0010
1000
0100
0001
,
0010
1000
1001
1000
,
0001
0000
0100
0010
0010
0000
0001
0000
,
1000
0000
0010
0100
0100
0000
0010
0000
,
0000
0010
0000
2002
,
0000
0000
3003
0100
,
0100
1000
0001
1000
,
0100
0010
0001
0010
,
0010
0001
1000
0010
,
0001
1000
0110
0001
,
0001
0000
1000
0000
1000
0001
0000
0100
,
0010
0100
0000
0000
0010
0000
0001
0000
,
0001
1000
1000
0001
,
1000
0000
0010
0100
0010
0000
1000
0000
,
0001
0000
0100
0010
0100
0000
0001
0000
,
1000
0000
0010
0100
0010
0000
1000
0100
,
1000
0000
0001
0100
0001
0000
0100
0000
,
0100
0000
0010
0000
0010
0001
0000
1000
,
0100
1000
0000
0001
0000
0000
1000
0000
,
0100
0000
0010
0000
0001
0000
1000
0100
,
0010
0001
1000
0100
0010
0001
0000
0000
,
0000
0000
0000
0000
;

//---------------dance-single - ----------------
#NOTES:
     dance-single:
     :
     Medium:
     12:
     0.594718,0.573847,0.161095,0.067829,0.000000,491.000000,472.000000,19.000000,8.000000,0.000000,0.000000,0.594718,0.573847,0.161095,0.067829,0.000000,491.000000,472.000000,19.000000,8.000000,0.000000,0.000000:
0000
0000
0000
0000
,
0000
0000
0000
0000
,
0000
0000
0000
0000
,
0000
0000
0000
0000
,
0000
0000
0000
0000
,
1000
0000
0001
1000
0010
0000
0220
0330
,
0001
0000
1000
0001
0100
0000
2002
3003
,
0100
0010
0001
1000
,
0101
0000
0000
1010
0000
0000
1001
0000
,
0001
0000
0100
0010
1000
0000
0010
0000
,
1000
0000
0100
0010
0001
0000
0100
0000
,
0010
0000
0100
0010
1000
0000
0001
0000
,
1000
0000
0100
1000
0010
0000
0100
0000
,
0001
0000
1000
0001
0100
0000
0010
0000
,
1000
0000
0100
0010
0001
0000
1000
0100
,
0010
0000
0001
0100
0010
0000
1000
0000
,
0001
0100
0010
1000
0001
0010
0100
1000
,
0100
0000
0010
0000
0001
1000
0010
1000
,
0000
0010
0100
0001
0000
0010
0100
0001
,
0000
0010
0100
0000
1000
0001
0100
0001
,
0000
0010
0100
1000
0000
0010
0100
1000
,
0000
0000
0010
0000
1000
0001
0010
0100
,
0000
1000
0100
0001
0000
1000
0100
0001
,
0000
0010
0100
0000
0001
0010
0100
1000
,
0000
0101
0000
1100
0000
0010
0100
0000
,
0001
0010
0100
1000
0010
0100
0001
0000
,
1000
0100
0010
0001
0100
0010
1000
0000
,
0001
0000
0100
0010
1000
0001
0100
0000
,
0010
0000
1000
0100
0010
0001
0100
0000
,
0010
1000
0100
0001
0100
1000
0001
0000
,
0010
0001
0100
1000
0100
0001
1000
0000
,
0010
0000
0100
0001
0010
0000
1100
0000
,
0010
0000
1000
0100
0010
0000
0101
0000
,
1000
0100
0010
0100
1000
0000
0101
0000
,
0001
0010
0100
0010
0001
0000
1100
0000
,
1000
0010
0001
0010
1000
0000
0011
0000
,
0001
0010
1000
0010
0001
0000
1010
0000
,
0001
0010
0100
1000
0010
0100
0001
0010
,
1000
0010
0001
1000
0100
0010
0001
2000
,
0000
0000
0000
0000
3100
0010
0001
1000
,
0000
1100
0000
0101
0000
0010
1001
0000
,
0020
0000
1030
0001
1000
0010
1000
0100
,
0010
0001
0100
0010
1000
0001
0100
0010
,
1000
0001
1000
0100
0000
0001
0000
0100
,
0010
0100
1000
0010
0000
0001
0000
0010
,
0200
0000
0310
1000
0100
0010
0001
0100
,
0001
0010
0100
0010
0001
1000
0100
0010
,
0001
0010
0000
1000
0000
0010
0001
0100
,
0000
0100
0000
0010
1001
0000
1000
0100
,
0010
0100
1000
0010
0100
0001
0010
0100
,
0010
0001
0100
0010
1000
0100
0010
0001
,
1000
0100
0000
0100
0010
0001
0000
0001
,
0100
0000
0100
1000
0001
0000
1000
0100
,
0010
0001
0010
0100
0010
0001
0100
0010
,
0100
0001
0010
0100
0010
0001
1000
0100
,
0001
0100
1000
0010
1000
0000
1000
0010
,
0001
0010
1000
0001
0010
0000
0001
0010
,
0100
0010
0001
0100
0010
1000
0100
0010
,
0100
1000
0010
0100
0001
0010
0100
1000
,
0001
0010
0000
0010
0100
1000
0000
1000
,
0010
0000
0010
0001
1000
0000
0001
0100
,
1000
0100
0001
0010
0001
0000
0001
0010
,
1000
0010
0001
1000
0100
0010
0000
0000
,
0001
0000
1000
0100
0010
0001
0000
0010
,
0000
1000
0100
0001
0010
0100
1000
0001
,
0010
0100
0010
0001
0100
0010
1000
0100
,
0010
0001
0100
0000
0010
0000
1000
0100
,
0001
0100
1000
0100
0001
0100
1000
0010
,
0100
0010
1000
0000
0100
0000
0010
0001
,
0010
1000
0010
0001
0010
1000
0000
0010
,
0001
2000
0000
3000
0110
0000
0001
0010
,
0100
0010
0001
0100
0010
0100
0001
1000
,
0100
0010
0100
1000
0010
0100
0010
1000
,
0100
0010
0001
0100
0010
1000
0100
0010
,
0001
1000
0010
0100
0001
1000
0000
1000
,
0001
0000
0100
0010
0100
0000
0001
0100
,
0010
1000
0001
0010
1000
0010
0000
0010
,
0001
0100
0000
1001
0000
0000
0001
1000
,
0100
0001
0100
1000
0001
0100
0010
1000
,
0001
0100
1000
0100
0001
1000
0000
0000
,
0000
0000
0000
0000
;

//---------------dance-single - ----------------
#NOTES:
     dance-single:
     :
     Hard:
     16:
     0.818797,0.877649,0.457848,0.178052,0.419694,676.000000,622.000000,54.000000,21.000000,0.000000,0.000000,0.818797,0.877649,0.457848,0.178052,0.419694,676.000000,622.000000,54.000000,21.000000,0.000000,0.000000:
0000
0000
0000
0000
,
0000
0000
0000
0000
,
0000
0000
0000
0000
,
0000
0000
0000
0000
,
0000
0000
0000
0000
,
1000
0000
0001
0100
0010
0000
2002
3000
,
0103
0000
0010
1000
0100
0010
0002
0203
,
0310
0000
1000
0010
0100
0001
0010
0100
,
0010
0000
0001
0101
0000
0010
1100
0000
,
0001
0000
1000
0000
0001
0000
0010
0100
0010
0000
0001
0000
0010
0000
0000
0000
,
0001
0000
0100
0000
0010
0000
1000
0010
1000
0000
0001
0000
0100
0000
0000
0000
,
0010
0000
1000
0000
0001
0000
0100
0010
0100
0000
0001
0000
0100
0000
0000
0000
,
0010
0000
1000
0000
0001
0000
0010
0100
1000
0000
0001
0000
0010
0000
0001
0000
,
0100
0000
0010
0000
1000
0000
0010
0100
0001
0000
1000
0000
0100
0000
0000
0000
,
0010
0000
0001
0000
1000
0000
0100
0010
0100
0000
1000
0000
0001
0010
0100
1000
,
0001
0010
0100
0010
0000
0100
1000
0001
,
0101
0000
0000
0000
1000
0000
0001
0000
1000
0100
0010
0001
1000
0010
0100
0001
,
1000
0001
0100
0000
0010
1000
0001
1100
,
0000
0000
0001
0000
1000
0000
0010
0000
0100
0010
1000
0000
0001
0000
0100
0000
,
0010
1000
0100
0000
0010
0001
1000
0101
,
0000
0000
0010
0000
0100
0000
0001
0000
1000
0001
0010
0000
0001
0000
1000
0000
,
0010
0100
0001
0000
0010
0001
1000
0011
,
0000
0000
0001
0000
1000
0000
0010
0000
0100
0001
1000
0000
0100
0000
0010
0000
,
0001
0100
1000
0100
0001
0100
0010
1100
,
0000
0000
0101
0000
0000
0000
1001
0000
0000
0000
0100
0010
1001
0000
0000
0000
,
1000
0000
0010
0000
0100
0000
0001
0000
0010
0001
1000
0001
0010
0000
0000
0000
,
0001
0000
0100
0000
0010
0000
1000
0000
0100
1000
0001
1000
0100
0000
0010
0000
,
0000
0001
1000
0100
0001
0100
1000
0001
,
0100
0000
0010
0000
1000
0000
0001
0000
0100
0010
1000
0010
0100
0000
0010
0000
,
1000
0000
0001
0000
0100
0000
0010
0000
1000
0001
0100
0001
1000
0000
0000
0000
,
0010
0000
1000
0000
0001
0000
1000
0000
0010
0100
0001
0100
0010
0000
0100
0000
,
0000
0001
0100
0010
1000
0100
0010
0011
,
0000
0000
1100
0000
1000
0000
0001
0010
0100
0000
0100
1000
0001
0000
0100
0000
,
0010
0000
0100
0001
1000
0000
0010
0000
1010
0000
0000
0000
1001
0000
0000
0000
,
0010
0000
0001
1000
0100
0000
0010
0000
0101
0000
0000
0000
1001
0000
0000
0000
,
0010
0000
0100
0001
1000
0000
0010
0000
0110
0000
0000
0000
1100
0000
0000
0000
,
0001
0000
0100
0010
1000
0000
0010
0000
0110
0000
1000
0000
0100
0000
0010
0000
,
0001
0000
0100
0000
0010
0000
1000
0000
0001
0100
0010
0100
0001
0000
0000
0000
,
1000
0000
0100
0000
0010
0000
0001
0000
1000
0010
0100
0001
1000
0000
0100
0000
,
0000
0100
0001
1000
1100
0100
0010
0011
,
0000
1100
0000
1001
0000
1000
0110
0000
,
2002
0000
0003
0000
3010
0000
0100
0010
0100
0000
0001
0000
1000
0000
0100
0000
,
0010
0001
0010
0000
0100
0000
1000
0000
0000
0000
1000
0000
0100
0000
0001
0000
,
0100
0000
1000
0010
0100
0000
0001
0000
0000
0000
1100
0000
0000
0000
0101
0000
,
1000
0000
0100
0010
0100
0000
1001
0000
0000
0000
1010
0000
0000
0000
0100
0000
,
2020
0000
3030
0000
0001
0000
0100
0010
0100
0000
0001
0000
1000
0100
1000
0000
,
0001
0000
0010
0100
0010
0000
0001
0000
0100
0000
1010
0000
0001
0000
1000
0000
,
0010
0100
0000
0100
0001
0010
0011
1001
,
0000
0000
0110
0000
0000
0000
1000
0100
1001
0000
0000
0000
1000
0000
0001
0000
,
0100
0000
0001
0010
0001
0000
1000
0000
0100
0000
0010
0000
0001
0010
0001
1000
,
0100
0000
0010
0000
0001
0000
0001
0010
0100
0000
1000
0000
0001
0000
0100
0001
,
1000
0010
0100
0001
0100
0020
0000
1030
,
0001
0000
0100
0000
0110
0000
0000
0000
1001
0000
0000
0000
0001
0010
0100
1000
,
0001
0000
0100
0000
0010
0000
1000
0000
0010
0000
0100
0000
0001
1000
0001
1000
,
0100
0010
0000
0010
0001
0100
1100
1000
,
0010
0000
0100
0000
0001
0010
0100
1000
0010
0000
0100
0000
0001
0010
0001
0000
,
0100
0000
0010
0000
1000
0100
0010
0001
0100
0000
0010
0000
1000
0000
0001
0000
,
0100
0000
0010
0100
0010
0000
1000
0000
0100
0000
0010
0000
0001
0100
0010
1000
,
0001
0000
1000
0000
0100
0000
0100
1000
0001
0000
1000
0000
0001
0000
0010
0100
,
1000
0100
1000
0001
0100
0020
0000
1030
,
0100
0010
0101
0000
1001
0000
0110
0100
,
0010
0000
1000
0000
0001
0100
0010
0100
0001
0000
1000
0000
0100
0010
0100
0000
,
1000
0000
0001
0000
1000
0010
0100
0001
1000
0000
0200
0000
0000
0000
0310
0000
,
0001
0000
1000
0000
1001
0000
0010
0000
0100
0000
0020
0000
0000
0000
1030
0001
,
1000
0100
0010
0001
1001
0000
1000
0001
,
0100
0000
0020
0000
1000
0000
0230
0000
0001
0000
0310
0000
1000
0000
0001
0010
,
0100
0010
0110
1000
1001
0000
0100
1000
,
0001
0000
0200
0000
0001
0000
0320
0000
1000
0000
0130
0000
0001
0000
1000
0100
,
0010
0000
0001
0000
0101
0000
0000
0000
1001
0000
0000
0000
1000
0000
0001
0010
,
0001
0000
1000
0000
0010
0100
0001
0000
1000
0000
0001
0000
0000
0000
0001
0100
,
1000
0000
0202
0000
0000
0000
0303
0000
1001
0000
0000
0000
0001
0000
1000
0100
,
0010
0000
0200
0000
1000
0000
0320
0000
0001
0000
0130
0000
0001
0000
0100
0010
,
0100
0000
0001
0000
1000
0010
0100
0000
0001
0000
1000
0000
0100
0000
0001
0100
,
1000
0000
0010
0000
0100
0001
1000
0010
0100
0001
0020
0000
0000
0000
0031
0000
,
0100
0000
0010
0000
0100
0010
1000
0010
0100
0000
0001
0000
0000
0000
1100
0000
,
0101
0000
0000
0000
1100
0000
0100
0000
0001
0000
0100
0000
0010
0000
1000
0100
,
0001
0000
0100
0000
1000
0010
0100
0010
1000
0000
0001
0100
0001
0000
1000
0001
,
0010
0100
1000
0000
0000
0000
1001
0000
0000
0000
0000
0000
0100
0000
0001
0010
,
0001
0000
1000
0000
0010
0100
0001
0010
0100
1000
0100
0000
0010
0001
1000
0010
,
0100
0001
1000
0100
0010
0001
0100
0010
1000
0000
0010
0000
0000
0000
0000
0000
,
0000
0000
0000
0000
;

//---------------dance-double - ----------------
#NOTES:
     dance-double:
     :
     Easy:
     9:
     0.369428,0.405069,0.093265,0.016957,0.000000,305.000000,294.000000,11.000000,2.000000,0.000000,0.000000,0.369428,0.405069,0.093265,0.016957,0.000000,305.000000,294.000000,11.000000,2.000000,0.000000,0.000000:
00000000
00000000
00000000
00000000
,
00000000
00000000
00000000
00000000
,
00000000
00000000
00000000
00000000
,
00000000
00000000
00000000
00000000
,
00000000
00000000
00000000
00000000
,
00000001
00000000
00001000
00000000
,
00010000
00000000
10000000
00000000
,
01000000
00000000
00010000
00000000
,
00001000
00000000
00000100
00000000
,
00000001
00000010
00000100
00010000
,
00001000
00100000
01000000
10000000
,
01000000
01000000
00100000
00100000
,
00001000
00001000
00010000
00010000
,
00001000
00000100
00000010
00000001
,
00000100
00000000
00000010
00000000
00010000
00000000
00001000
00010000
,
00001000
00100000
01000000
10000000
,
01010000
00000000
00000000
00011000
00000000
00000000
00010100
00000000
,
00000010
00001000
00000100
00000000
,
00010000
00001000
00100000
00000000
,
01000000
10000000
00100000
00000000
,
00010000
00001000
00000100
00000000
,
00000010
00000001
00000100
00000000
,
00001000
00010000
01000000
00000000
,
10000000
00000000
01000000
00000000
00100000
00010000
00100000
00001000
,
00000000
00010000
00000000
00011000
00000000
00000000
00000000
00000000
,
00010000
00000000
00000100
00000000
00001000
00000100
00000010
00000000
,
00000001
00000000
00001000
00000000
00000010
00001000
00000100
00000000
,
00010000
00000000
00001000
00000000
,
01000000
00000000
00100000
00000000
,
10000000
00000000
00010000
00000000
01000000
00001000
00010000
00000000
,
00001000
00000000
00010000
00000000
00000100
00001000
00000001
00000000
,
00000100
00000000
00010000
00000000
,
00001000
00000000
00100000
00000000
,
10000000
00000000
00100000
01000000
00010000
00000000
00000000
00000000
,
00100000
00000000
00001000
00010000
00000100
00000000
00000000
00000000
,
00001000
00000000
00000010
00001000
00000100
00000000
00000000
00000000
,
00001000
00000000
00000001
00000100
00000010
00000000
00000000
00000000
,
00001000
00000000
00000010
00000000
00010000
00001000
00100000
00000000
,
00010000
00000000
01000000
00000000
00100000
10000000
01000000
00100000
,
00000000
00000000
00000000
00000000
00100000
00000000
00000000
01010000
,
00000000
00011000
00000000
00010100
00000000
00000000
00000000
00000000
,
00010000
00000100
00010000
00001000
,
00100000
00010000
01000000
00010000
,
10000000
01000000
00100000
00001000
,
00010000
00001000
00000000
00000100
00000000
00000010
00000000
00000000
,
00001000
00000100
00010000
00001000
,
00100000
00010000
00000000
00100000
00000000
01000000
10000000
00000000
,
01000000
00000000
00100000
00000000
00001000
00000000
00010000
00001000
,
00000000
00011000
00000000
00000000
00000000
00000000
00001000
00000000
,
00010000
00000000
00001000
00100000
00010000
00000000
01000000
00000000
,
00010000
00000000
10000000
00100000
01000000
00000000
00001000
00000000
,
00100000
00000000
00001000
00010000
00000100
00000000
00001000
00000000
,
00000010
00000000
00000100
00000001
00000010
00000000
00000001
00000000
,
00000001
00000100
00000100
00010000
,
00010000
01000000
01000000
10000000
,
00010000
00000000
01000000
00100000
01000000
00000000
00010000
00000000
,
10000000
00000000
00100000
01000000
00100000
00000000
01000000
00000000
,
00001000
00000000
00010000
00001000
00100000
00000000
00001000
00000000
,
00010000
00000000
00000100
00001000
00000010
00000000
00001000
00000000
,
00000001
00000100
00000010
00010000
,
00001000
01000000
10010000
01000000
,
00010000
00000000
00100000
00001000
00001000
00000000
00010000
00000000
,
00000100
00000000
00001000
00000001
00000001
00000000
00001000
00000000
,
00000000
00010000
00000000
00022000
,
00000000
00000000
00033000
00001000
,
00010000
01000000
10000000
01000000
,
00010000
00001000
00000100
00000001
,
00000100
00001000
00010000
00100000
,
00010000
00001000
00000110
00000001
,
00000010
00000000
00001000
00000000
00010000
00001000
00000000
00100000
,
00010000
00100000
00000000
00000000
01000000
00000000
10000000
00000000
,
01000000
00100000
00010000
10000000
,
01000000
00000000
00010000
00001000
00010000
00000000
00001000
00000000
,
00000100
00000000
00000001
00000010
00000001
00000000
00001000
00000000
,
00000100
00000000
00000010
00000001
00001000
00000001
00000000
00001000
,
00000100
00001000
00000000
00000001
,
00000100
00000000
00001000
00010000
00001000
00010000
00000000
00001000
,
00100000
00010000
00000000
01000000
00000000
00000000
00100000
00000000
,
00000000
00000000
01000000
00000000
00001000
00000000
00010000
00001000
,
00010000
00000100
00001000
00000010
00000100
00000001
00000000
00000000
,
00000000
00000000
00000000
00000000
;

//---------------dance-double - ----------------
#NOTES:
     dance-double:
     :
     Medium:
     12:
     0.542635,0.573847,0.101744,0.067829,0.000000,448.000000,436.000000,12.000000,8.000000,0.000000,0.000000,0.542635,0.573847,0.101744,0.067829,0.000000,448.000000,436.000000,12.000000,8.000000,0.000000,0.000000:
00000000
00000000
00000000
00000000
,
00000000
00000000
00000000
00000000
,
00000000
00000000
00000000
00000000
,
00000000
00000000
00000000
00000000
,
00000000
00000000
00000000
00000000
,
00000001
00000000
00000100
00000010
00001000
00000000
00002200
00003300
,
00000010
00000000
00010000
00001000
00100000
00000000
20020000
30030000
,
01000000
00000000
00010000
01000000
00001000
00000000
00100000
00000000
,
00101000
00000000
00000000
00010100
00000000
00000000
00011000
00000000
,
00001000
00000000
00010000
00001000
00100000
00000000
01000000
00000000
,
10000000
00000000
00100000
01000000
00010000
00000000
00100000
00000000
,
00001000
00000000
00010000
00001000
00000100
00000000
00000010
00000000
,
00001000
00000000
00000001
00000100
00000010
00000000
00000100
00000000
,
00000010
00000000
00010000
00001000
00000100
00000000
00000010
00000000
,
00001000
00000000
00000100
00010000
00001000
00000000
00100000
00010000
,
01000000
00000000
00100000
10000000
00010000
00000000
00100000
00000000
,
00001000
00000000
00010000
00000000
00001000
00000100
00000001
00000010
,
00000001
00000000
00001000
00000000
00000001
00000010
00000100
00001000
,
00000000
00000010
00000100
00001000
00000000
00010000
00100000
01000000
,
00000000
00000000
00010000
00000000
10000000
01000000
00100000
00010000
,
00000000
01000000
00100000
00010000
00000000
00001000
00000100
00000010
,
00000000
00000000
00000001
00000000
00001000
00000001
00000100
00001000
,
00000000
00010000
01000000
10000000
00000000
10000000
01000000
00010000
,
00000000
00000000
10000000
00000000
00010000
10000000
01000000
00010000
,
00000000
00001000
00000000
00000100
00000000
00000001
00000010
00000000
,
00000001
00000010
00000001
00001000
00000100
00010000
00001000
00000000
,
00100000
00001000
00010000
01000000
10000000
00100000
01000000
00000000
,
00010000
00000000
10000000
00000000
00010000
01000000
00100000
10000000
,
01000000
00000000
00100000
00000000
00001000
00100000
00010000
00000000
,
10000000
01000000
10000000
00010000
00100000
00001000
00010000
00000000
,
00000100
00010000
00001000
00000100
00000001
00000010
00000100
00000000
,
00001000
00000000
00000001
00000000
00001000
00000010
00000100
00000001
,
00000000
00000010
00000100
00000000
00010000
00000100
00001000
00000000
,
00000001
00000010
00000001
00000100
00000010
00000000
00001000
00000000
,
00000100
00010000
00001000
00100000
00010000
00000000
10000000
00000000
,
01000000
00100000
00010000
10000000
01000000
00000000
00100000
00000000
,
00001000
00010000
00000100
00010000
00000010
00000000
00000100
00000000
,
00000001
00000010
00000100
00010000
00001000
00000100
00000001
00000000
,
00001000
00000100
00010000
00001000
00010000
01000000
10000000
00020000
,
00000000
00000000
00000000
00000000
10030000
01000000
00100000
00001000
,
00000000
00011000
00000000
00010100
00000000
00000100
00000010
00000000
,
00000002
00000000
00000103
00000000
00001000
00010000
00100000
00000000
,
01000000
00000000
01000000
00000000
00010000
00100000
00001000
00000000
,
00010000
00000100
00000000
00001000
00000000
00000100
00000000
00010000
,
00001000
00010000
01000000
10000000
00000000
00100000
00000000
00000000
,
02000000
00000000
03100000
00000000
00010000
00100000
00001000
00000000
,
00010000
00000100
00000000
00000100
00001000
00000001
00000100
00000000
,
00000010
00010000
00000000
00001000
00010000
00001000
01000000
00010000
,
00000000
01010000
00000000
00000000
00000000
00000000
10000000
00000000
,
00010000
00000000
01000000
00100000
10000000
00000000
00010000
00100000
,
00001000
00100000
00001000
00010000
00000100
00001000
00000001
00000010
,
00000100
00001000
00000000
00001000
00000100
00001000
00000001
00000000
,
00000100
00000000
00000010
00000000
00001100
00000000
00000010
00001000
,
00000100
00010000
00001000
01000000
00010000
00000000
10000000
00000000
,
00010000
00000000
01000000
00010000
00100000
00000000
00010000
00100000
,
00001000
00010000
00001000
00000100
00000001
00000000
00000001
00000010
,
00000001
00000100
00001000
00010000
01000000
00000000
10000000
00000000
,
00010000
00000000
01000000
00100000
10000000
00000000
00010000
00100000
,
00001000
00010000
00000100
00001000
00000100
00000010
00000001
00000100
,
00000010
00001000
00000000
00001000
00000001
00000010
00000100
00000000
,
00001000
00000000
00000001
00000000
00001100
00000000
00001000
00000010
,
00010000
00001000
00010000
01000000
10000000
00000000
10000000
00100000
,
10000000
01000000
00010000
00001000
00000100
00000001
00000000
00000000
,
00001000
00000000
00000001
00000010
00000100
00001000
00000000
00000001
,
00000000
00000100
00000010
00001000
00000001
00000000
00001000
00000001
,
00000010
00000100
00001000
00000010
00000100
00000000
00000010
00001000
,
00000100
00010000
00001000
00000000
00010000
00000000
01000000
10000000
,
00010000
00100000
00010000
01000000
00100000
00000000
10000000
01000000
,
00100000
00001000
00010000
00000000
00001000
00000000
00010000
00000100
,
00000010
00000100
00001000
00000001
00000100
00000010
00000000
00000010
,
00001000
00000200
00000000
00000300
00001001
00000000
00000010
00000100
,
00001000
00000010
00000100
00000001
00001000
00000100
00000010
00000001
,
00000100
00000010
00001000
00000100
00010000
00000000
00001000
00010000
,
01000000
10000000
00010000
00000000
01000000
00000000
00100000
10000000
,
01000000
00100000
00001000
00010000
00001000
00010000
00000000
00010000
,
00001000
00000000
00000100
00000000
00000001
00000000
00000100
00000010
,
00001000
00000000
00000001
00000010
00000100
00001000
00000000
00000100
,
00010000
00001000
00000000
00011000
00000000
00000000
00010000
01000000
,
10000000
01000000
00100000
00001000
00010000
00000100
00001000
00000100
,
00000010
00000100
00001000
00000100
00000010
00000001
00000000
00000000
,
00000000
00000000
00000000
00000000
;

//---------------dance-double - ----------------
#NOTES:
     dance-double:
     :
     Hard:
     16:
     0.761869,0.776381,0.288275,0.152616,0.364583,629.000000,595.000000,34.000000,18.000000,0.000000,0.000000,0.761869,0.776381,0.288275,0.152616,0.364583,629.000000,595.000000,34.000000,18.000000,0.000000,0.000000:
00000000
00000000
00000000
00000000
,
00000000
00000000
00000000
00000000
,
00000000
00000000
00000000
00000000
,
00000000
00000000
00000000
00000000
,
00000000
00000000
00000000
00000000
,
00001000
00000000
00000100
00010000
00000100
00000000
00022000
00030000
,
00013000
00000000
01000000
10000000
01000000
00010000
00002000
00023000
,
00031000
00000100
00000001
00000010
00000001
00001000
00000010
00000100
,
00000001
00000000
00001000
00001100
00000000
00010000
00011000
00000000
,
00001000
00000000
00100000
00000000
00010000
00000000
01000000
00000000
00100000
10000000
00100000
00000000
01000000
00000000
00000000
00000000
,
00100000
00000000
00010000
00000000
00001000
00000000
00000100
00000000
00000001
00000010
00000001
00000000
00001000
00000000
00000000
00000000
,
00000100
00000000
00010000
00000000
00001000
00000000
00100000
00000000
00010000
01000000
00010000
00000000
10000000
00000000
00000000
00000000
,
01000000
00000000
10000000
00000000
00100000
00000000
01000000
00000000
00010000
10000000
00010000
00000000
01000000
00000000
00100000
00000000
,
10000000
00000000
01000000
00000000
00010000
00000000
00001000
00000000
00000100
00000010
00000100
00000000
00000001
00000000
00000000
00000000
,
00001000
00000000
00000010
00000000
00001000
00000000
00000001
00000000
00001000
00000000
00000100
00000000
00000010
00000001
00001000
00000001
,
00000100
00000010
00001000
00000010
00010000
00001000
00100000
00001000
,
00010000
00000000
00000000
00000000
01000000
00000000
10000000
00000000
00010000
00100000
00001000
00010000
00000100
00010000
00000100
00001000
,
00000001
00000100
00000001
00000000
00000001
00000100
00001000
00010000
,
00000000
00000000
01000000
00000000
10000000
00000000
00010000
00000000
10000000
01000000
10000000
00000000
00010000
00000000
00100000
00000000
,
01000000
10000000
00010000
00000000
10000000
01000000
00010000
00001000
,
00000000
00000000
00000100
00000000
00000001
00000000
00000010
00000000
00000100
00001000
00000100
00000000
00000010
00000000
00000100
00000000
,
00001000
00000001
00000100
00000000
00000100
00001000
00010000
01000000
,
00000000
00000000
10000000
00000000
00010000
00000000
00100000
00000000
01000000
10000000
01000000
00000000
00100000
00000000
10000000
00000000
,
00100000
00001000
00010000
00001000
00000100
00000001
00000010
00000011
,
00000000
00000000
00001100
00000000
00000000
00000000
00011000
00000000
00000000
00000000
01000000
10000000
00100000
00000000
00000000
00000000
,
00010000
00000000
00001000
00000000
00000100
00000000
00001000
00000000
00010000
00000100
00001000
00000100
00010000
00000000
00000000
00000000
,
00001000
00000000
00010000
00000000
01000000
00000000
00010000
00000000
00001000
01000000
00010000
01000000
00001000
00000000
00020000
00000000
,
00000000
00000000
00000000
00000000
00031000
00000000
00000000
00000000
00010000
00000000
00001000
00100000
00010000
00000000
01000000
00000000
,
00000000
00000000
01000000
00010000
00100000
00001000
00010000
00000000
,
00001000
00000000
00010000
00000000
00100000
00000000
00010000
00000000
00001000
00100000
00010000
00100000
00001000
00000000
00000000
00000000
,
00010000
00000000
00001000
00000000
00000010
00000000
00001000
00000000
00010000
00000100
00001000
00000100
00010000
00000000
00000020
00000000
,
00000000
00000000
00000000
00000000
00000130
00000000
00000000
00000000
00001000
00000000
00000001
00000010
00000001
00000000
00002000
00000000
,
00000000
00003000
00000000
00000100
00001000
00000001
00000100
00000000
,
00000001
00000000
00000100
00001000
00010000
00000000
01000000
00000000
10000000
00000000
00000000
00000000
10100000
00000000
00000000
00000000
,
10000000
00000000
01000000
00010000
00001000
00000000
00000100
00000000
00000001
00000000
00000000
00000000
00000011
00000000
00000000
00000000
,
00000001
00000000
00000100
00001000
00010000
00000000
00100000
00000000
10000000
00000000
00000000
00000000
01100000
00000000
00000000
00000000
,
10000000
00000000
00100000
00010000
00001000
00000000
00000010
00000000
00000001
00000000
00000000
00000000
00000110
00000000
00000000
00000000
,
00000001
00000000
00000100
00000000
00000010
00000000
00001000
00000000
00000100
00010000
00001000
00010000
00000100
00000000
00000000
00000000
,
00010000
00000000
00001000
00000000
00100000
00000000
00010000
00000000
10000000
01000000
00100000
00010000
01000000
00000000
00200000
00000000
,
00000000
00000000
00000000
00000000
01300000
00000000
00000000
00000000
10000000
00000000
00010000
01000000
00010000
00000000
00110000
00000000
,
00000000
00011000
00000000
00001010
00000000
00000100
00001001
00000000
,
00000202
00000000
00000003
00000000
00000310
00000000
00001000
00000100
00001000
00000000
00000010
00000000
00010000
00000000
00001000
00000000
,
00100000
00010000
00100000
00000000
01000000
00000000
10000000
00000000
00000000
00000000
10000000
00000000
01000000
00000000
00010000
00000000
,
00001000
00000000
00000100
00000010
00001000
00000000
00000100
00000000
00000000
00000000
00000101
00000000
00000000
00000000
00001100
00000000
,
00000010
00001000
00000100
00000110
00000000
00011000
00000000
00100000
,
20020000
00000000
30030000
00000000
01000000
00000000
00010000
00100000
00010000
00000000
10000000
00000000
01000000
00000000
00100000
00000000
,
00001000
00010000
00000100
00000000
00001000
00000000
00000010
00000000
00000100
00000000
00000001
00000000
00001000
00000000
00000010
00000000
,
00001000
00000000
00000100
00000000
00010000
00000000
01000000
00000000
10000000
00000000
00010000
00000000
10000000
01000000
00100000
01000000
,
10000000
00000000
00010000
00000000
00000000
00000000
01000000
00010000
00100000
00000000
00000000
00000000
01000000
00000000
00010000
00000000
,
00100000
00000000
00001000
00010000
00000100
00000000
00001000
00000000
00000001
00000000
00000100
00000000
00000001
00000010
00000100
00000010
,
00000001
00000000
00001000
00000000
00000100
00000000
00010000
00000000
01000000
00000000
10000000
00000000
00010000
00000000
10000000
01000000
,
10000000
00100000
01000000
00001000
00100000
00020000
00000000
00130000
,
00001000
00000000
01000000
00000000
01010000
00000000
00000000
00000000
00011000
00000000
00000000
00000000
00010000
00000100
00001000
00000010
,
00001000
00000000
00000001
00000000
00000100
00000000
00000010
00000000
00001000
00000000
00000100
00000000
00010000
00001000
00100000
00010000
,
01000000
00100000
00000000
00100000
10000000
01000000
00010000
00001000
,
00000100
00000000
00001000
00000000
00010000
00000100
00001000
00000100
00010000
00000000
00000000
00000000
00001000
00000000
00010000
00000000
,
00100000
00000000
00010000
00000000
00001000
00100000
00010000
00100000
00001000
00000000
00010000
00000000
00000010
00000000
00001000
00000000
,
00000100
00000000
00010000
00001000
00100000
00000000
00010000
00000000
10000000
00000000
00100000
00000000
10000000
01000000
00100000
01000000
,
10000000
00000000
00010000
00000000
00100000
00000000
00001000
00000000
00000010
00000000
00000001
00000000
00001000
00000000
00000001
00000010
,
00000001
00000100
00000010
00010000
00000100
00002000
00000000
00003100
,
00000010
00000001
00000101
00000000
00010010
00000000
00010000
00001000
,
00000100
00000000
00001000
00000000
00010000
00000010
00001000
00000010
00010000
00000000
00000000
00000000
00001000
00000000
00010000
00000000
,
00100000
00000000
00010000
00000000
00001000
01000000
00010000
01000000
00001000
00000000
00200000
00000000
00000000
00000000
00000000
00000000
,
01300000
00000000
10000000
00010000
00100000
00010000
00000000
10000000
,
00010000
01000000
00001000
00010000
00011000
00000000
00010000
01000000
,
10000000
00100000
00010000
00001000
00000010
00000001
00001000
00000001
,
00000100
00000001
00000010
00000001
00000100
00000000
00000000
00000000
00000001
00000000
00000100
00000000
00001000
00000000
00000100
00000000
,
00000001
00000010
00001000
00010000
00100000
10000000
00010000
10000000
,
00010000
00100000
01000000
00100000
00010000
00000000
00000000
00000000
20010000
00000000
00000000
00000000
31000000
00000000
00100000
00000000
,
00010000
00000000
01000000
00000000
00100000
00000000
00010000
00000000
00000010
00000000
00001000
00000000
00000001
00000000
00000100
00000010
,
00001000
00002020
00000000
00003030
00001100
00000000
00000001
00000100
,
00001000
00000000
01000000
00000000
00100000
00000000
01000000
00000000
00001000
00000000
00000100
00000000
00000001
00000000
00001000
00000100
,
00001000
00000000
00000010
00000000
00010000
00001000
00010000
00000000
00000100
00000000
00010000
00000000
00001000
00000000
00100000
00010000
,
00100000
00000000
00001000
00000000
00100000
00010000
10000000
00000000
01000000
10000000
00010000
00000000
01000000
00000000
00100000
10000000
,
00100000
00000000
01000000
00000000
00010000
00100000
00010000
00000000
01000000
00000000
01001000
00000000
00000000
00000000
00011000
00000000
,
00001100
00000000
00000000
00000000
00000110
00000000
00000000
00000000
00000011
00000000
00000000
00000000
00000001
00000000
00001000
00000100
,
00010000
00000000
00001000
00000000
00100000
00010000
10000000
01000000
00100000
00000000
00010000
00000000
00000000
00000000
10000000
01000000
,
00100000
00000000
00001000
01000000
00100000
00000000
10010000
00000000
00000000
00000000
00000000
00000000
10000000
00000000
01000000
00010000
,
00001000
00000000
00000100
00000000
00000001
00000000
00001000
00000100
00000010
00000000
00000100
00001000
00000010
00000000
00000100
00001000
,
00010000
00000000
01000000
10000000
00010000
01000000
00100000
01000000
00010000
00000000
00100000
00000000
00000000
00000000
00000000
00000000
,
00000000
00000000
00000000
00000000
;

//---------------dance-single - ----------------
#NOTES:
     dance-single:
     :
     Challenge:
     19:
     1.144621,1.231527,0.423934,0.500242,1.517682,945.000000,895.000000,50.000000,59.000000,0.000000,0.000000,1.144621,1.231527,0.423934,0.500242,1.517682,945.000000,895.000000,50.000000,59.000000,0.000000,0.000000:
// measure 0
0000
0000
0000
0000
,  // measure 1
0000
0000
0000
0000
,  // measure 2
0000
0000
0000
0000
,  // measure 3
0000
0000
0000
0000
,  // measure 4
0000
0000
0000
0000
,  // measure 5
0001
0000
0010
0000
0100
0000
0010
0000
0001
0000
0000
0000
1000
0000
0010
0000
0100
0000
0010
0000
1000
0000
0001
0000
0202
0000
0000
0000
0000
0000
0000
0303
,  // measure 6
0010
0000
0001
0000
1000
0000
0001
0000
0010
0000
0000
0000
0100
0000
1000
0000
0001
0000
1000
0000
0010
0000
0100
0000
0002
0000
0000
0000
2000
0000
0000
0003
,  // measure 7
0100
3000
0010
0000
1000
0000
0010
0000
0001
0000
0000
0000
0100
0000
0010
0000
1000
0000
0001
0000
1000
0000
0100
0000
0010
0000
0000
0000
0001
0000
1000
0000
,  // measure 8
0100
0000
0001
0000
0100
0000
0010
0000
0100
0000
0000
0000
1000
0000
0000
0000
0000
0000
0000
0000
0001
0000
0010
0000
2200
0000
0000
0000
0000
0000
0000
3300
,  // measure 9
0001
1000
0100
0010
0001
0000
0100
0010
1000
0000
0001
0100
1000
0000
0010
0000
,  // measure 10
0100
0001
0010
1000
0010
0000
0001
0100
0010
0000
1000
0001
0010
1000
0010
0100
,  // measure 11
0001
0100
0010
0001
1000
0000
0010
1000
0001
0000
0010
0100
1000
0001
1000
0000
,  // measure 12
0010
0000
1000
0000
0001
0010
0001
0000
0100
0000
0000
0000
0010
0000
1000
0000
0001
0000
0010
0000
0100
1000
0100
0000
0001
0000
0000
0000
0100
0000
0010
0000
,  // measure 13
0001
1000
0010
1000
0001
0000
0010
0100
1000
0000
0001
0100
0010
0000
1000
0000
,  // measure 14
0100
0000
0000
0001
0000
0000
0100
0000
0000
0010
0000
0000
0001
0000
0000
0000
0000
0000
1000
0000
0000
0000
0000
0000
0000
0000
0000
0010
0000
0000
0100
0000
0000
0000
0000
0000
0001
0000
0010
0000
0100
0000
1000
0000
0100
0000
0010
0000
,  // measure 15
0001
1000
0100
0001
0100
0000
0010
1000
0010
0000
0001
0100
0010
0000
1000
0001
,  // measure 16
0010
0000
0000
0001
0000
0000
0100
0000
0000
0010
0000
0000
1000
0000
0000
0000
0000
0000
1001
0000
0000
0000
0000
0000
0000
0000
0000
0001
0000
0000
0100
0000
0010
0000
1000
0000
0100
0000
0010
0000
0001
0000
1000
0000
0001
0000
0100
0000
,  // measure 17
0010
0000
0100
0000
1100
0000
0001
1000
0002
0000
0023
0000
0230
0000
2300
0000
,  // measure 18
3010
0000
1000
0100
0010
0001
0100
0000
0010
0000
1000
0001
0010
0100
1000
0000
,  // measure 19
0010
0000
0100
0000
0101
0000
1000
0100
2000
0000
3002
0000
0023
0000
0230
0000
,  // measure 20
1300
0000
0010
0100
0001
0000
0010
0100
1000
0000
0010
0000
1010
0000
0100
0000
,  // measure 21
0001
0000
0010
0000
0110
0000
1000
0010
2000
0000
3200
0000
0320
0000
0032
0000
,  // measure 22
0103
0000
0001
0010
0100
0000
1000
0010
0100
0000
0001
1000
0001
0000
0100
0000
,  // measure 23
0010
0000
1000
0000
1001
0000
0100
0010
0001
0100
0010
1000
0001
0000
0011
0000
,  // measure 24
0000
0000
0000
0000
1100
0000
0000
0000
0000
0000
0000
0000
0101
0000
0000
0000
0000
0000
1000
0000
0100
0000
0010
0000
2002
0000
0000
0000
0000
0000
0000
3003
,  // measure 25
0010
0000
1000
0100
0010
0000
0001
0100
0010
1000
0100
0010
0002
0000
0000
0000
,  // measure 26
0103
0000
0001
0010
1000
0000
0100
0010
0001
0100
0010
1000
0100
0010
0002
0000
,  // measure 27
0000
0000
1003
0100
0101
0000
0000
0000
0010
0001
0100
0010
1000
0000
0200
0000
,  // measure 28
0000
0000
0310
0001
0100
0000
1010
0000
1000
0100
0010
0001
0100
0001
1000
0000
,  // measure 29
0010
1000
0001
0000
0010
0100
1000
0010
0100
1000
0100
0001
2000
0000
0010
0000
,  // measure 30
3100
1000
0001
0000
0010
0001
0100
0010
1000
0100
0001
0100
0010
0001
2000
0000
,  // measure 31
0000
0000
3010
1000
0110
0000
0000
0000
0100
0001
1000
0010
0100
0000
0002
0000
,  // measure 32
0000
0000
0013
0000
1100
0000
0001
0000
0100
0010
1000
0001
0010
0100
1000
0000
,  // measure 33
0010
1000
0100
0010
0001
0000
0100
0010
1000
0000
0100
0010
0002
0000
0000
0000
,  // measure 34
1003
0001
0010
0001
0100
0000
0010
1000
0100
0000
1000
0001
0020
0000
1000
0000
,  // measure 35
0130
0010
1000
0001
0100
0010
0100
0001
0010
0000
0100
1000
0020
0000
0001
0000
,  // measure 36
1030
0001
0010
0100
1000
0000
0010
0100
0001
0000
0010
0001
1000
0010
0100
0001
,  // measure 37
1000
0100
0010
0001
0100
0010
1000
0001
0010
1000
0010
0001
0200
0000
0000
0000
,  // measure 38
0310
1000
0010
0100
1000
0100
0001
0010
1000
0010
0100
0010
0001
0000
1001
0000
,  // measure 39
0000
0000
0010
0000
1000
0000
0001
0000
0010
0100
1000
0010
1000
0001
0011
0000
,  // measure 40
0000
1100
0000
0101
1001
0110
1001
0000
,  // measure 41
2020
0000
0000
0000
0000
0000
0000
3030
0100
0000
0000
0000
0001
0000
0000
0000
1000
0000
0010
0000
1000
0000
0001
0000
0010
0000
0100
0000
1000
0000
0010
0000
,  // measure 42
0100
0000
0100
0000
0010
0000
1000
0000
0001
0010
0100
1000
0020
0000
0230
0000
,  // measure 43
0301
0000
0000
0000
0000
0000
1000
0000
0000
0010
0000
0000
0100
0000
0000
0000
0000
0000
0110
0000
0000
0000
0000
0000
0000
0000
0000
0000
0000
0000
0101
0000
0000
0000
0000
0000
0000
0000
0000
0000
0000
0000
0010
0000
1000
0000
0100
0000
,  // measure 44
0001
0000
0000
0000
0000
0000
0010
0000
0000
0100
0000
0000
1000
0000
0000
0000
0000
0000
1010
0000
0000
0000
0000
0000
0000
0000
0000
0000
0000
0000
1100
0000
0000
0000
0000
0000
0001
0000
0000
1000
0000
0000
0001
0000
0000
1000
0010
0000
,  // measure 45
0200
0000
0000
0000
0000
0000
0000
0000
0001
0300
1000
0000
0010
0000
0100
0000
0001
0000
0010
0000
0100
0000
1000
0000
0010
0000
0100
0000
0010
0000
1000
0000
,  // measure 46
1100
0000
0000
0000
1100
0000
0000
0000
0001
0000
0100
0000
1000
0000
0000
0000
0010
0000
0100
0000
2020
0000
0000
3030
0011
0000
1000
0000
0010
0000
0100
0000
,  // measure 47
0001
0000
0000
0000
0010
0000
0100
0000
1000
0000
0010
0000
0001
0000
0000
0000
0100
0000
0010
0000
1000
0001
0010
0100
1000
0000
0000
0000
0101
0000
0000
0000
,  // measure 48
0000
0000
0000
0000
1100
0000
0000
0000
0000
0000
0000
0000
0010
0000
0100
0000
2002
0000
0000
0000
0000
0000
0000
3003
0020
0000
0000
0000
1000
0000
0000
0000
,  // measure 49
1030
0000
0000
0000
0100
0000
0010
0000
0001
0000
0100
0000
0001
0000
0000
0000
0010
0000
0000
0000
0102
0000
0000
0000
1000
0000
0000
0003
0001
0000
0100
0000
,  // measure 50
0010
0000
1000
0000
0100
1000
0001
0010
2000
0000
3001
0000
0010
0000
0001
0100
,  // measure 51
1000
0000
0010
0000
0100
0000
0000
0000
0000
0000
0000
0000
0010
0000
1000
0000
0001
0000
0000
0000
0020
0000
0000
0000
0001
0030
0100
0000
0010
0000
1000
0000
,  // measure 52
0100
0010
0001
0100
1000
0000
0010
0100
0001
0000
0000
0000
0001
0100
0010
1000
,  // measure 53
0100
0000
1000
0000
0001
0000
0000
0000
0000
0000
0000
0000
0010
0000
0100
0000
1000
0000
0000
0000
2010
0000
0000
0000
0001
0000
0000
3000
1000
0000
0010
0000
,  // measure 54
0100
0000
0000
0000
0110
0000
0000
0000
0000
0000
0010
0000
1000
0000
0001
0000
1000
0100
1000
0100
0010
0001
0010
0001
0100
0000
0010
0000
1000
0000
0001
0000
,  // measure 55
0010
1000
0010
0100
1000
0010
0001
0010
2000
0000
0010
0000
3001
0100
0010
0001
,  // measure 56
0010
0100
0001
1000
0100
0001
0100
0010
0100
1000
0001
0000
0010
0000
0001
0100
,  // measure 57
1000
0000
0000
0000
0001
0000
0010
0000
1000
0000
0000
0000
0010
0000
0000
0000
0100
0000
0000
0000
0002
0000
0000
0000
1000
0003
0010
0000
0100
0000
0001
0000
,  // measure 58
0010
0000
0100
0000
1000
0000
0000
0000
0000
0000
1000
0000
0010
0000
1000
0000
0100
0000
0010
0000
0001
0000
0100
0010
0100
0000
0000
0000
0001
1000
0001
0000
,  // measure 59
0010
0000
0000
0000
1100
0000
0000
0000
0000
0000
0000
0000
0100
0000
0010
0000
0001
0000
0100
0000
2000
0000
0000
0000
0010
3000
0100
0000
0010
0000
1000
0000
,  // measure 60
0100
0001
0100
0010
0001
0100
0010
1000
0001
0000
0000
0000
0001
0100
0010
0001
,  // measure 61
0010
1000
0100
0010
1000
0010
0001
0100
0020
0000
0000
0000
0031
1000
0010
1000
,  // measure 62
0100
0010
0001
0100
0010
0001
0010
1000
0100
0010
0021
0000
0000
0000
0100
0000
,  // measure 63
0130
0000
1000
0001
0010
1000
0010
0100
1000
0000
0002
0000
0000
0000
0103
0010
,  // measure 64
1000
0000
0000
0000
0000
0000
0100
0000
0000
0010
0000
0000
0001
0000
0000
0000
0000
0000
1000
0000
0000
0001
0000
0000
1000
0000
0100
0000
0001
0000
1000
0000
0010
0000
0001
0000
0100
0000
0000
0010
0000
0000
1000
0000
0000
0100
0000
0000
,  // measure 65
0010
0000
0000
0000
0001
0000
1000
0000
0010
0000
0000
0000
1000
0000
0100
0000
0001
0000
0000
0000
0020
0000
0000
0000
0100
0030
1000
0000
0001
0000
0100
0000
,  // measure 66
0010
0000
1000
0100
0010
0000
0001
0100
0010
0001
0010
0100
0001
1000
0100
0010
,  // measure 67
0001
0100
0010
0000
1000
0000
0100
1000
0001
0000
0010
0000
0100
1000
0001
0100
,  // measure 68
0010
0000
0001
0010
1000
0000
0100
0010
0001
0000
1000
0001
1000
0100
0001
0010
,  // measure 69
1000
0000
0001
0000
0100
0000
0010
0000
1000
0000
0000
0000
0100
0000
0010
0000
0100
0000
1000
0000
0002
0000
0000
0000
0100
0003
0001
0000
0010
0000
0100
0000
,  // measure 70
0010
0001
0100
0010
1000
0000
0100
1000
0101
0000
0000
0000
0010
1000
0100
0010
,  // measure 71
0001
0000
0100
0000
1000
0000
0000
0000
0000
0000
0000
0000
0010
0000
0100
0000
0001
0000
0000
0000
2200
0000
0000
3300
0001
0000
1000
0000
0010
0000
0001
0000
,  // measure 72
0010
0000
0100
0000
0001
0000
0000
0000
1000
0000
0100
0000
0010
0000
0001
0000
0100
0000
0000
0000
0020
0000
0000
0000
0001
0030
0010
0000
1000
0000
0001
0000
,  // measure 73
0200
0000
0310
0100
0001
0010
1000
0100
0010
1000
0010
0000
0001
1000
0001
0010
,  // measure 74
0100
1000
0010
0000
0100
0001
0010
0000
0100
1000
0001
0000
0011
0000
0110
0000
,  // measure 75
1100
0000
0000
0000
1010
0000
1001
0000
0101
0000
0000
0000
0010
1000
0100
1000
,  // measure 76
0001
0000
0010
0000
0100
0000
0000
0000
1000
0000
0010
0000
0100
0000
0000
0000
0001
0000
0010
0000
2000
0000
0000
0000
0100
3000
1000
0000
0010
0000
0100
0000
,  // measure 77
0001
0000
0000
0000
0000
0000
0010
0000
0100
0000
1000
0000
0001
0000
0000
0000
0000
0000
0110
0000
0000
0000
0000
0000
1001
0000
0000
0000
0000
0000
0000
0000
0000
0000
0000
0000
1000
0000
0000
0010
0000
0000
1000
0000
0000
0001
0000
0000
,  // measure 78
0010
0000
0000
0000
0100
0000
1000
0000
0001
0000
0000
0000
0100
0000
0010
0000
1000
0000
0000
0000
0001
0000
0000
0000
0010
0001
0010
0000
0100
0000
1000
0000
,  // measure 79
0010
0100
0010
0000
1000
0000
0001
0000
1000
0100
0010
0001
1000
0010
0100
0001
0010
0000
0100
0000
2000
0000
0000
0000
0000
0000
0000
0000
0001
0000
0000
0000
,  // measure 80
0100
0002
0000
0000
0000
0000
0000
0000
,  // measure 81
0000
0000
0000
0000
,  // measure 82
0000
0000
0000
0000
,  // measure 83
3003
0000
0000
0000
;
