#TITLE:Love Bites;
#SUBTITLE:(So Do I);
#ARTIST:Halestorm;
#BANNER:Love Bites (So Do I)-bn.png;
#BACKGROUND:Love Bites (So Do I)-bg.png;
#JACKET:Love Bites (So Do I)-jacket.png;
#MUSIC:Love Bites (So Do I).ogg;
#SAMPLESTART:39.4;
#SAMPLELENGTH:20;
#DISPLAYBPM:250;
#BPMS:0=250,451=400,452=250;
#STOPS:371.5=0.1,403.5=0.1;
#BGCHANGES:;

//---------------dance-single - ----------------
#NOTES:
     dance-single:
     :
     Beginner:
     6:
     :
0000
0000
0000
0000
,
0000
0000
0000
0000
,
0000
0000
0000
0000
,
0000
0000
0000
0000
,
0000
0000
0000
0000
,
0000
0000
0000
0000
,
0000
0000
0000
0000
,
0000
0000
0000
0000
,
0000
0000
0000
0000
,
1001
0000
0010
0000
,
1000
0000
0010
0000
,
0110
0000
0001
0000
,
0100
0000
0010
0000
,
1001
0000
0010
0000
,
1000
0000
0100
0000
,
0110
0000
0001
0000
,
0100
0000
0010
0000
,
1000
0000
0100
0000
,
1000
0000
0001
0000
,
0000
0000
0010
0000
,
0001
0000
1000
0000
,
0000
0000
0100
0000
,
0010
0000
0100
0000
,
0000
0000
1000
0000
,
0010
0000
0001
0000
,
0100
0000
0010
0000
,
1000
0000
0001
0000
,
0000
0000
0010
0000
,
0001
0000
0100
0000
,
0000
0000
0001
0000
,
0100
0000
0010
0000
,
1000
0000
0001
0000
,
1000
0000
0100
0000
,
0110
0000
0000
0000
,
0000
0000
1001
0000
,
1000
0000
1000
0000
,
0001
0000
0001
0000
,
0100
0000
0000
0000
,
0010
0000
0000
0000
,
0000
0000
0000
0000
,
0000
0000
0000
0000
,
1001
0000
0000
0000
,
0010
0000
1000
0000
,
0001
0000
0000
0000
,
0100
0000
0010
0000
,
1000
0000
0000
0000
,
0001
0000
1000
0000
,
0100
0000
0000
0000
,
0010
0000
0000
0000
,
0110
0000
0000
0000
,
0010
0000
0001
0000
,
0100
0000
0000
0000
,
0001
0000
0010
0000
,
1000
0000
0000
0000
,
0100
0000
1000
0000
,
0001
0000
0000
0000
,
1000
0000
0001
0000
,
2002
0000
0000
0000
,
0000
0000
3003
0000
,
0220
0000
0000
0000
,
0000
0000
0330
0000
,
1000
0000
0000
0000
,
0001
0000
0000
0000
,
1000
0000
1000
0000
,
0001
0000
0001
0000
,
1001
0000
0000
0000
,
0001
0000
0000
0000
,
1000
0000
0010
0000
,
0100
0000
0000
0000
,
0001
0000
0000
0000
,
1000
0000
0000
0000
,
0010
0000
0100
0000
,
0110
0000
0000
0000
,
1000
0000
1000
0000
,
0001
0000
0001
0000
,
0010
0000
0100
0000
,
0010
0000
0100
0000
,
1000
0000
0010
0000
,
0100
0000
0001
0000
,
0010
0000
0001
0000
,
0100
0000
1000
0000
,
0110
0000
1001
0000
,
1000
0000
0100
0000
,
1000
0000
0010
0000
,
0100
0000
0001
0000
,
0010
0000
0001
0000
,
0100
0000
1000
0000
,
0010
0000
0100
0000
,
0220
0000
0000
0000
,
0000
0000
0000
0000
,
0000
0000
0000
0000
,
0000
0000
0000
0000
,
0330
0000
0000
0000
,
1001
0000
0000
0000
,
0000
0000
0000
0000
,
0110
0000
0000
0000
,
0000
0000
0000
0000
,
1001
0000
0000
0000
,
0000
0000
0000
0000
,
0010
0000
0010
0000
,
0100
0000
0100
0000
,
0110
0000
0000
0000
,
0001
0000
0010
0000
,
0001
0000
0000
0000
,
0100
0000
0010
0000
,
1000
0000
0000
0000
,
0100
0000
0010
0000
,
0001
0000
0000
0000
,
1000
0000
0000
0000
,
1001
0000
0000
0000
,
0010
0000
0001
0000
,
0010
0000
0000
0000
,
1000
0000
0001
0000
,
0110
0000
0000
0000
,
0100
0000
0010
0000
,
1001
0000
0000
0000
,
1000
0000
0100
0000
,
0110
0000
0000
0000
,
0000
0000
0001
0000
,
1001
0000
0000
0000
,
0110
0000
0000
0000
,
0001
0000
0001
0000
,
1000
0000
1000
0000
,
0010
0000
0010
0000
,
0100
0000
0100
0000
,
2002
0000
0000
0000
,
0000
0000
0000
0000
,
0000
0000
0000
0000
,
0000
0000
0000
0000
,
3003
0000
0000
0000
,
0000
1000
0001
0100
,
0010
0000
0000
0000
;

//---------------dance-single - ----------------
#NOTES:
     dance-single:
     :
     Easy:
     11:
     :
0000
0000
0000
0000
,
0000
0000
0000
0000
,
0000
0000
0000
0000
,
0000
0000
0000
0000
,
0000
0000
0000
0000
,
0000
0000
0000
0000
,
0000
0000
0000
0000
,
0000
0000
0000
0000
,
0000
0000
0000
0000
,
1001
0000
0010
0000
,
1000
0000
0000
0001
0000
0000
0100
0000
,
0110
0000
0001
0000
,
0010
0000
0000
0100
0000
0000
1000
0000
,
1100
0000
1000
0000
,
0010
0000
0000
0100
0000
0000
0001
0000
,
0011
0000
0100
0000
,
0001
1000
0001
0100
,
0010
1000
0100
1000
,
0010
0100
0002
0000
,
0003
1000
0100
1000
,
0010
0100
0002
0000
,
0003
0010
0001
0100
,
0001
1000
0020
0000
,
0030
1000
0100
0010
,
0001
0100
0020
0000
,
0030
0101
0010
1000
,
0100
1000
0001
0100
,
0000
1010
0001
1000
,
0100
1000
0002
0000
,
0003
0100
0010
0100
,
0001
0010
0100
1000
,
0001
0000
0000
0001
0000
0000
0001
0000
,
0100
0010
1000
0001
,
0110
0000
0001
0000
,
1000
0000
1100
0000
,
0201
0000
0301
0000
,
1020
0000
1030
0000
,
0011
0000
1000
0001
,
2002
0000
0000
3003
,
0010
0000
0000
0010
0000
0000
0010
0000
,
0100
0000
0000
0100
0000
0000
0100
0000
,
0202
0000
0000
0303
,
1000
0001
1000
0100
,
2200
0000
0300
0001
,
3001
0100
0010
1000
,
2020
0000
0000
3030
,
0001
1000
0010
0100
,
0002
0000
0000
0000
0003
0000
0100
0010
,
0100
0000
0000
0001
0000
0000
1000
0000
,
2002
0000
0000
3003
,
0010
0100
0001
1000
,
0220
0000
0030
0001
,
0301
1000
0100
0010
,
0022
0000
0000
0033
,
1000
0001
0010
0100
,
1000
0010
0100
0001
,
1010
0000
1100
0000
,
2001
0001
0000
0100
,
0000
0001
0000
3100
,
0210
0001
0000
1000
,
0000
0001
0000
1000
,
0301
0000
0100
0000
0000
1000
0010
0000
,
0100
0000
0010
0000
0000
1000
0001
0000
,
0100
0000
0000
0000
0100
0000
0000
0000
0100
0000
0000
0000
,
0010
0000
0000
0000
0010
0000
0000
0000
0010
0000
0000
0000
,
1001
1000
0010
1000
,
0001
1000
0100
0000
,
0010
0100
0010
0001
,
1000
0001
0100
0000
,
0001
0010
0001
0100
,
0010
1000
0001
0000
,
0100
0010
1000
0001
,
2002
0000
0000
3003
,
0010
1000
0100
0000
,
0010
0001
0100
0000
,
0001
0010
1000
0000
,
0001
0100
1000
0000
,
0010
1000
0010
0100
,
0001
1000
0001
0100
,
0001
0010
0100
1000
,
1100
0101
1100
0000
,
0110
1001
0010
1000
,
0100
1000
0010
0001
,
0100
0010
0100
0001
,
0100
0010
1000
0000
,
0001
1000
0010
1000
,
0100
0010
0001
0100
,
0010
1000
0001
0100
,
2020
0000
0000
0000
,
0000
0000
0000
0000
,
0000
0000
0000
0000
,
0000
0000
0000
3030
,
1000
0010
0100
0001
,
2002
0000
0000
3000
,
0020
0000
0000
0033
,
2002
0000
0000
0003
,
0200
0000
0000
3300
,
0220
0000
0000
0300
,
0200
0000
0000
0330
,
1000
0000
0000
1000
0000
0000
1000
0000
,
0010
0000
0000
0010
0100
0000
0001
0000
,
0101
0000
0010
0000
0000
1000
0001
0000
,
0010
0100
0010
0100
,
1100
0000
0001
0000
0000
1000
0010
0000
,
1000
0010
0001
0100
,
1010
0000
0100
0000
0000
0010
0001
0000
,
1000
0001
1000
0001
,
0020
0000
0000
0000
0030
0000
0001
1000
,
0001
0010
0100
1000
,
1010
0000
0100
0000
0000
0001
1000
0000
,
0010
0000
1000
0001
1000
0000
0100
0000
,
0011
0000
1000
0000
0000
0001
0100
0000
,
0010
0000
1000
0100
1000
0000
0001
0000
,
0110
0001
1000
0100
,
1000
0010
1000
0001
,
0200
0000
0000
0000
0300
0000
0001
1000
,
0002
0000
0013
0000
,
1100
0000
0010
0000
0000
0100
0001
0000
,
0000
0000
1000
0010
0000
0100
0001
0000
,
0101
0000
0010
0000
0000
1000
0001
0000
,
1000
0000
0010
0100
0000
0010
0100
0000
,
0001
0000
0000
0001
0000
0000
0001
0000
,
1000
0000
0000
1000
0000
0000
1000
0000
,
0010
0000
0000
0000
0010
0000
0000
0000
0010
0000
0000
0000
,
0100
0000
0000
0000
0100
0000
0000
0000
0100
0000
0000
0000
,
2002
0000
0000
0000
,
0000
0000
0000
0000
,
0000
0000
0000
0000
,
0000
0000
0000
0000
,
0003
0001
0001
0001
,
3001
0010
0001
0100
,
0001
0010
0000
0000
0000
0000
0000
0000
;

//---------------dance-single - ----------------
#NOTES:
     dance-single:
     :
     Medium:
     14:
     :
0000
0000
0000
0000
,
0000
0000
0000
0000
,
0000
0000
0000
0000
,
0000
0000
0000
0000
,
0000
0000
0000
0000
,
0000
0000
0000
0000
,
0000
0000
0000
0000
,
0000
0000
0000
0000
,
0000
0000
0000
0000
,
1001
0100
0001
0100
,
1000
0010
1000
0010
0000
0100
0001
0000
,
0110
0001
1000
0001
,
1000
0010
1000
0010
0000
0100
0001
0000
,
0011
0100
0010
0100
,
1000
0010
1000
0010
0000
0100
0001
0000
,
1100
0010
1000
0010
,
1000
0001
1000
0001
0010
0000
0100
0000
,
1000
0010
1000
0001
,
0010
0100
2000
0000
,
3010
0100
0010
1000
,
0001
0000
0100
0000
0001
1000
0001
2000
,
0000
3010
1000
0001
,
1000
0100
0010
0001
,
0100
0010
0100
0001
,
0010
0000
0100
0000
1000
0001
1000
0001
,
0100
0010
1000
0001
,
0010
0100
0010
0002
,
0000
1003
0001
0010
,
0001
0000
0100
0000
0010
1000
0010
2000
,
0000
3100
1000
0010
,
1000
0100
0010
0001
,
0100
0000
0000
0010
0000
0000
1000
0000
,
0001
0010
0001
0000
1000
0000
0010
0100
,
0010
1000
0001
0000
,
0101
1000
0002
0000
,
2003
0000
3020
0000
,
0230
0000
0000
0000
0301
1000
0001
1000
,
0002
0100
0010
1003
,
2010
0001
0100
3000
,
1000
0000
0010
0100
0000
0010
0100
0000
,
0001
0000
0010
0100
0000
0010
0100
0000
,
0110
0001
1000
0100
,
1000
0010
1000
0000
0001
0010
0001
0000
,
0100
0010
1000
0001
,
0010
0001
0010
0000
0100
1000
0100
0000
,
1010
0001
1000
0100
,
0001
0100
0001
0000
1000
0100
1000
0000
,
0011
0000
1000
0000
0001
0000
0100
0010
,
0100
0000
0001
0000
1000
0001
0100
0000
,
1001
0010
1000
0100
,
1000
0001
1000
0000
0001
1000
0001
0000
,
0100
0010
1000
0001
,
0100
0001
0100
0000
0010
1000
0010
0000
,
0101
0010
0001
1000
,
0100
0010
0100
0000
0010
0100
0010
0000
,
1100
0001
0100
0010
,
2000
3100
0002
0013
,
1002
0000
0020
0000
0033
0100
0010
0000
,
0002
0000
0200
0000
0303
0010
1000
0000
,
0210
0000
0002
0000
0303
1000
0001
0000
,
1000
0100
0010
0000
0001
0100
0010
0000
,
1010
0000
0101
0000
0010
0001
0100
0000
,
0011
0000
1100
0000
0001
1000
0010
0000
,
1000
0100
0000
0100
0001
0000
0001
1000
,
0010
0000
0000
0000
0010
0000
0000
0000
0010
0000
0000
0000
,
1001
0000
0110
0000
,
0001
0000
1000
0100
1000
0100
1000
0000
,
0001
0000
0010
0000
,
0001
0000
1000
0100
1000
0100
1000
0000
,
1010
0000
1100
0000
,
0001
0000
1000
0100
1000
0100
1000
0000
,
0011
0000
0101
0000
,
1000
0001
1000
0001
1000
0001
1000
0001
,
0100
0010
1000
0001
,
0010
0100
1000
0001
,
1000
0010
0001
0100
,
0001
1000
0100
0010
,
0001
0010
0001
0100
,
0010
0000
1000
0001
0000
0100
0010
0000
,
1000
1000
0001
0001
,
1000
0001
1000
0001
1000
0001
1000
0001
,
0100
0110
1001
0010
,
1000
0100
1000
0000
0010
0100
0001
0000
,
0010
0101
0010
1100
,
1000
0010
1000
0010
0100
0001
1000
0000
,
0001
0100
0010
1000
,
0001
0100
0000
0010
1000
0000
1010
0000
,
1000
0000
0100
0000
1000
0100
0010
0000
,
0012
0000
0100
0000
,
0010
0000
0100
0000
,
0010
0000
0100
0000
,
0010
0000
0100
0000
,
0013
0000
0001
1000
0001
0000
0100
0000
,
0220
0000
0000
0300
,
2000
0030
0002
3003
,
2020
0000
0000
0030
,
0002
3000
0200
0303
,
0202
0000
0000
0003
,
2000
0000
0000
3000
,
0301
0100
0010
1000
0100
0010
0001
0000
,
1000
0001
1000
0001
0100
0000
0100
0000
,
1001
0000
0010
0000
1000
0100
0001
0000
,
0010
0001
0100
0000
0010
1000
0100
0000
,
0010
0000
0001
0000
1000
0010
0100
0000
,
0001
0010
0001
0000
1000
0010
1000
0000
,
1100
0000
0001
0000
1000
0010
0100
0000
,
0001
1000
0010
0000
1000
0001
0100
0000
,
0011
0000
0100
0000
0010
0000
1000
0001
,
1000
0000
0010
0100
0000
0100
0001
0000
,
0101
0000
0010
0000
1000
0001
0100
0000
,
2010
3001
2100
3001
,
0011
0000
0100
0000
0010
1000
0001
0000
,
1000
0100
0010
0000
0100
1000
0001
0000
,
1001
0000
0010
1000
0100
0010
0001
0000
,
0100
0001
0010
0000
0001
0100
0010
0000
,
0110
0000
1000
0100
1000
0000
0001
0100
,
0001
0000
0010
0100
0010
0000
0000
0000
,
0011
1000
0010
0100
,
0001
0000
0010
0000
0001
1000
0100
0000
,
1100
0010
0100
0001
,
1000
0000
0001
0000
0100
0010
1000
0000
,
0010
0000
1000
0100
0000
1000
0100
0000
,
0010
0000
0001
0100
0000
0001
0100
0000
,
0010
0000
0000
0000
0010
0000
0000
0000
0010
0000
0000
0000
,
0110
0000
0000
0000
0101
0000
0000
0000
1010
0000
0000
0000
,
2002
0000
0000
0000
,
0000
0000
0000
0000
,
0000
0000
0000
0000
,
0000
0000
0000
0000
,
0003
0001
0001
0001
,
3001
0000
1000
0001
1000
0001
0100
0010
,
0100
0010
0000
0000
0000
0000
0000
0000
;

//---------------dance-single - ----------------
#NOTES:
     dance-single:
     :
     Hard:
     16:
     :
0000
0000
0000
0000
,
0000
0000
0000
0000
,
0000
0000
0000
0000
,
0000
0000
0000
0000
,
0000
0000
0000
0000
,
0000
0000
0000
0000
,
0000
0000
0000
0000
,
0000
0000
0000
0000
,
0000
0000
0000
0000
,
1001
0000
0010
1000
0100
0010
0100
1000
,
0010
0100
0001
2000
0000
3001
0100
0000
,
0110
0000
1000
0010
1000
0100
0010
0001
,
0100
0010
1000
0002
0000
0013
0100
0000
,
1100
0000
0001
1000
0001
0010
0100
0010
,
0001
1000
0010
0200
0000
0310
1000
0000
,
0101
0000
0010
0100
0010
0001
1000
0010
,
1000
0100
0010
0001
0100
0010
1000
0000
,
0001
0000
0100
0000
0010
0000
1000
0100
,
0000
0100
0001
0000
0020
0000
0130
0000
,
1000
0001
1000
0010
,
0100
0000
0001
0000
1000
0010
1000
0020
,
0000
1030
0100
0000
1000
0000
0001
0000
,
0010
0001
0010
0000
0100
1000
0100
0000
,
0010
0001
0100
0000
1000
0000
0100
0000
,
0001
0010
0100
1000
0010
0100
0001
1000
,
0010
1000
0100
0000
1000
0000
0001
0000
,
0010
0000
0001
0000
0100
0010
0100
0001
,
0000
0001
1000
0000
0100
0000
0010
0000
,
0001
0000
1000
0000
0010
0100
0010
0200
,
0000
0301
1000
0000
0100
0000
0010
0000
,
0001
1000
0001
0000
1000
0100
0010
0000
,
0001
0100
0001
0000
0010
0000
0100
1000
,
0001
0000
0011
0000
1010
0000
1000
0010
,
1000
0000
1100
0000
,
0101
0000
0000
1000
0001
0100
0010
0000
,
2000
3001
0020
0130
,
0002
1003
0200
0310
,
0002
0100
0100
1000
,
2003
0010
3010
0000
,
1010
0000
0001
0010
0000
1000
0100
0000
,
0011
0000
1000
0001
1000
0001
1000
0001
,
0010
0000
0001
0000
0100
0010
1000
0100
,
0001
0100
1000
0100
0001
0100
1000
0100
,
0010
0000
0001
0000
0100
0010
1000
0001
,
0010
1000
0010
0001
0010
1000
0010
0001
,
0100
0000
0110
0000
1000
0010
0001
0000
,
0010
0000
1001
0000
0100
0001
1000
0000
,
0010
0000
1000
0000
0100
0000
1000
0001
,
0010
0100
0010
0001
0100
0010
1000
0000
,
0101
0000
0010
0000
0001
1000
0100
0000
,
1000
0010
0100
1000
0100
0001
0010
0001
,
1000
0000
0010
0000
1000
0100
0001
0000
,
0010
1000
0010
0001
0100
1000
0100
0001
,
0010
0000
0011
0000
0100
0001
1000
0000
,
0010
1000
0100
0000
0010
0001
0100
0000
,
0110
0000
0001
0000
0010
0100
1000
0000
,
0001
0100
0001
0000
1000
0100
0010
0001
,
1000
0000
0101
0000
0010
0001
0100
0000
,
0001
0000
1100
0000
0010
1000
0100
0000
,
0110
0000
1001
0000
0010
0001
1000
0000
,
1100
0000
0101
0000
0010
1000
0001
0000
,
0100
0010
0100
0010
1000
0010
1000
0010
,
0100
0010
0100
0010
0100
0001
0100
0001
,
0010
0001
0100
0001
0010
0100
1000
0000
,
1100
0000
0000
0000
0101
0000
0000
0000
1100
0000
0000
0000
,
1001
0010
1000
0001
,
1000
0000
0010
0200
0000
0000
0301
0000
,
0100
0001
0010
0001
,
1000
0000
0010
0200
0000
0000
0301
0000
,
1000
0010
1000
0100
,
1000
0001
0000
0010
0000
0001
1000
0000
,
0010
1000
0100
0001
,
1001
0000
1000
0100
1000
0100
1000
0100
,
0010
0001
0010
0000
0001
0100
0001
0000
,
1000
0010
1000
0000
0100
1000
0100
0000
,
1000
0001
1000
0000
0010
0100
0010
0000
,
0100
0010
0100
0000
0001
1000
0001
0000
,
0011
1100
0011
1100
,
0001
0100
0010
1000
0100
0010
0001
0000
,
1010
0101
1010
0101
,
1000
1000
0100
0100
0010
0010
0001
0001
,
0110
0000
1001
0000
1000
0001
0100
0010
,
1000
0100
0010
0100
1000
0100
0010
0001
,
0100
0010
1000
0000
0100
0010
0001
0000
,
1000
0010
0100
1000
0100
0001
0010
0000
,
0001
1000
0010
0000
1000
0100
0001
0000
,
0010
0100
0010
0001
0100
0010
1000
0000
,
0001
0010
0100
1000
0100
0010
0001
0000
,
2010
0000
0100
0000
,
0010
0000
0100
0000
,
0010
0000
0100
0000
,
0010
0000
0100
0000
,
3010
0000
0000
1000
0001
1000
0001
0000
0000
0100
0000
0000
,
2002
0000
0000
3000
,
0020
0030
2000
3003
,
2200
0000
0300
0001
,
0002
0003
0200
3300
,
0220
0000
0000
0300
,
0002
0000
0000
0033
,
1000
0010
1000
0100
0001
0010
0001
0100
,
0010
1000
0100
0001
0010
0100
1000
0001
,
0010
0000
0001
0100
1000
0100
0001
0000
,
1000
0010
0100
0010
1000
0100
0010
0100
,
1000
0000
0010
0100
0010
1000
0001
0000
,
1000
0100
0010
0001
1000
0010
0100
0001
,
0010
0000
0001
1000
0100
1000
0001
0000
,
0010
0001
1000
0010
1000
0100
0001
0100
,
2000
0000
0010
0000
0100
0000
3010
1000
,
0002
0000
0100
0000
0013
0001
1000
0000
,
0001
0100
0010
0100
0001
1000
0100
0000
,
1000
0010
0100
0000
0001
0010
0100
0000
,
1000
0001
0010
0001
0010
0100
1000
0000
,
0001
1000
0100
0000
1000
0010
0001
0000
,
0100
0010
0100
0010
1000
0001
0100
0000
,
0010
1000
0010
0100
0010
0001
0010
0000
,
0010
0001
0010
0100
0010
1000
0010
0100
,
0001
0010
0100
1000
0100
0010
0001
0000
,
0110
0000
0001
0010
1000
0010
0001
0000
,
0100
0010
0100
1000
0100
0001
0010
0000
,
0110
0000
0001
0100
1000
0100
0001
0000
,
0010
0001
0010
0100
1000
0010
0100
0000
,
0101
0000
1000
0010
0000
0100
0001
0000
,
0010
0001
0010
0100
1000
0010
0001
0000
,
0011
0000
0000
0000
0110
0000
0000
0000
1100
0000
0000
0000
,
0101
0000
0000
0000
1001
0000
0000
0000
1010
0000
0000
0000
,
2002
0000
0000
0000
,
0000
0000
0000
0000
,
0000
0000
0000
0000
,
0000
0000
0000
0000
,
0003
0001
0001
0001
,
3001
0000
1000
0100
0001
0100
1000
0010
,
0001
0010
0000
0000
0000
0000
0000
0000
;
