#TITLE:Lonely No More;
#ARTIST:Rob Thomas;
#BANNER:Lonely No More-bn.png;
#BACKGROUND:Lonely No More-bg.png;
#JACKET:Lonely No More-jacket.png;
#MUSIC:Lonely No More.ogg;
#SAMPLESTART:36.36;
#SAMPLELENGTH:20;
#DISPLAYBPM:86;
#BPMS:0=85.85;
#BGCHANGES:;

//---------------dance-single - ----------------
#NOTES:
     dance-single:
     :
     Beginner:
     2:
     :
0000
0000
0000
0000
,
0000
0000
0000
0000
,
1001
0000
0010
0000
,
1000
0000
0001
0000
,
0110
0000
0001
0000
,
1000
0000
0100
0000
,
1001
0000
0010
0000
,
0100
0000
0001
0000
,
1001
0000
1000
0000
,
0010
0000
0100
0000
,
0110
0000
0001
0000
,
1000
0000
0010
0000
,
0110
0000
0000
0000
,
0001
0000
0001
0000
,
0010
0000
0100
0000
,
1000
0000
0010
0000
,
1000
0000
0001
0000
,
0100
0000
0001
0000
,
0010
0000
0001
0000
,
1000
0000
0010
0000
,
1000
0000
0001
0001
,
0000
0100
0000
0100
,
0000
0010
0000
0010
,
0000
1000
0000
1000
,
0000
0001
0000
0001
,
0001
0000
0100
0000
,
0010
0000
1000
0000
,
1001
0000
0100
0000
,
0010
0000
0110
0000
,
1001
0000
1000
0000
,
0001
0000
0100
0000
,
0010
0000
0010
0000
,
1000
1000
1000
0000
,
0110
0000
0001
0000
,
0010
0000
0001
0000
,
0100
0000
0010
0000
,
1000
0000
0100
0000
,
1000
0000
0001
0000
,
0100
0000
0010
0000
,
1000
0000
0001
0000
,
0100
0000
0010
0010
,
0000
0110
0000
0001
,
0000
1000
0000
0000
,
1001
0000
0000
0000
;

//---------------dance-single - ----------------
#NOTES:
     dance-single:
     :
     Easy:
     6:
     :
0000
0000
0000
0000
,
0000
0000
0000
0000
,
1001
0000
0001
0100
,
0001
0010
0100
1000
,
0110
0000
0001
0000
,
1000
0001
0100
0000
,
0101
0000
0001
0100
,
0010
0000
1000
0100
,
1100
0000
0010
0000
,
1000
0001
0100
0000
,
0110
0010
0001
0100
,
1000
0000
0010
0100
,
1001
0100
0000
0010
,
1000
0001
0100
0010
,
0000
1000
0100
1000
,
0000
0010
0001
0100
,
0010
1000
0001
1000
,
0100
0010
0001
1000
,
0000
0010
1000
0001
,
0000
0010
0001
0100
,
0010
1000
0001
0100
,
0010
0101
0010
1100
,
0001
1001
0100
0010
,
0110
1001
1000
0110
,
0001
0101
1000
1100
,
1001
0000
0010
0000
,
1000
0100
0001
0000
,
0101
0001
0010
0100
,
1000
0000
1001
0110
,
1001
0000
0100
0000
,
0001
0000
0010
0100
,
1000
1000
0001
0001
,
0101
1100
0101
1100
,
1001
0010
1000
0100
,
0000
0010
0001
0100
,
0000
0010
1000
0001
,
1000
0100
0010
0001
,
0100
0010
1000
0001
,
0000
0010
0001
0100
,
0000
0010
0100
0001
,
0010
0100
1000
0001
,
0100
0101
1000
1100
,
0010
0110
0001
1000
,
1001
0000
0000
0000
;

//---------------dance-single - ----------------
#NOTES:
     dance-single:
     :
     Medium:
     9:
     :
0000
0000
0000
0000
,
0000
0000
0000
0000
,
0022
0000
0000
0000
0003
0000
0031
0000
1000
0000
0000
0010
0000
0000
0100
0000
,
0010
0000
0000
1000
0000
0000
0001
0000
1000
0000
0000
0100
0000
0000
0010
0000
,
0001
1000
0000
1001
0000
0000
0000
0000
0010
0000
0100
0000
0001
0000
0000
0000
,
1000
0100
0001
0100
1000
0000
0000
0000
,
0010
1000
0000
1010
0000
0000
0000
0000
0100
0000
1000
0000
0001
0000
1000
0000
,
0100
1000
0000
1100
0000
0000
0000
0000
0010
0000
0100
0000
0001
0000
1000
0000
,
0010
0100
0000
0110
0000
0000
0000
0000
0001
0000
0100
0000
1000
0000
0000
0000
,
0010
1000
0001
1000
0100
0000
0000
0000
,
0102
0000
1003
0020
0000
0230
0000
0301
,
1000
0000
0000
1000
0000
0000
0010
0000
1000
0000
0100
0000
0010
0000
0001
0000
,
1001
0000
0000
0000
0110
0000
0000
0000
0000
0000
1000
0100
0010
0001
0010
0100
,
1000
0000
0010
0100
0010
0000
0000
1000
0000
0001
0000
0101
0000
0101
0000
0000
,
0000
0000
1000
0100
1000
0000
0001
0000
0100
0000
0010
0100
0000
0000
0000
0000
,
0110
0000
0010
0000
1000
0100
1000
0100
1000
0000
0000
1010
0000
1010
0000
1010
,
0000
0000
0000
0000
0001
0100
0001
0100
0002
0000
0000
2003
0000
0000
3100
0000
,
0010
0000
0001
1000
0001
0000
0000
0100
0000
0010
0000
0110
0000
0110
0000
0000
,
0000
0000
0001
0100
0001
0000
0010
0000
0100
0000
1000
0001
2000
0000
0000
0000
,
3010
0000
0100
0001
0100
0000
0001
1000
0001
0000
0000
0011
0000
0011
0000
0011
,
0000
0000
0100
0000
0010
1000
0010
1000
0000
0001
0000
1001
0000
0000
1100
0000
,
0000
0010
0110
0100
0000
0001
1001
1000
,
0000
0000
0000
0000
1100
0000
0001
0000
0000
0000
1000
0000
0010
0100
0010
0000
,
1000
0001
0011
0010
0000
0001
0101
0100
,
0000
0000
0000
0000
1010
0000
0100
0000
0000
0000
0001
0000
1000
0100
1000
0000
,
0010
0100
0000
0110
0000
0000
0000
0000
0001
0000
0100
0000
1000
0000
0000
0000
,
0010
1000
0001
0100
0010
0000
0000
0000
,
2010
0000
3001
0020
0000
0230
0000
2300
,
0001
0000
0000
3001
0000
0000
0000
0000
1000
0001
0000
1001
0000
1001
0000
0000
,
0001
0010
0000
0011
0000
0000
0000
0000
1000
0000
0001
0000
0100
0000
0000
0000
,
0010
1000
0001
0000
0010
0100
1000
0001
,
1100
1000
0101
0001
0100
0010
0110
1001
,
1100
0011
0101
1010
,
1001
0000
0010
1000
0010
0000
0000
0100
0000
0001
0000
0101
0000
0101
0000
0000
,
0000
0000
1000
0001
1000
0000
0100
0000
0010
0000
0001
0100
0002
0000
2003
0000
,
3010
0000
1000
0001
1000
0000
0100
0000
0010
0000
0000
0110
0000
0110
0000
0110
,
0000
0000
0000
0000
0001
1000
0001
1000
0002
0000
0000
0023
0000
0000
0130
0000
,
1000
0000
0001
0100
0001
0000
0000
1000
0000
0010
0000
1010
0000
1010
0000
0000
,
0000
0000
0100
1000
0100
0000
0010
0000
0001
0000
1000
0001
2000
0000
3020
0000
,
0130
0000
0001
0010
0001
0000
1000
0010
1000
0000
0000
1100
0000
1100
0000
1100
,
0000
0000
0010
0100
0010
0000
1000
0000
1001
0000
0000
0011
0000
0000
1100
0000
,
0000
1000
1001
0001
0000
0100
0110
0010
,
0000
0000
0000
0000
1010
0000
0001
0000
0000
0000
1000
0000
0001
0100
0001
0000
,
1001
0000
0000
0000
;

//---------------dance-single - ----------------
#NOTES:
     dance-single:
     :
     Hard:
     12:
     :
0000
0000
0000
0000
,
0000
0000
0000
0000
,
0012
0000
0000
0013
0000
0000
0001
0000
1000
0000
0000
0010
0000
0000
0100
0000
,
0001
0000
0000
1000
0000
0000
0100
0000
0010
0000
0001
1000
0000
0001
1000
0000
,
0010
0100
0000
0110
0000
0001
1000
0002
0000
0100
0103
0000
0000
0010
1000
0002
,
0000
1000
1003
0000
1100
0000
0010
0100
0001
0000
0000
0100
0010
0000
1000
0001
,
1000
0010
0000
1010
0000
0000
0000
0001
0100
0000
0010
1000
0000
0001
0000
1000
,
0010
0100
0000
0101
0000
0000
1000
0001
1000
0010
0100
0001
0100
0010
0100
0001
,
1000
0001
0000
1001
0000
0010
1000
0200
0000
0010
0310
0000
0000
0001
0100
0001
,
1000
0001
0000
0010
0000
0100
1000
0000
1100
0000
0001
1000
0001
0000
0000
0000
,
0101
0100
0000
0010
1000
0000
0001
0000
1000
0000
0010
0100
0010
0000
1000
0000
,
1002
0000
0103
0010
0000
0000
1000
0001
1000
0000
0100
0000
0010
0000
0001
0000
,
0110
0000
1000
0100
1000
0000
0001
0000
0001
0000
1000
0010
0100
0010
0100
0001
,
1000
0000
0100
0010
0001
0100
0001
1000
0000
1100
0000
0101
0000
1100
0000
0000
,
0010
0000
1000
0100
0001
0100
1000
0001
0200
0000
0310
1000
0001
0100
0001
0000
,
0010
0000
0001
0100
0010
0100
0010
1000
0100
0010
0000
0011
0000
0110
0000
1100
,
0000
0000
0000
0010
1000
0100
1000
0001
0100
0010
0000
1000
0000
0001
0000
0010
,
0001
0000
0100
0010
1000
0001
1000
0010
0000
1010
0000
0011
0000
1010
0000
0000
,
0100
0000
0010
1000
0010
0100
0010
0001
0010
0000
0100
0001
1000
0100
1000
0100
,
0010
0001
1000
0001
0010
0100
1000
0010
0100
0001
0000
0101
0000
1001
0000
1100
,
0000
0000
0001
1000
0010
1000
0100
0010
0000
0011
0000
1100
0000
0001
0100
0000
,
0010
1000
0110
0001
0100
0010
1001
0100
,
0010
0000
0000
1000
1100
0000
0001
0000
0000
0000
0101
0000
0001
1000
0001
0000
,
0010
0100
1100
0010
1000
0001
0011
0100
,
0010
0000
0000
0100
0101
0000
1000
0000
0000
0000
1001
0000
0001
0100
0010
0000
,
1000
0001
0000
0101
0000
0100
0010
2000
0000
0001
3001
0000
0000
0010
0100
2000
,
0000
0000
0001
0000
3001
0000
0100
0010
1000
0000
0000
0100
1000
0000
0001
0000
,
1020
0000
0230
0000
0301
0000
0010
0000
0000
0000
0001
0100
1000
0000
0010
0000
,
0100
0010
0000
0110
0000
1000
0100
1000
0001
0001
0000
0101
0000
0101
0000
0000
,
0010
0100
0000
1001
0000
1000
0001
2000
0000
0010
3010
0000
0000
0100
0001
0020
,
0000
0100
0130
0000
0000
1000
0100
1000
0010
0001
0010
0100
0010
1000
0010
0000
,
1000
0100
1100
0000
0001
0100
0101
0000
0010
1000
0010
0100
0010
0001
0010
0000
,
0011
1010
0101
1100
,
0110
0000
0010
0001
1000
0010
0100
0001
0000
0011
0000
1100
0000
0011
0000
0000
,
0100
0000
0010
1000
0010
1000
0100
0010
0001
0000
1000
0001
1000
0100
1000
0100
,
0010
0000
0001
0100
0001
0010
0100
1000
0010
0100
0000
0110
0000
1001
0000
0110
,
0000
0000
0000
0010
1000
0001
0010
0001
0100
0010
0000
1000
0000
0100
0000
0010
,
0001
0000
0100
0001
0010
0100
1000
0001
0000
0101
0000
1010
0000
0101
0000
0000
,
0010
0000
0001
0100
1000
0100
0001
0100
0010
0000
1000
0001
1000
0100
1000
0100
,
0010
0001
1000
0001
0010
0100
1000
0010
0100
0001
0000
1001
0000
1010
0000
1100
,
0000
0000
0100
1000
0001
0100
0010
1000
0000
0001
0000
0010
0000
0001
0100
0000
,
0010
1000
1100
0001
0100
0010
1010
1000
,
0100
0000
0000
0000
0110
0000
0001
0000
0000
0000
1001
0000
0010
0100
0001
0000
,
1001
0000
0000
0000
;
