#TITLE:Lo-Fi-M;
#SUBTITLE:;
#ARTIST:yaseta;
#TITLETRANSLIT:;
#SUBTITLETRANSLIT:;
#ARTISTTRANSLIT:;
#GENRE:;
#CREDIT:;
#BANNER:Lo-Fi-M-bn.png;
#BACKGROUND:Lo-Fi-M-bg.png;
#LYRICSPATH:;
#CDTITLE:;
#MUSIC:Lo-Fi-M.ogg;
#OFFSET:0.000000;
#SAMPLESTART:70.286003;
#SAMPLELENGTH:20.000000;
#SELECTABLE:YES;
#DISPLAYBPM:140.000000;
#BPMS:0.000000=140.000000
;
#STOPS:
;
#BGCHANGES:;
#KEYSOUNDS:;
#ATTACKS:;

//---------------dance-single - ----------------
#NOTES:
     dance-single:
     :
     Hard:
     17:
     0.935705,0.921891,0.206297,0.257872,1.087358,762.000000,738.000000,24.000000,30.000000,0.000000,0.000000,0.935705,0.921891,0.206297,0.257872,1.087358,762.000000,738.000000,24.000000,30.000000,0.000000,0.000000:
0000
0000
0000
0000
,
0000
0000
0000
0000
,
0001
0000
1000
0000
0000
0000
0100
0010
0100
0000
1000
0000
0000
0000
0001
0010
,
0001
0000
1000
0000
0000
0000
0010
0100
0010
0000
0110
0000
0110
0000
0000
0000
,
1000
0000
0001
0000
0010
0000
0100
1000
0100
0000
0010
0000
0001
0000
1000
0010
,
1000
0000
0001
0000
0010
0000
0100
1000
0001
1000
0001
1000
0001
0000
0000
0000
,
0010
0000
1000
0000
0100
0000
0010
0001
0010
0000
0001
1000
0001
0000
0100
0010
,
1000
0000
0001
1000
0001
0000
0010
0100
0010
0000
1001
0000
1001
0000
0000
0000
,
1000
0000
0010
0000
0100
0000
0001
0010
0001
0000
1000
0000
0100
0000
0010
0001
,
1000
0000
0000
0000
0000
0000
0010
0000
0000
0000
0000
0000
0100
0000
0000
0000
0000
0000
0001
0000
0000
1000
0000
0000
0001
0000
0000
0000
0010
0000
0001
0000
0000
0000
0010
0000
0001
0000
0000
0000
0000
0000
0100
0000
0000
0000
0000
0000
,
1000
0000
0010
0000
0100
0000
0001
1000
0001
0000
0010
0000
0100
0000
1000
0010
,
1000
0000
0001
0000
0010
0000
0100
1000
0020
0000
0230
0000
0302
0000
2003
0000
,
3010
0000
1000
0000
0100
0000
1000
0010
1000
0000
0001
0000
0010
0000
0001
0100
,
0001
0000
0000
0000
0000
0000
0010
0000
0000
0000
0000
0000
0100
0000
0000
0000
0000
0000
1000
0000
0000
0001
0000
0000
1000
0000
0000
0000
0100
0000
1000
0000
0000
0000
0100
0000
1000
0000
0000
0000
0000
0000
0001
0000
0000
0000
0000
0000
,
0010
0000
0001
0010
0000
0001
1000
0000
0100
1000
0000
0100
1000
0000
0010
1000
0000
0010
0100
0000
0001
0100
0000
0001
,
1000
0000
1000
0100
0000
0100
0010
0000
0010
0001
0000
0001
1000
0000
0000
1001
0000
0000
0110
0000
0000
0000
0000
0000
,
0010
0000
0000
1000
0000
0000
0101
0000
0000
0100
0000
0000
0001
0000
1000
0000
0000
0010
0000
0000
0000
0110
0000
0000
,
0000
0000
0000
1010
0000
0000
1000
0000
0000
0001
0000
0000
1000
0000
0010
0100
0000
0001
0100
0000
0000
0101
0000
0000
,
1000
0000
0010
2000
0000
0000
3001
0000
0010
0002
0000
0000
0103
0000
0010
0000
0000
0010
1000
0000
0000
1100
0000
0000
,
0000
0000
1000
0001
0000
1000
0001
0000
0000
0100
0000
0000
0010
0000
1000
0020
0000
0000
0130
0000
0001
0200
0000
0000
,
0310
0000
1000
0001
0000
0000
0010
0000
0100
1000
0000
0000
0001
0000
0100
0010
0000
0000
1000
0000
0001
0100
0000
0000
,
1001
0000
0000
0101
0000
0000
0011
0000
0001
1000
0000
0000
0010
0000
0100
0001
0000
0100
0010
0000
0000
1000
0000
0000
,
1100
0000
0000
0001
0000
0000
0001
0000
0010
0100
0000
0010
0100
0000
0000
1000
0000
0000
1000
0000
0001
0100
0000
0001
,
0100
0000
0000
0000
0000
0000
0010
0000
0000
0000
1000
0000
0001
0000
0000
0000
1000
0000
0010
0000
0000
0000
0100
0000
0001
0000
0000
0000
1000
0000
0010
0000
0000
0000
0000
0000
1000
0000
0000
0001
0000
0000
0100
0000
0000
0000
0000
0000
,
2020
0000
0030
0000
3002
0023
0230
2300
,
3020
0000
0000
0230
0000
0000
0302
0000
0000
2003
0000
0000
3010
0000
0100
0010
0000
0100
0010
0000
1000
0001
0000
0000
,
1000
0000
0100
0001
0000
0100
1000
0000
0000
0001
0000
0100
1000
0000
0100
0001
0000
0000
0010
0000
0001
1000
0000
0010
,
0100
0000
0000
0001
0000
0001
1000
0000
1000
0100
0000
0100
1000
0000
0010
0100
0000
0010
2000
0000
0000
3002
0000
0000
,
0013
0000
0001
1000
0000
0001
0100
0000
0000
0010
0000
1000
0100
0000
1000
0001
0000
0000
0100
0000
0100
0010
0000
0010
,
0100
0000
0000
0001
0000
1000
0010
0000
1000
0001
0000
0000
0100
0000
0010
0100
0000
0010
1000
0000
0001
0100
0000
0000
,
0001
0000
0010
1000
0000
0010
0001
0000
0000
1000
0000
0010
0001
0000
0010
1000
0000
0000
0100
0000
0010
0100
0000
0010
,
0001
0000
0000
1000
0000
1000
0010
0000
0010
0100
0000
0100
0001
0000
1000
0001
0000
1000
0001
0000
0000
0100
0000
0000
,
0110
0001
0110
0001
0110
1000
0200
0000
,
1300
0001
0010
0000
0100
0000
0100
0000
1000
0000
0001
0000
1000
0000
0010
0000
,
0100
0001
1000
0000
0010
0000
0010
0000
1000
0000
0001
0000
1000
0000
0100
0000
,
0010
0000
0001
1000
0000
0000
0010
0000
0000
0010
0000
0000
0100
0000
0000
1000
0000
0000
0100
0000
0000
0001
0000
0000
,
0010
0000
0000
0000
0100
0000
1000
0000
0000
0000
0000
0000
0001
0000
0000
0000
0000
0000
0001
0000
0000
0000
0000
0000
0100
0000
0000
0000
0000
0000
0010
0000
0000
0000
0000
0000
1000
0000
0000
0001
0000
0000
1000
0000
0000
0001
0000
0000
,
1000
0000
0100
0010
0000
0000
0001
0000
0000
0001
0000
0000
1000
0000
0100
0010
0000
0000
0001
0000
0000
0001
0000
0000
,
1000
0000
0100
0010
0000
0000
0001
0000
0000
0001
0000
0000
1000
0000
0100
0010
0000
0000
0022
0000
0000
0000
0030
0000
,
1003
0000
0001
1000
0000
0001
0010
0000
0100
0010
0000
0100
1000
0000
0010
0100
0000
0001
0010
0000
0100
1000
0000
0001
,
0200
0000
0000
0310
0000
0010
1000
0000
0001
1000
0000
0001
0100
0000
0100
0010
0000
0010
2000
0000
0000
3002
0000
0000
,
0013
0000
0001
0100
0000
0001
1000
0000
0000
0100
0000
1000
0010
0000
1000
0001
0000
0000
0100
0000
0000
0010
0000
0000
,
1000
0000
0000
0001
0000
0100
1000
0000
0100
0001
0000
0000
0010
0000
0100
1000
0000
0010
0100
0000
0001
1000
0000
0000
,
0010
0000
0000
0000
1000
0000
0010
0000
0000
0000
0100
0000
0000
0000
0000
0100
0000
0000
0001
0000
0000
1000
0000
0000
0001
0000
0000
0000
0010
0000
0001
0000
0000
0000
0000
0000
0100
0000
0000
0000
0010
0000
1000
0000
0000
0000
0010
0000
,
1000
0000
0000
0001
0000
0001
0010
0000
0010
0100
0000
0100
1000
0000
0010
0001
0000
0010
1000
0000
0000
0100
0000
0000
,
0010
0000
0010
0100
0000
0100
1000
0000
0001
1000
0000
0001
0100
0000
0010
2000
0000
0000
3100
0000
0010
0002
0000
0000
,
1003
0000
0001
1000
0000
0100
0010
0000
0000
0010
0000
0000
0010
0000
0001
0100
0000
0001
1000
0000
0100
0010
0000
0000
,
0001
0000
0100
0001
0000
0100
0010
0000
1000
0010
0000
1000
0100
0000
0010
0100
0000
0010
0001
0000
1000
0001
0000
1000
,
0010
0000
0100
0001
0000
1000
0010
0000
0100
0001
0000
1000
0010
0000
0100
0001
0000
1000
0010
0000
0010
0100
0000
0000
,
1001
0000
0000
1000
0000
0000
0010
0000
0100
0010
0000
0000
1000
0000
0001
1000
0000
0000
0001
0000
0000
0010
0000
0100
,
1000
0000
0000
0001
0000
0010
1000
0000
0010
0001
0000
0000
0100
0000
1000
0100
0001
0000
0100
0000
0000
0010
0000
0000
,
1000
0000
0000
0000
0000
0000
0100
0000
0000
0010
0000
0000
0002
0000
0000
0000
0000
0000
2003
0000
0000
0000
0000
0000
3010
0000
0000
0000
1000
0000
0001
0000
0000
0000
0000
0000
0100
0000
0000
0000
0010
0000
0100
0000
0000
0000
0000
0000
,
0001
0000
0001
1000
0000
1000
0001
0000
0001
1000
0000
1000
0010
0000
0100
0001
0000
0000
0100
0000
0010
0100
0000
0000
,
0001
0000
1000
0001
0000
0010
0001
0000
0100
0010
0000
0100
0001
0000
1000
0001
0000
0000
1000
0000
0100
1000
0000
0000
,
0010
1000
0100
0000
0010
0001
0100
0000
0010
0001
0010
0100
0010
1000
0010
0000
,
1000
0000
0100
1000
0000
0100
0010
0000
0001
0010
0000
0001
1000
0000
0010
1000
0000
0010
0100
0000
0001
0100
0000
0001
,
0010
0000
0000
0000
0000
0000
0000
0000
0000
0000
0000
0000
0000
0000
0000
0000
0010
0000
0000
0000
0000
0000
0000
0000
0100
0000
0000
0000
0000
0000
0000
0000
0000
0000
0000
0000
0000
0000
0000
0000
0100
0000
0000
0000
0000
0000
0000
0000
1000
0000
0000
0000
0000
0000
0000
0000
0000
0000
0000
0000
0000
0000
0000
0000
0001
0000
0000
0000
0000
0000
0000
0000
1000
0000
0000
0000
0000
0000
0000
0000
0001
0000
0000
0000
0000
0000
0000
0000
0000
0000
0000
0000
0000
0000
0000
0000
0100
0000
0000
0000
0000
0000
0000
0000
0000
0000
0000
0000
0000
0000
0000
0000
0000
0000
0000
0000
0000
0000
0000
0000
1001
0000
0000
0000
0000
0000
0000
0000
0000
0000
0000
0000
0000
0000
0000
0000
0000
0000
0000
0000
0000
0000
0000
0000
0010
0000
0000
0000
0000
0000
1000
0000
0000
0000
0000
0000
0010
0000
0000
0000
0000
0000
1000
0000
0000
0000
0000
0000
0010
0000
0000
0000
0000
0000
0000
0000
0000
0000
0000
0000
0000
0000
0000
0000
0000
0000
0000
0000
0000
0000
0000
0000
,
0100
0000
0001
0000
1000
0010
0100
0010
1000
0000
0001
0000
0010
0100
1000
0001
,
1000
0000
0000
0000
0000
0000
0010
0000
0000
0000
0000
0000
0100
0000
0000
0001
0000
0000
1000
0000
0000
0001
0000
0000
0100
0000
0000
0000
0010
0000
1000
0000
0000
0000
0001
0000
0010
0000
0000
0000
0001
0000
0100
0000
0000
0000
0000
0000
,
0010
0000
1000
0000
0100
0010
0001
0010
0100
0000
1000
0000
0001
0010
0001
1000
,
0001
0000
0000
0000
0000
0000
0100
0000
0000
0000
0000
0000
0010
0000
0000
1000
0000
0000
0001
0000
0000
1000
0000
0000
0010
0000
0000
0000
0100
0000
0001
0000
0000
0000
0000
0000
1000
0000
0000
0000
0001
0000
0100
0000
0000
0000
0000
0000
,
0010
0000
1000
0000
0001
0010
0001
1000
0100
0000
0010
0000
0001
0100
1000
0100
,
0010
0000
0000
0000
0000
0000
1000
0000
0000
0000
0000
0000
0001
0000
0000
0010
0000
0000
0001
0000
0000
0100
0000
0000
0010
0000
0000
0000
1000
0000
0100
0000
0000
0000
1000
0000
0001
0000
0000
0000
0000
0000
0100
0000
0000
0000
0000
0000
,
0010
0000
1000
0010
0000
1000
0100
0000
0010
0100
0000
0010
0001
0000
0100
0001
0000
1000
0001
0000
0100
0001
0000
1000
,
0010
0000
0010
1000
0000
1000
0001
0000
0001
0100
0000
0100
0010
0000
1000
0001
0000
0000
0101
0000
0000
0000
0000
0000
,
1100
0000
0000
0000
;

//---------------dance-single - ----------------
#NOTES:
     dance-single:
     :
     Medium:
     13:
     0.599244,0.586658,0.292254,0.257872,0.000000,488.000000,454.000000,34.000000,30.000000,0.000000,0.000000,0.599244,0.586658,0.292254,0.257872,0.000000,488.000000,454.000000,34.000000,30.000000,0.000000,0.000000:
0000
0000
0000
0000
,
0000
0000
0000
0000
,
0001
1000
0000
0010
1000
0100
0000
0010
,
0001
1000
0000
0001
0100
0010
0110
0000
,
1000
0010
1000
0001
0010
0100
0001
0100
,
1000
0010
0100
0001
1000
0001
1001
0000
,
0010
1000
0010
0100
0001
0010
0001
1000
,
0100
0010
0001
0100
0010
1000
1100
0000
,
1000
0001
0010
0001
1000
0001
0100
0001
,
0010
0100
1000
0010
0110
0110
0110
0000
,
0001
0010
0001
1000
0001
0010
0001
0100
,
0010
0100
0001
1000
0020
0230
0302
2003
,
3100
0010
0001
1000
0001
0010
0001
0100
,
0010
1000
0001
0100
1001
1001
1001
0000
,
0010
1000
0010
0100
0001
1000
0001
0100
,
0001
0010
0100
1000
1100
1100
1100
0000
,
0020
0000
0130
0001
1000
0100
0010
0001
,
0100
0010
1000
0001
0010
0010
0011
0000
,
1000
0001
1000
0010
1000
0001
1000
0010
,
1000
0100
0010
0100
2000
3002
0203
0320
,
1030
1010
0000
0101
0000
0011
0000
1100
,
1001
1001
1001
0000
0010
0100
0010
0000
,
1000
0001
1000
0001
0100
0010
0100
0010
,
1000
0100
0010
0001
0010
0100
1000
0000
,
2020
0000
0030
0000
3001
0010
0100
1000
,
0010
0100
0010
1000
0001
1000
0100
0020
,
0031
1000
0100
0001
1000
0100
0001
0010
,
0100
1000
0010
1000
0100
0010
0001
0001
,
0001
0010
1000
0001
0010
1000
0100
0010
,
0100
1000
0010
1000
0100
0010
0001
2000
,
3010
1000
0001
0010
0001
1000
0010
1000
,
0100
0010
0100
1000
0010
0100
0001
1000
,
0110
0001
0110
0001
0110
1000
0000
0000
,
0010
0100
0010
1000
0001
0100
0001
0010
,
1000
0001
1000
0010
0100
0010
0100
0001
,
0010
0100
1000
0010
1000
0001
1000
0100
,
0010
0100
0010
0001
0100
0010
1000
1000
,
0010
0100
0010
0100
0001
1000
0001
1000
,
0001
0010
0100
1000
0100
0010
0002
0000
,
0103
0010
0100
0001
0010
0100
1000
0010
,
1000
0001
1000
0100
0010
0001
0100
0100
,
0001
0010
1000
0001
0100
1000
0010
0000
,
1000
0100
0010
0001
0010
0100
1000
0000
,
0010
1000
0100
0010
1000
0100
0010
0001
,
1000
0010
1000
0001
0010
0100
1000
0010
,
0100
0001
0100
0010
2000
0000
3002
0000
,
0023
0000
0130
1000
0010
0100
0001
0000
,
1000
0001
0010
0001
0100
0010
0100
0001
,
0010
0001
1000
0010
1000
0100
0010
0001
,
1001
0000
0010
0100
0002
0000
0013
0100
,
1000
0010
1000
0001
0100
0010
0100
0000
,
0001
0000
2100
3010
0000
0100
0000
0001
,
1000
0010
1000
0001
0010
0100
1000
0001
,
0100
0010
0100
0001
2000
0000
3002
0000
,
0023
0230
2300
3002
,
1003
0100
0010
0100
0001
0100
0010
0100
,
1000
0001
1000
0010
0100
0001
2000
0000
,
3010
1000
0000
0100
0010
0001
0000
0100
,
0001
1000
0000
0010
0100
0001
1000
0000
,
0010
1000
0001
1000
0010
0100
0001
0100
,
0001
0010
0100
1000
0020
0230
0302
2003
,
3100
1100
0000
0101
0000
1100
0000
0101
,
1000
0001
0010
0100
1000
0010
1000
0000
,
0010
1000
0001
0010
0100
1000
0001
0100
,
0001
0010
0100
1000
1100
1100
1100
0000
,
1001
0000
0000
0000
;

//---------------dance-single - ----------------
#NOTES:
     dance-single:
     :
     Easy:
     8:
     0.372072,0.530786,0.206297,0.154723,0.000000,303.000000,279.000000,24.000000,18.000000,0.000000,0.000000,0.372072,0.530786,0.206297,0.154723,0.000000,303.000000,279.000000,24.000000,18.000000,0.000000,0.000000:
0000
0000
0000
0000
,
0000
0000
0000
0000
,
0001
0100
1000
0100
,
0001
0000
0100
0000
1000
0001
0100
0000
,
0001
0010
1000
0010
,
0001
0000
0010
0000
1000
0001
0010
0000
,
1000
0100
0010
0001
,
0100
0010
1001
0110
,
1000
0010
0100
0001
,
0010
0000
0100
0000
1000
0010
0100
0000
,
0001
0010
0001
0100
,
1000
0000
0010
0000
1000
0100
0010
0001
,
0100
0010
1000
0001
,
0010
0000
0001
0000
0100
0010
1000
0000
,
0001
0010
0001
1000
,
0010
0000
0100
0000
0010
0010
0010
0000
,
2001
3002
0013
0100
,
1000
0000
0001
0000
1000
0100
1000
0000
,
0010
0100
0010
1000
,
0100
0000
0010
0000
0001
0010
0100
1000
,
0000
1100
0000
0101
0000
1100
0000
0101
,
0101
0101
0101
0000
1000
0001
1000
0000
,
0010
0100
0010
1000
,
0100
0010
0001
1000
,
2020
0030
0001
3001
,
1000
0010
1000
0001
,
0010
0100
0010
0001
,
0100
0010
0100
0001
,
1000
0001
1000
0010
,
0100
0001
1000
0001
,
0010
0100
0010
0001
,
0100
0010
1000
0100
,
0110
0110
0110
0000
,
0001
0100
1000
1000
,
0001
0100
0010
0010
,
1000
0001
0100
0100
,
0001
1000
0010
0010
,
1000
0001
1000
0010
,
1000
0000
0100
0000
1000
0001
0200
0000
,
0310
0100
0010
1000
,
0100
0010
1001
0110
,
0001
0000
1000
0000
0010
0100
0000
0000
,
0001
0000
0010
0000
0001
1000
0001
0000
,
1000
0010
0100
0001
,
0010
0000
0100
0000
1000
0010
1000
0001
,
0100
0000
0010
0100
0002
0000
2003
0000
,
3020
0000
0230
0000
0301
1000
0001
0000
,
0010
0100
1000
0010
,
1000
0000
0001
0000
1000
0100
0000
0000
,
1001
0001
1100
1000
,
0010
0000
0100
0000
0001
0010
0001
0000
,
0100
0000
0010
1000
0000
0000
0000
0002
,
1000
0000
1003
0010
2000
0000
3100
0000
,
0010
0001
0010
0001
2000
0000
3002
0000
,
2003
3200
0320
0032
,
1003
0001
0010
0100
,
1000
0000
0010
0000
0100
0100
0200
0000
,
0301
0010
0001
0100
,
1000
0000
0010
0000
0100
0001
1000
0000
,
0010
1000
0100
0010
,
0001
0000
0100
0000
0010
0100
0001
1000
,
0000
1010
0000
0011
0000
1010
0000
0011
,
0000
1000
0000
0001
0010
0100
0010
0000
,
0001
0010
0001
0100
,
1000
0000
0010
0000
0100
0100
0110
0000
,
1001
0000
0000
0000
;

//---------------dance-single - ----------------
#NOTES:
     dance-single:
     :
     Beginner:
     5:
     0.194018,0.223489,0.034383,0.000000,0.000000,158.000000,154.000000,4.000000,0.000000,0.000000,0.000000,0.194018,0.223489,0.034383,0.000000,0.000000,158.000000,154.000000,4.000000,0.000000,0.000000,0.000000:
// measure 0
0000
0000
0000
0000
,  // measure 1
0000
0000
0000
0000
,  // measure 2
0001
0000
1000
0000
,  // measure 3
0001
0000
0100
0100
,  // measure 4
0100
0000
0010
0000
,  // measure 5
1000
0000
0001
0001
,  // measure 6
0001
0000
0010
0000
,  // measure 7
0100
0000
1000
1000
,  // measure 8
1000
0000
0001
0000
,  // measure 9
1000
0000
0010
0010
,  // measure 10
0010
0000
0100
0000
,  // measure 11
0010
0000
1000
1000
,  // measure 12
1000
0000
0010
0000
,  // measure 13
1000
0000
0001
0001
,  // measure 14
0001
0000
0010
0000
,  // measure 15
0100
0000
1000
1000
,  // measure 16
1000
0000
0010
0010
,  // measure 17
0000
0000
0100
0100
,  // measure 18
0000
0001
0000
1000
,  // measure 19
0000
0000
0010
0010
,  // measure 20
0010
0000
0100
0000
,  // measure 21
0001
0001
0001
0001
,  // measure 22
0001
0000
1000
0000
,  // measure 23
0010
0000
0110
0000
,  // measure 24
1001
0000
0000
0000
,  // measure 25
1000
0000
0000
0000
,  // measure 26
0010
0000
0010
0000
,  // measure 27
1000
0000
0001
0000
,  // measure 28
0010
0010
0000
0001
,  // measure 29
0000
0100
0000
0100
,  // measure 30
0000
1000
0000
0100
,  // measure 31
0000
1000
0000
0001
,  // measure 32
0001
0001
0001
0000
,  // measure 33
0010
0000
0010
0000
,  // measure 34
0001
0000
0001
0000
,  // measure 35
1000
0000
1000
0000
,  // measure 36
0100
0000
0100
0000
,  // measure 37
1000
0000
0001
0000
,  // measure 38
1000
0000
0010
0000
,  // measure 39
0100
0100
0100
0000
,  // measure 40
0010
0010
0010
0000
,  // measure 41
1000
0001
1000
0000
,  // measure 42
0010
0000
0100
0100
,  // measure 43
0001
1000
0001
0000
,  // measure 44
0010
0100
0010
0100
,  // measure 45
1000
1000
0000
0000
,  // measure 46
0001
0000
1000
1000
,  // measure 47
0010
0000
0100
0000
,  // measure 48
0001
1000
0010
0000
,  // measure 49
1001
0000
0000
0000
,  // measure 50
0100
0100
0100
0100
,  // measure 51
0000
0110
0000
0000
,  // measure 52
0001
0100
1000
0000
,  // measure 53
0010
0010
0000
0000
,  // measure 54
1000
0001
1000
0001
,  // measure 55
0010
0000
0001
0000
,  // measure 56
0100
0000
1000
1000
,  // measure 57
0010
0000
1000
0000
,  // measure 58
0010
0000
0100
0001
,  // measure 59
1000
0000
0100
0000
,  // measure 60
0010
0000
0100
0010
,  // measure 61
0001
0000
0001
0000
,  // measure 62
0010
0000
0001
1000
,  // measure 63
0100
0000
0100
0000
,  // measure 64
1000
0000
0010
0010
,  // measure 65
0100
0000
0000
0000
;
